<?xml version="1.0" standalone="no"?>
<!DOCTYPE svg PUBLIC "-//W3C//DTD SVG 1.1//EN" "http://www.w3.org/Graphics/SVG/1.1/DTD/svg11.dtd" >
<svg xmlns="http://www.w3.org/2000/svg" xmlns:xlink="http://www.w3.org/1999/xlink" version="1.1">
<metadata>
Created by FontForge 20170731 at Wed Jun  5 21:03:32 2002
 By Aleksey,,,
Copyright (c) 1990, 1991, 2002 Adobe Systems Incorporated.  All Rights Reserved. (c) 1981, 2002 Heidelberger Druckmaschinen AG. All rights reserved.
</metadata>
<defs>
<font id="HelveticaRoundedLTStd-Black" horiz-adv-x="666" >
  <font-face 
    font-family="HelveticaRounded LT Std Blk"
    font-weight="900"
    font-stretch="normal"
    units-per-em="1000"
    panose-1="2 15 9 4 3 5 3 2 2 4"
    ascent="733"
    descent="-267"
    x-height="523"
    cap-height="733"
    bbox="-140 -222 998 1000"
    underline-thickness="50"
    underline-position="-200"
    unicode-range="U+0020-FB02"
  />
<missing-glyph horiz-adv-x="500" 
d="M0 0v700h500v-700h-500zM250 395l170 255h-340zM280 350l170 -255v510zM80 50h340l-170 255zM50 605v-510l170 255z" />
    <glyph glyph-name="fi" unicode="fi" 
d="M71 523v39q0 87 46 131t134 44q82 0 113 -21t31 -57q0 -38 -22 -55t-79 -17q-23 0 -23 -24v-40h41q64 0 64 -60t-64 -60h-41v-313q0 -103 -100 -103t-100 103v313q-71 0 -71 60t71 60zM423 89v345q0 51 28 76.5t75 25.5t75 -25.5t28 -76.5v-345q0 -51 -28 -76.5
t-75 -25.5t-75 25.5t-28 76.5zM429 671q0 41 28.5 69t68.5 28t68.5 -28t28.5 -69t-28.5 -69t-68.5 -28t-68.5 28t-28.5 69z" />
    <glyph glyph-name="fl" unicode="fl" 
d="M423 89v542q0 51 28 76.5t75 25.5t75 -25.5t28 -76.5v-542q0 -51 -28 -76.5t-75 -25.5t-75 25.5t-28 76.5zM71 523v39q0 87 46 131t134 44q82 0 113 -21t31 -57q0 -38 -22 -55t-79 -17q-23 0 -23 -24v-40h41q64 0 64 -60t-64 -60h-41v-313q0 -103 -100 -103t-100 103v313
q-71 0 -71 60t71 60z" />
    <glyph glyph-name=".notdef" horiz-adv-x="500" 
d="M0 0v700h500v-700h-500zM250 395l170 255h-340zM280 350l170 -255v510zM80 50h340l-170 255zM50 605v-510l170 255z" />
    <glyph glyph-name=".null" horiz-adv-x="0" 
 />
    <glyph glyph-name="nonmarkingreturn" horiz-adv-x="333" 
 />
    <glyph glyph-name="space" unicode=" " horiz-adv-x="334" 
 />
    <glyph glyph-name="exclam" unicode="!" horiz-adv-x="370" 
d="M76 616q0 117 109 117t109 -117q0 -103 -45 -309q-6 -28 -20 -40t-44 -12t-44 12t-20 40q-45 206 -45 309zM73 106q0 46 32.5 79t79.5 33t79.5 -33t32.5 -79t-32.5 -79t-79.5 -33t-79.5 33t-32.5 79z" />
    <glyph glyph-name="quotedbl" unicode="&#x22;" horiz-adv-x="481" 
d="M271 440v223q0 31 18 50.5t48 19.5t48 -19.5t18 -50.5v-223q0 -31 -18 -50.5t-48 -19.5t-48 19.5t-18 50.5zM78 440v223q0 31 18 50.5t48 19.5t48 -19.5t18 -50.5v-223q0 -31 -18 -50.5t-48 -19.5t-48 19.5t-18 50.5z" />
    <glyph glyph-name="numbersign" unicode="#" horiz-adv-x="668" 
d="M180 290l17 118h-39q-24 0 -36 14t-12 34t12 34t36 14h53l21 155q8 52 56 52q19 0 32 -11t13 -27q0 -18 -12 -100l-10 -69h90l21 155q8 52 56 52q19 0 32 -11t13 -27q0 -18 -12 -100l-10 -69h40q24 0 36 -14t12 -34t-12 -34t-36 -14h-53l-17 -118h39q24 0 36 -14t12 -34
t-12 -34t-36 -14h-53l-21 -155q-8 -52 -56 -52q-19 0 -32 11t-13 27q0 18 12 100l10 69h-90l-21 -155q-8 -52 -56 -52q-19 0 -32 11t-13 27q0 18 12 100l10 69h-40q-24 0 -36 14t-12 34t12 34t36 14h53zM370 290l17 118h-89l-17 -118h89z" />
    <glyph glyph-name="dollar" unicode="$" horiz-adv-x="668" 
d="M299 121v155q-137 39 -195.5 84t-58.5 133q0 70 39 121t95.5 74t119.5 23v13q0 41 36 41t36 -41v-13q29 0 68.5 -9.5t80 -27t68 -48t27.5 -67.5q0 -32 -22.5 -53.5t-61.5 -21.5q-21 0 -42.5 18.5t-51 41.5t-66.5 31v-138q136 -34 198 -87.5t62 -145.5q0 -102 -76 -157.5
t-184 -59.5v-53q0 -41 -36 -41t-36 41v53q-117 0 -189.5 56t-72.5 119q0 35 23 58t59 23q22 0 42 -16t34.5 -36t42 -41t61.5 -29zM299 454v125q-35 -3 -59.5 -17t-24.5 -39q0 -29 25 -47t59 -22zM371 257v-138q84 7 84 64q0 59 -84 74z" />
    <glyph glyph-name="percent" unicode="%" horiz-adv-x="1000" 
d="M604 163v48q0 83 42 132.5t131 49.5t130.5 -49.5t41.5 -132.5v-48q0 -75 -44 -125.5t-128 -50.5q-85 0 -129 50.5t-44 125.5zM829 190q0 59 -10 89t-42 30q-33 0 -43 -30t-10 -89t10 -89t43 -30q32 0 42 30t10 89zM51 481v48q0 83 42 132.5t131 49.5t130.5 -49.5
t41.5 -132.5v-48q0 -75 -44 -125.5t-128 -50.5q-85 0 -129 50.5t-44 125.5zM276 508q0 59 -10 89t-42 30q-33 0 -43 -30t-10 -89t10 -89t43 -30q32 0 42 30t10 89zM290 40l313 633q21 43 35.5 55t36.5 12q18 0 33 -14.5t15 -27.5q0 -14 -13 -40l-313 -633q-21 -43 -35.5 -55
t-36.5 -12q-18 0 -33 14.5t-15 27.5q0 14 13 40z" />
    <glyph glyph-name="ampersand" unicode="&#x26;" horiz-adv-x="815" 
d="M499 345l70 -67q54 52 76.5 65.5t45.5 13.5q28 0 50 -21t22 -51q0 -27 -15 -50.5t-62 -68.5q57 -50 57 -92q0 -40 -30 -65.5t-65 -25.5q-19 0 -41 15t-61 59q-88 -74 -249 -74q-130 0 -189.5 62.5t-59.5 162.5q0 66 41 118.5t111 80.5q-65 61 -65 133q0 80 62 132.5
t178 52.5q110 0 179.5 -53.5t69.5 -138.5q0 -61 -30.5 -104.5t-94.5 -83.5zM431 173l-109 111q-74 -46 -74 -81q0 -30 21 -50t53 -20q55 0 109 40zM456 543q0 27 -19.5 41.5t-52.5 14.5q-67 0 -67 -56q0 -38 62 -83q77 37 77 83z" />
    <glyph glyph-name="quotesingle" unicode="'" horiz-adv-x="258" 
d="M63 440v223q0 31 18 50.5t48 19.5t48 -19.5t18 -50.5v-223q0 -31 -18 -50.5t-48 -19.5t-48 19.5t-18 50.5z" />
    <glyph glyph-name="parenleft" unicode="(" horiz-adv-x="352" 
d="M50 273q0 144 59 327q25 77 47.5 105t59.5 28q39 0 62.5 -21t23.5 -58q0 -24 -14.5 -80t-29 -136.5t-14.5 -164.5q0 -106 25 -232.5t25 -138.5q0 -41 -22 -65t-63 -24q-39 0 -66.5 40.5t-56.5 149.5q-36 135 -36 270z" />
    <glyph glyph-name="parenright" unicode=")" horiz-adv-x="352" 
d="M108 273q0 106 -25 232.5t-25 138.5q0 41 22 65t63 24q39 0 66.5 -40.5t56.5 -149.5q36 -135 36 -270q0 -144 -59 -327q-25 -77 -47.5 -105t-59.5 -28q-39 0 -62.5 21t-23.5 58q0 24 14.5 80t29 136.5t14.5 164.5z" />
    <glyph glyph-name="asterisk" unicode="*" horiz-adv-x="556" 
d="M224 581v85q0 67 54 67t54 -67v-85l75 31q20 8 35 8q55 0 55 -61q0 -36 -28 -44l-107 -32l45 -57q37 -48 37 -65q0 -22 -18.5 -38t-40.5 -16q-17 0 -29 8t-31 35l-47 68l-47 -68q-19 -27 -31 -35t-29 -8q-22 0 -40.5 16t-18.5 38q0 17 37 65l45 57l-107 32q-28 8 -28 44
q0 61 55 61q15 0 35 -8z" />
    <glyph glyph-name="plus" unicode="+" horiz-adv-x="600" 
d="M234 349v147q0 32 17.5 51t48.5 19t48.5 -19t17.5 -51v-147h147q32 0 51 -17.5t19 -48.5t-19 -48.5t-51 -17.5h-147v-147q0 -32 -17.5 -51t-48.5 -19t-48.5 19t-17.5 51v147h-147q-32 0 -51 17.5t-19 48.5t19 48.5t51 17.5h147z" />
    <glyph glyph-name="comma" unicode="," horiz-adv-x="334" 
d="M55 110q0 45 31 76.5t78 31.5q50 0 85.5 -38.5t35.5 -120.5q0 -53 -17.5 -94.5t-45.5 -64t-56.5 -34t-55.5 -11.5q-25 0 -37.5 13.5t-12.5 30.5q0 21 13 33.5t46 19.5q58 13 58 67q-14 -7 -35 -7q-42 0 -64.5 28.5t-22.5 69.5z" />
    <glyph glyph-name="hyphen" unicode="-" horiz-adv-x="389" 
d="M113 377h163q47 0 70.5 -25t23.5 -69t-23.5 -69t-70.5 -25h-163q-47 0 -70.5 25t-23.5 69t23.5 69t70.5 25z" />
    <glyph glyph-name="period" unicode="." horiz-adv-x="334" 
d="M55 106q0 46 32.5 79t79.5 33t79.5 -33t32.5 -79t-32.5 -79t-79.5 -33t-79.5 33t-32.5 79z" />
    <glyph glyph-name="slash" unicode="/" horiz-adv-x="389" 
d="M43 150l184 521q14 42 27.5 54t46.5 12q28 0 50.5 -18t22.5 -51q0 -17 -28 -98l-184 -521q-14 -42 -27.5 -54t-46.5 -12q-28 0 -50.5 18t-22.5 51q0 17 28 98z" />
    <glyph glyph-name="zero" unicode="0" horiz-adv-x="668" 
d="M424 349q0 107 -21 156.5t-69 49.5t-69 -49.5t-21 -156.5q0 -119 21.5 -162.5t68.5 -43.5t68.5 43.5t21.5 162.5zM38 352q0 168 76.5 263.5t219.5 95.5t219.5 -95.5t76.5 -263.5q0 -189 -79.5 -277t-216.5 -88t-216.5 88t-79.5 277z" />
    <glyph glyph-name="one" unicode="1" horiz-adv-x="519" 
d="M217 89v329h-108q-74 0 -74 71q0 38 18.5 53.5t78.5 25.5q73 13 118 75q27 38 45.5 53t46.5 15q81 0 81 -70v-552q0 -51 -28 -76.5t-75 -25.5t-75 25.5t-28 76.5z" />
    <glyph glyph-name="two" unicode="2" horiz-adv-x="668" 
d="M301 168h238q85 0 85 -84t-85 -84h-408q-38 0 -61.5 24.5t-23.5 58.5q0 35 11 58t54 62t134 102l95 66q37 25 52 48.5t15 54.5q0 37 -23.5 59t-63.5 22q-31 0 -49.5 -14.5t-26.5 -34.5t-16 -40.5t-26.5 -35t-49.5 -14.5q-98 0 -98 97q0 78 73 138t199 60
q77 0 134.5 -19.5t89.5 -53t47.5 -72t15.5 -82.5q0 -62 -31.5 -109.5t-99.5 -90.5l-181 -114v-2z" />
    <glyph glyph-name="three" unicode="3" horiz-adv-x="668" 
d="M403 229q0 35 -16 49t-50 16q-90 7 -90 63q0 69 82 69q28 0 48.5 17t20.5 50q0 68 -93 68q-29 0 -48 -12t-40 -45q-15 -24 -30.5 -32.5t-39.5 -8.5q-43 0 -65.5 27t-22.5 62q0 67 72.5 113t198.5 46q117 0 189.5 -53.5t72.5 -143.5q0 -51 -22 -86.5t-63 -49.5v-2
q49 -15 75.5 -55t26.5 -94q0 -31 -6.5 -60.5t-26.5 -63t-52 -58.5t-88.5 -41.5t-129.5 -16.5q-115 0 -188.5 53t-73.5 122q0 43 24.5 69.5t67.5 26.5q30 0 47.5 -12.5t25.5 -30.5t16 -35.5t26.5 -30t48.5 -12.5q53 0 78 21.5t25 70.5z" />
    <glyph glyph-name="four" unicode="4" horiz-adv-x="668" 
d="M354 95v48h-236q-48 0 -71 29.5t-23 77.5q0 52 60 124l209 252q44 53 72 72t66 19q56 0 86.5 -28.5t30.5 -77.5v-312q47 0 71.5 -17.5t24.5 -60.5t-24 -60.5t-72 -17.5v-48q0 -51 -24.5 -79.5t-72.5 -28.5t-72.5 28.5t-24.5 79.5zM354 299v215h-2l-164 -215h166z" />
    <glyph glyph-name="five" unicode="5" horiz-adv-x="668" 
d="M252 536l-19 -107q40 21 68 28t74 7q99 0 168 -55t69 -168q0 -129 -88 -191.5t-230 -62.5q-37 0 -75.5 7.5t-76.5 23t-62 45t-24 67.5q0 36 27.5 58.5t68.5 22.5q31 0 53 -17t44.5 -34t54.5 -17q49 0 75.5 28.5t26.5 65.5q0 42 -29 71.5t-71 29.5q-27 0 -70 -19.5
t-80 -19.5q-35 0 -64.5 19t-29.5 66q0 62 36 228q10 50 34 68t78 18h270q44 0 66.5 -21.5t22.5 -59.5t-22.5 -59.5t-66.5 -21.5h-228z" />
    <glyph glyph-name="six" unicode="6" horiz-adv-x="668" 
d="M431 227q0 41 -23.5 65.5t-65.5 24.5q-41 0 -65.5 -27t-24.5 -63q0 -37 24.5 -63.5t65.5 -26.5t65 26.5t24 63.5zM37 341q0 171 78.5 270.5t245.5 99.5q29 0 64 -6t74 -19.5t64.5 -41t25.5 -63.5q0 -38 -23.5 -61t-60.5 -23q-34 0 -78 35t-73 35q-63 0 -87 -46t-24 -124
q59 52 146 52q109 0 175.5 -59t66.5 -164q0 -109 -72.5 -174t-209.5 -65q-147 0 -229.5 92t-82.5 262z" />
    <glyph glyph-name="seven" unicode="7" horiz-adv-x="593" 
d="M367 536h-278q-44 0 -66.5 21.5t-22.5 59.5t22.5 59.5t66.5 21.5h390q99 0 99 -88q0 -29 -19 -59.5t-71 -85.5q-37 -39 -83 -139.5t-58 -197.5q-11 -86 -41.5 -113.5t-77.5 -27.5q-34 0 -61.5 27t-27.5 65q0 91 83 247t145 210z" />
    <glyph glyph-name="eight" unicode="8" horiz-adv-x="668" 
d="M57 519q0 30 13 60.5t41.5 61.5t86 50.5t135.5 19.5t136 -19.5t87 -50.5t42 -61.5t13 -60.5q0 -52 -25 -92t-68 -59q59 -27 85.5 -61.5t26.5 -93.5q0 -110 -79.5 -168t-217.5 -58q-137 0 -216 58t-79 168q0 59 26.5 93.5t85.5 61.5q-43 19 -68 59t-25 92zM244 218
q0 -43 24 -65t64 -22q43 0 67.5 22t24.5 65q0 39 -25.5 64t-65.5 25q-38 0 -63.5 -25t-25.5 -64zM251 494q0 -36 21.5 -54.5t60.5 -18.5q84 0 84 73t-84 73q-82 0 -82 -73z" />
    <glyph glyph-name="nine" unicode="9" horiz-adv-x="668" 
d="M416 471q0 37 -24.5 63.5t-65.5 26.5t-65 -26.5t-24 -63.5q0 -41 23.5 -65.5t65.5 -24.5q41 0 65.5 27t24.5 63zM279 249q-109 0 -175.5 59t-66.5 164t74.5 172t207.5 67q152 0 232 -92t80 -262q0 -171 -78.5 -270.5t-245.5 -99.5q-29 0 -64 6t-74 19.5t-64.5 41
t-25.5 63.5q0 38 23.5 61t60.5 23q34 0 78 -35t73 -35q63 0 87 46t24 124q-59 -52 -146 -52z" />
    <glyph glyph-name="colon" unicode=":" horiz-adv-x="334" 
d="M55 106q0 46 32.5 79t79.5 33t79.5 -33t32.5 -79t-32.5 -79t-79.5 -33t-79.5 33t-32.5 79zM55 424q0 46 32.5 79t79.5 33t79.5 -33t32.5 -79t-32.5 -79t-79.5 -33t-79.5 33t-32.5 79z" />
    <glyph glyph-name="semicolon" unicode=";" horiz-adv-x="334" 
d="M55 110q0 45 31 76.5t78 31.5q50 0 85.5 -38.5t35.5 -120.5q0 -53 -17.5 -94.5t-45.5 -64t-56.5 -34t-55.5 -11.5q-25 0 -37.5 13.5t-12.5 30.5q0 21 13 33.5t46 19.5q58 13 58 67q-14 -7 -35 -7q-42 0 -64.5 28.5t-22.5 69.5zM55 424q0 46 32.5 79t79.5 33t79.5 -33
t32.5 -79t-32.5 -79t-79.5 -33t-79.5 33t-32.5 79z" />
    <glyph glyph-name="less" unicode="&#x3c;" horiz-adv-x="600" 
d="M60 340l407 187q29 14 55 14q25 0 40 -16t15 -44q0 -43 -47 -63l-322 -135l322 -135q47 -20 47 -63q0 -28 -15 -44t-40 -16q-26 0 -55 14l-407 187q-37 18 -37 57t37 57z" />
    <glyph glyph-name="equal" unicode="=" horiz-adv-x="600" 
d="M87 467h426q32 0 51 -17.5t19 -48.5t-19 -48.5t-51 -17.5h-426q-32 0 -51 17.5t-19 48.5t19 48.5t51 17.5zM87 231h426q32 0 51 -17.5t19 -48.5t-19 -48.5t-51 -17.5h-426q-32 0 -51 17.5t-19 48.5t19 48.5t51 17.5z" />
    <glyph glyph-name="greater" unicode="&#x3e;" horiz-adv-x="600" 
d="M392 283l-322 135q-47 20 -47 63q0 28 15 44t40 16q26 0 55 -14l407 -187q37 -18 37 -57t-37 -57l-407 -187q-29 -14 -55 -14q-25 0 -40 16t-15 44q0 43 47 63z" />
    <glyph glyph-name="question" unicode="?" horiz-adv-x="593" 
d="M344 532q0 55 -69 55q-56 0 -90 -51q-22 -34 -39 -44t-47 -10q-41 0 -66.5 21t-25.5 60q0 60 72 117t197 57q134 0 207 -58.5t73 -143.5q0 -47 -19 -82.5t-47 -55.5t-57.5 -35t-55 -31t-33.5 -34q-13 -29 -34 -39t-58 -10q-79 0 -79 79q0 73 93 120q49 25 63.5 40.5
t14.5 44.5zM154 106q0 46 33 79t79 33t79 -33t33 -79t-33 -79t-79 -33t-79 33t-33 79z" />
    <glyph glyph-name="at" unicode="@" horiz-adv-x="800" 
d="M487 366q0 37 -19.5 59t-56.5 22q-43 0 -71 -32t-28 -76q0 -34 18.5 -56t54.5 -22q47 0 74.5 30t27.5 75zM518 498l4 18q8 36 47 36q19 0 31 -11.5t12 -31.5q0 -11 -19.5 -121.5t-19.5 -117.5q0 -21 19 -21q32 0 59 40.5t27 115.5q0 114 -73 178t-191 64q-116 0 -196 -84
t-80 -204q0 -130 80 -208t205 -78q66 0 112 16.5t69.5 32.5t34.5 16q16 0 27 -10.5t11 -24.5q0 -22 -35 -50t-95.5 -49t-123.5 -21q-164 0 -278.5 106.5t-114.5 269.5q0 161 112.5 269.5t274.5 108.5q148 0 250.5 -84.5t102.5 -219.5q0 -64 -21 -116t-51 -82.5t-66.5 -51.5
t-65 -28.5t-49.5 -7.5q-57 0 -60 49h-2q-29 -26 -54 -37.5t-63 -11.5q-60 0 -100 46.5t-40 123.5q0 104 58 174t138 70q44 0 72.5 -15t51.5 -48z" />
    <glyph glyph-name="A" unicode="A" horiz-adv-x="684" 
d="M463 97h-242l-16 -53q-8 -28 -35 -42.5t-58 -14.5q-41 0 -73 27t-32 66q0 32 36 134l153 426q17 47 42.5 70t67.5 23h72q42 0 67.5 -23t42.5 -70l153 -426q36 -102 36 -134q0 -39 -32 -66t-73 -27q-31 0 -58 14.5t-35 42.5zM421 241l-78 263h-2l-78 -263h158z" />
    <glyph glyph-name="B" unicode="B" horiz-adv-x="778" 
d="M303 427h113q32 0 51 19.5t19 45.5q0 66 -70 66h-113v-131zM79 137v446q0 71 32 104t99 33h239q135 0 195 -50.5t60 -131.5q0 -122 -102 -149v-2q64 -12 98.5 -59t34.5 -116q0 -94 -69 -153t-201 -59h-255q-67 0 -99 33t-32 104zM303 162h115q43 0 68 18t25 52
q0 69 -93 69h-115v-139z" />
    <glyph glyph-name="C" unicode="C" horiz-adv-x="741" 
d="M44 360q0 91 31 164.5t83.5 119t118.5 69.5t139 24q125 0 211.5 -61.5t86.5 -141.5q0 -43 -30.5 -71t-78.5 -28q-32 0 -48.5 11t-39.5 49q-22 35 -48 48.5t-65 13.5q-56 0 -93 -52.5t-37 -144.5q0 -91 36 -144t106 -53q32 0 53.5 14.5t55.5 61.5q34 48 84 48
q46 0 76.5 -28.5t30.5 -72.5q0 -60 -49 -108t-116.5 -71.5t-134.5 -23.5q-74 0 -139.5 23t-118.5 67.5t-83.5 118t-30.5 168.5z" />
    <glyph glyph-name="D" unicode="D" horiz-adv-x="778" 
d="M69 137v446q0 71 32 104t99 33h195q171 0 258 -100.5t87 -259.5t-87 -259.5t-258 -100.5h-195q-67 0 -99 33t-32 104zM293 180h51q95 0 130.5 44t35.5 136t-35.5 136t-130.5 44h-51v-360z" />
    <glyph glyph-name="E" unicode="E" horiz-adv-x="722" 
d="M82 137v446q0 71 32 104t99 33h366q50 0 75 -22.5t25 -61.5t-25 -61.5t-75 -22.5h-267v-101h214q50 0 75 -22.5t25 -61.5t-25 -61.5t-75 -22.5h-214v-115h278q50 0 75 -22.5t25 -61.5t-25 -61.5t-75 -22.5h-377q-67 0 -99 33t-32 104z" />
    <glyph glyph-name="F" unicode="F" horiz-adv-x="667" 
d="M312 427h208q39 0 61 -25.5t22 -61.5t-22 -61.5t-61 -25.5h-208v-142q0 -58 -31 -91t-84 -33t-84 33t-31 91v472q0 71 32 104t99 33h331q109 0 109 -90t-109 -90h-232v-113z" />
    <glyph glyph-name="G" unicode="G" horiz-adv-x="833" 
d="M558 243h-56q-27 0 -47.5 20t-20.5 51q0 37 20 58t57 21h148q50 0 79 -31t29 -78v-206q0 -95 -80 -95q-34 0 -55 20.5t-21 50.5v20h-2q-26 -42 -84.5 -66.5t-121.5 -24.5q-65 0 -123.5 19t-111.5 60t-84.5 117.5t-31.5 180.5q0 97 33 172.5t87.5 118.5t116 64.5
t125.5 21.5q66 0 119.5 -12.5t85 -31.5t53 -43.5t29.5 -45t8 -39.5q0 -38 -30 -69.5t-80 -31.5q-20 0 -36.5 9.5t-29 23t-26.5 27.5t-35.5 23.5t-49.5 9.5q-62 0 -101 -49.5t-39 -151.5q0 -98 33 -148.5t116 -50.5q102 0 127 86z" />
    <glyph glyph-name="H" unicode="H" horiz-adv-x="833" 
d="M529 473v136q0 58 31 91t84 33t84 -33t31 -91v-498q0 -58 -31 -91t-84 -33t-84 33t-31 91v168h-225v-168q0 -58 -31 -91t-84 -33t-84 33t-31 91v498q0 58 31 91t84 33t84 -33t31 -91v-136h225z" />
    <glyph glyph-name="I" unicode="I" horiz-adv-x="388" 
d="M79 111v498q0 58 31 91t84 33t84 -33t31 -91v-498q0 -58 -31 -91t-84 -33t-84 33t-31 91z" />
    <glyph glyph-name="J" unicode="J" horiz-adv-x="667" 
d="M349 264v345q0 58 31 91t84 33t84 -33t31 -91v-390q0 -78 -42 -133.5t-103.5 -79t-134.5 -23.5q-119 0 -193.5 60t-74.5 151q0 121 110 121q40 0 68 -24t28 -68q0 -66 55 -66q29 0 43 23.5t14 83.5z" />
    <glyph glyph-name="K" unicode="K" horiz-adv-x="759" 
d="M312 467l181 198q36 39 57 53.5t48 14.5q44 0 73 -31t29 -66q0 -23 -10 -40.5t-34 -42.5l-108 -119l175 -273q23 -37 23 -68q0 -44 -35.5 -75t-81.5 -31q-63 0 -95 51l-157 243l-65 -71v-99q0 -58 -31 -91t-84 -33t-84 33t-31 91v498q0 58 31 91t84 33t84 -33t31 -91
v-142z" />
    <glyph glyph-name="L" unicode="L" horiz-adv-x="667" 
d="M312 186h241q45 0 72 -24.5t27 -68.5t-27 -68.5t-72 -24.5h-340q-67 0 -99 33t-32 104v472q0 58 31 91t84 33t84 -33t31 -91v-423z" />
    <glyph glyph-name="M" unicode="M" horiz-adv-x="944" 
d="M473 280l95 357q14 54 41 75t81 21h65q58 0 89 -34t31 -91v-518q0 -50 -27.5 -76.5t-75.5 -26.5t-75.5 26.5t-27.5 76.5v350h-2l-104 -389q-10 -36 -29.5 -50t-61.5 -14t-61.5 14t-29.5 50l-104 389h-2v-350q0 -50 -27.5 -76.5t-75.5 -26.5t-75.5 26.5t-27.5 76.5v518
q0 57 31 91t89 34h65q54 0 81 -21t41 -75l95 -357h2z" />
    <glyph glyph-name="N" unicode="N" horiz-adv-x="833" 
d="M535 321v301q0 51 30 83t82 32t82 -32t30 -83v-529q0 -56 -35.5 -83t-94.5 -27q-47 0 -76.5 18.5t-61.5 71.5l-191 314h-2v-284q0 -58 -29 -89t-83 -31t-83 31t-29 89v511q0 59 33.5 91t98.5 32q84 0 125 -70l202 -346h2z" />
    <glyph glyph-name="O" unicode="O" horiz-adv-x="832" 
d="M558 360q0 91 -36 144t-106 53t-106 -53t-36 -144t36 -144t106 -53t106 53t36 144zM44 360q0 91 31 164.5t83.5 119t118.5 69.5t139 24t139 -24t118.5 -69.5t83.5 -119t31 -164.5q0 -95 -30.5 -168.5t-83.5 -118t-118.5 -67.5t-139.5 -23t-139.5 23t-118.5 67.5
t-83.5 118t-30.5 168.5z" />
    <glyph glyph-name="P" unicode="P" horiz-adv-x="778" 
d="M82 107v476q0 71 32 104t99 33h208q70 0 124 -12t98.5 -39t68 -77t23.5 -121q0 -70 -23.5 -120t-68 -77t-98.5 -39t-124 -12h-115v-116q0 -58 -29 -89t-83 -31t-83 31t-29 89zM306 397h127q31 0 54.5 19t23.5 54q0 36 -23.5 56t-65.5 20h-116v-149z" />
    <glyph glyph-name="Q" unicode="Q" horiz-adv-x="832" 
d="M448 167l-20 21q-36 38 -36 65q0 30 22 51.5t52 21.5q34 0 63 -30l19 -20q10 34 10 84q0 91 -36 144t-106 53t-106 -53t-36 -144t36 -144t106 -53q19 0 32 4zM630 -23l-40 42q-80 -36 -174 -36q-74 0 -139.5 23t-118.5 67.5t-83.5 118t-30.5 168.5q0 91 31 164.5
t83.5 119t118.5 69.5t139 24t139 -24t118.5 -69.5t83.5 -119t31 -164.5q0 -154 -80 -250l26 -27q44 -45 44 -71t-22 -51t-58 -25q-28 0 -68 41z" />
    <glyph glyph-name="R" unicode="R" horiz-adv-x="778" 
d="M69 107v476q0 72 33.5 104.5t107.5 32.5h255q125 0 190 -58t65 -146q0 -69 -39 -114t-107 -58v-2q59 -4 92.5 -28t40.5 -78l8 -60q10 -68 10 -101q0 -39 -31.5 -63.5t-71.5 -24.5q-116 0 -127 99l-11 95q-9 75 -101 75h-90v-149q0 -58 -29 -89t-83 -31t-83 31t-29 89z
M293 406h115q50 0 72 16.5t22 53.5t-22 53.5t-72 16.5h-115v-140z" />
    <glyph glyph-name="S" unicode="S" horiz-adv-x="722" 
d="M446 205q0 21 -14.5 32t-48.5 21l-153 44q-178 51 -178 202q0 99 69.5 166t210.5 67q55 0 104.5 -7.5t97 -23.5t75.5 -47.5t28 -74.5q0 -41 -28 -66t-72 -25q-25 0 -46.5 13.5t-35.5 30.5t-43 30.5t-67 13.5q-32 0 -53.5 -12.5t-21.5 -35.5t18.5 -35.5t58.5 -23.5
l119 -32q99 -27 151.5 -76.5t52.5 -137.5q0 -120 -87 -182.5t-212 -62.5q-86 0 -151 17.5t-99 45t-50 55.5t-16 55q0 42 27.5 68t69.5 26q27 0 51 -16.5t40 -36t46 -36t68 -16.5q39 0 64 14.5t25 45.5z" />
    <glyph glyph-name="T" unicode="T" horiz-adv-x="722" 
d="M246 534h-139q-47 0 -70.5 25t-23.5 68q0 93 102 93h492q102 0 102 -93q0 -43 -23.5 -68t-70.5 -25h-139v-423q0 -58 -31 -91t-84 -33t-84 33t-31 91v423z" />
    <glyph glyph-name="U" unicode="U" horiz-adv-x="832" 
d="M532 281v328q0 58 31 91t84 33t84 -33t31 -91v-330q0 -155 -93 -225.5t-253 -70.5t-253 70.5t-93 225.5v330q0 58 31 91t84 33t84 -33t31 -91v-328q0 -124 116 -124t116 124z" />
    <glyph glyph-name="V" unicode="V" horiz-adv-x="722" 
d="M362 240l108 414q10 41 41 60t67 19q44 0 76.5 -27.5t32.5 -69.5q0 -30 -15 -75l-167 -481q-19 -57 -50 -75t-94 -18t-94 18t-50 75l-167 481q-15 45 -15 75q0 42 32.5 69.5t76.5 27.5q36 0 67 -19t41 -60l108 -414h2z" />
    <glyph glyph-name="W" unicode="W" horiz-adv-x="962" 
d="M662 249l63 392q14 92 109 92q46 0 75 -28t29 -72q0 -31 -25 -133l-101 -410q-25 -103 -120 -103h-35q-49 0 -75.5 26t-36.5 80l-63 334h-2l-63 -334q-10 -54 -36.5 -80t-75.5 -26h-35q-95 0 -120 103l-101 410q-25 102 -25 133q0 44 29 72t75 28q95 0 109 -92l63 -392h2
l63 373q10 61 34.5 86t81.5 25t81.5 -25t34.5 -86l63 -373h2z" />
    <glyph glyph-name="X" unicode="X" horiz-adv-x="630" 
d="M182 372l-128 194q-21 32 -21 62q0 46 31.5 75.5t74.5 29.5q65 0 93 -51l83 -151l83 151q28 51 93 51q43 0 74.5 -29.5t31.5 -75.5q0 -30 -21 -62l-128 -194l140 -214q27 -41 27 -69q0 -51 -35.5 -76.5t-75.5 -25.5q-65 0 -101 63l-88 156l-88 -156q-36 -63 -101 -63
q-40 0 -75.5 25.5t-35.5 76.5q0 28 27 69z" />
    <glyph glyph-name="Y" unicode="Y" 
d="M333 470l93 193q34 70 107 70q46 0 78 -32.5t32 -76.5q0 -29 -29 -79l-166 -287v-147q0 -58 -31 -91t-84 -33t-84 33t-31 91v147l-166 287q-29 50 -29 79q0 44 32 76.5t78 32.5q73 0 107 -70z" />
    <glyph glyph-name="Z" unicode="Z" horiz-adv-x="722" 
d="M335 180h260q105 0 105 -90t-105 -90h-460q-56 0 -84.5 28t-28.5 73q0 28 13 53t51 66l288 320h-224q-55 0 -82.5 24t-27.5 66t27.5 66t82.5 24h434q52 0 78.5 -28t26.5 -73q0 -46 -46 -97z" />
    <glyph glyph-name="bracketleft" unicode="[" horiz-adv-x="389" 
d="M63 -79v704q0 95 117 95h106q92 0 92 -72q0 -35 -20 -53.5t-53 -18.5h-66v-606h66q33 0 53 -18.5t20 -53.5q0 -72 -92 -72h-106q-117 0 -117 95z" />
    <glyph glyph-name="backslash" unicode="\" horiz-adv-x="389" 
d="M227 49l-184 521q-28 81 -28 98q0 33 22.5 51t50.5 18q33 0 46.5 -12t27.5 -54l184 -521q28 -81 28 -98q0 -33 -22.5 -51t-50.5 -18q-33 0 -46.5 12t-27.5 54z" />
    <glyph glyph-name="bracketright" unicode="]" horiz-adv-x="389" 
d="M150 -30v606h-66q-33 0 -53 18.5t-20 53.5q0 72 92 72h106q117 0 117 -95v-704q0 -95 -117 -95h-106q-92 0 -92 72q0 35 20 53.5t53 18.5h66z" />
    <glyph glyph-name="asciicircum" unicode="^" horiz-adv-x="600" 
d="M413 348l-113 207l-113 -207q-13 -23 -28.5 -31.5t-40.5 -8.5q-51 0 -51 36q0 19 13 44l154 280q23 43 66 43t66 -43l154 -280q13 -25 13 -44q0 -36 -51 -36q-25 0 -40.5 8.5t-28.5 31.5z" />
    <glyph glyph-name="underscore" unicode="_" horiz-adv-x="500" 
d="M500 -125h-500q-29 0 -29 25t29 25h500q29 0 29 -25t-29 -25z" />
    <glyph glyph-name="grave" unicode="`" horiz-adv-x="278" 
d="M93 597l-83 71q-28 23 -28 53q0 25 20.5 43t42.5 18q16 0 29 -6t37 -27l83 -71q28 -23 28 -53q0 -25 -20.5 -43t-42.5 -18q-16 0 -29 6t-37 27z" />
    <glyph glyph-name="a" unicode="a" 
d="M415 176v59q-17 -18 -70.5 -27t-62.5 -13q-28 -12 -28 -43q0 -23 18.5 -37t44.5 -14q42 0 70 22.5t28 52.5zM615 382v-229q0 -19 3 -50.5t3 -42.5q0 -36 -28 -54.5t-68 -18.5q-92 0 -104 83q-55 -83 -184 -83q-90 0 -142.5 39.5t-52.5 122.5q0 71 60 113.5t205 51.5
q60 4 84 14.5t24 36.5q0 51 -83 51q-47 0 -97 -35.5t-83 -35.5q-31 0 -48 16.5t-17 47.5q0 57 71 92t180 35q47 0 90.5 -6.5t88 -22t71.5 -47.5t27 -78z" />
    <glyph glyph-name="b" unicode="b" 
d="M51 87v543q0 103 100 103t100 -103v-174h2q50 80 145 80q61 0 107.5 -28t71.5 -71.5t37 -87.5t12 -86q0 -127 -63 -201.5t-171 -74.5q-51 0 -98 24t-59 70h-2q0 -41 -23.5 -67.5t-66.5 -26.5q-92 0 -92 100zM248 261q0 -124 83 -124q48 0 68.5 34.5t20.5 84.5
q0 51 -22 84.5t-71 33.5q-35 0 -57 -30t-22 -83z" />
    <glyph glyph-name="c" unicode="c" horiz-adv-x="611" 
d="M40 262q0 136 81.5 205t211.5 69q104 0 171.5 -42.5t67.5 -98.5q0 -34 -21 -55t-53 -21q-22 0 -44 18.5t-48 36.5t-57 18q-57 0 -80 -37t-23 -89q0 -58 22 -96.5t72 -38.5q36 0 83 36.5t74 36.5q35 0 56 -23.5t21 -52.5q0 -18 -12.5 -40t-38.5 -45.5t-76 -39.5t-114 -16
q-130 0 -211.5 69.5t-81.5 205.5z" />
    <glyph glyph-name="d" unicode="d" 
d="M415 456v174q0 103 100 103t100 -103v-543q0 -100 -92 -100q-43 0 -66.5 26.5t-23.5 67.5h-2q-12 -46 -59 -70t-98 -24q-108 0 -171 74.5t-63 201.5q0 42 12 86t37 87.5t71.5 71.5t107.5 28q95 0 145 -80h2zM418 261q0 53 -22 83t-57 30q-49 0 -71 -33.5t-22 -84.5
q0 -50 20.5 -84.5t68.5 -34.5q83 0 83 124z" />
    <glyph glyph-name="e" unicode="e" 
d="M602 103q0 -48 -65.5 -82t-203.5 -34q-130 0 -211.5 69.5t-81.5 205.5t81.5 205t211.5 69q81 0 143 -25.5t94 -64t47.5 -76t15.5 -70.5q0 -46 -22.5 -65t-72.5 -19h-292q4 -51 32.5 -80t77.5 -29q39 0 95.5 32t86.5 32q26 0 45 -21t19 -47zM246 318h193q0 51 -27 74.5
t-69 23.5q-39 0 -67 -23.5t-30 -74.5z" />
    <glyph glyph-name="f" unicode="f" horiz-adv-x="426" 
d="M102 523v39q0 87 46 131t134 44q82 0 113 -21t31 -57q0 -38 -22 -55t-79 -17q-23 0 -23 -24v-40h52q64 0 64 -60t-64 -60h-52v-313q0 -103 -100 -103t-100 103v313h-38q-64 0 -64 60t64 60h38z" />
    <glyph glyph-name="g" unicode="g" 
d="M415 37v69h-2q-15 -36 -54.5 -54t-89.5 -18q-30 0 -60 8t-60 27t-52.5 46.5t-37 71t-14.5 97.5q0 107 61.5 179.5t166.5 72.5q52 0 99 -24t59 -70h2q0 41 23.5 67.5t66.5 26.5q92 0 92 -100v-421q0 -222 -293 -222q-69 0 -120.5 12.5t-77.5 32.5t-37.5 38.5t-11.5 36.5
q0 33 20.5 54.5t54.5 21.5q21 0 69 -32t86 -32q61 0 85.5 27t24.5 85zM423 282q0 48 -20.5 79t-65.5 31q-86 0 -86 -110t86 -110q45 0 65.5 31t20.5 79z" />
    <glyph glyph-name="h" unicode="h" 
d="M409 89v197q0 88 -76 88q-37 0 -56.5 -27t-19.5 -75v-183q0 -51 -28 -76.5t-75 -25.5t-75 25.5t-28 76.5v542q0 51 28 76.5t75 25.5t75 -25.5t28 -76.5v-176h2q55 81 155 81q102 0 151.5 -55.5t49.5 -146.5v-245q0 -51 -28 -76.5t-75 -25.5t-75 25.5t-28 76.5z" />
    <glyph glyph-name="i" unicode="i" horiz-adv-x="314" 
d="M54 89v345q0 51 28 76.5t75 25.5t75 -25.5t28 -76.5v-345q0 -51 -28 -76.5t-75 -25.5t-75 25.5t-28 76.5zM60 671q0 41 28 69t69 28t69 -28t28 -69t-28 -69t-69 -28t-69 28t-28 69z" />
    <glyph glyph-name="j" unicode="j" horiz-adv-x="333" 
d="M73 -40v474q0 51 28 76.5t75 25.5t75 -25.5t28 -76.5v-471q0 -74 -46 -117t-136 -43q-113 0 -113 84q0 27 14.5 39.5t47.5 17.5q27 4 27 16zM79 671q0 41 28.5 69t68.5 28t68.5 -28t28.5 -69t-28.5 -69t-68.5 -28t-68.5 28t-28.5 69z" />
    <glyph glyph-name="k" unicode="k" horiz-adv-x="593" 
d="M253 351l116 142q35 43 79 43q36 0 63.5 -24t27.5 -62q0 -36 -38 -72l-67 -64l100 -143q39 -57 39 -92q0 -41 -30 -66.5t-73 -25.5q-39 0 -61.5 18.5t-56.5 77.5l-56 96l-45 -43v-46q0 -103 -100 -103t-100 103v540q0 103 100 103t100 -103v-279h2z" />
    <glyph glyph-name="l" unicode="l" horiz-adv-x="314" 
d="M54 89v542q0 51 28 76.5t75 25.5t75 -25.5t28 -76.5v-542q0 -51 -28 -76.5t-75 -25.5t-75 25.5t-28 76.5z" />
    <glyph glyph-name="m" unicode="m" horiz-adv-x="1000" 
d="M740 89v197q0 48 -16.5 68t-51.5 20q-28 0 -48.5 -26t-20.5 -68v-191q0 -51 -28 -76.5t-75 -25.5t-75 25.5t-28 76.5v197q0 48 -16.5 68t-51.5 20q-28 0 -48.5 -26t-20.5 -68v-191q0 -51 -28 -76.5t-75 -25.5t-75 25.5t-28 76.5v349q0 98 99 98q44 0 65.5 -24t26.5 -73h2
q53 97 170 97q55 0 98.5 -25.5t56.5 -75.5q61 101 174 101q101 0 150.5 -55.5t49.5 -146.5v-245q0 -51 -28 -76.5t-75 -25.5t-75 25.5t-28 76.5z" />
    <glyph glyph-name="n" unicode="n" 
d="M409 89v197q0 88 -76 88q-37 0 -56.5 -27t-19.5 -75v-183q0 -51 -28 -76.5t-75 -25.5t-75 25.5t-28 76.5v349q0 98 99 98q44 0 65.5 -24t26.5 -73h2q53 97 170 97q102 0 151.5 -55.5t49.5 -146.5v-245q0 -51 -28 -76.5t-75 -25.5t-75 25.5t-28 76.5z" />
    <glyph glyph-name="o" unicode="o" 
d="M40 262q0 136 81.5 205t211.5 69t211.5 -69t81.5 -205t-81.5 -205.5t-211.5 -69.5t-211.5 69.5t-81.5 205.5zM420 256q0 142 -87 142t-87 -142q0 -131 87 -131t87 131z" />
    <glyph glyph-name="p" unicode="p" 
d="M51 -104v540q0 100 92 100q43 0 66.5 -26.5t23.5 -67.5h2q12 46 59 70t98 24q108 0 171 -74.5t63 -201.5q0 -42 -12 -86t-37 -87.5t-71.5 -71.5t-107.5 -28q-95 0 -145 80h-2v-171q0 -103 -100 -103t-100 103zM248 262q0 -53 22 -83t57 -30q49 0 71 33.5t22 84.5
q0 50 -20.5 84.5t-68.5 34.5q-83 0 -83 -124z" />
    <glyph glyph-name="q" unicode="q" 
d="M415 -104v171h-2q-50 -80 -145 -80q-61 0 -107.5 28t-71.5 71.5t-37 87.5t-12 86q0 127 63 201.5t171 74.5q51 0 98 -24t59 -70h2q0 41 23.5 67.5t66.5 26.5q92 0 92 -100v-540q0 -103 -100 -103t-100 103zM418 262q0 124 -83 124q-48 0 -68.5 -34.5t-20.5 -84.5
q0 -51 22 -84.5t71 -33.5q35 0 57 30t22 83z" />
    <glyph glyph-name="r" unicode="r" horiz-adv-x="481" 
d="M51 89v345q0 50 26.5 76t66.5 26q42 0 67 -25.5t25 -80.5v-40h2q27 74 59 110t75 36t63.5 -28t20.5 -67q0 -78 -56 -92l-56 -14q-45 -11 -66 -33t-21 -70v-143q0 -51 -28 -76.5t-75 -25.5t-75 25.5t-28 76.5z" />
    <glyph glyph-name="s" unicode="s" horiz-adv-x="593" 
d="M352 142q0 34 -67 48l-61 13q-108 23 -151 62.5t-43 100.5q0 71 61.5 120.5t202.5 49.5q64 0 119 -11.5t92.5 -38t37.5 -64.5q0 -27 -19 -45.5t-49 -18.5q-27 0 -54 16t-59 32t-74 16q-58 0 -58 -37q0 -16 12.5 -24.5t51.5 -17.5l87 -19q183 -40 183 -156
q0 -78 -67 -129.5t-217 -51.5q-107 0 -179 32.5t-72 94.5q0 26 21.5 44.5t51.5 18.5q23 0 49 -19t60 -38t76 -19q31 0 48 12.5t17 28.5z" />
    <glyph glyph-name="t" unicode="t" horiz-adv-x="426" 
d="M102 523v66q0 103 100 103t100 -103v-66h60q64 0 64 -60t-64 -60h-60v-227v-15q0 -24 23 -24q57 0 79 -17t22 -55q0 -36 -31 -57t-113 -21q-88 0 -134 44t-46 131v241h-38q-64 0 -64 60t64 60h38z" />
    <glyph glyph-name="u" unicode="u" 
d="M409 251v183q0 51 28 76.5t75 25.5t75 -25.5t28 -76.5v-349q0 -98 -99 -98q-44 0 -65.5 24t-26.5 73h-2q-53 -97 -170 -97q-102 0 -151.5 55.5t-49.5 146.5v245q0 51 28 76.5t75 25.5t75 -25.5t28 -76.5v-197q0 -88 76 -88q37 0 56.5 27t19.5 75z" />
    <glyph glyph-name="v" unicode="v" horiz-adv-x="556" 
d="M282 177l66 266q12 49 32 71t66 22q41 0 68 -24t27 -63q0 -37 -20 -93l-107 -298q-17 -47 -45 -59t-91 -12q-61 0 -88.5 12t-44.5 59l-107 298q-23 66 -23 93q0 39 27 63t68 24q48 0 67.5 -19.5t33.5 -73.5l69 -266h2z" />
    <glyph glyph-name="w" unicode="w" horiz-adv-x="888" 
d="M279 176l54 260q12 62 32.5 81t78.5 19q57 0 77 -19t34 -81l60 -260h2l64 294q15 66 89 66q44 0 70 -25t26 -60q0 -32 -20 -92l-90 -276q-20 -61 -42.5 -78.5t-77.5 -17.5q-66 0 -96.5 17.5t-45.5 81.5l-49 220h-2l-49 -220q-15 -64 -45.5 -81.5t-96.5 -17.5
q-55 0 -77.5 17.5t-42.5 78.5l-90 276q-20 60 -20 92q0 35 26 60t70 25q74 0 89 -66l70 -294h2z" />
    <glyph glyph-name="x" unicode="x" horiz-adv-x="518" 
d="M259 391l47 90q17 32 36 43.5t47 11.5q39 0 68 -26.5t29 -58.5q0 -29 -27 -69l-74 -110l76 -112q35 -52 35 -87q0 -32 -24 -59t-69 -27q-31 0 -51.5 13t-39.5 48l-53 100l-53 -100q-19 -35 -39.5 -48t-51.5 -13q-45 0 -69 27t-24 59q0 35 35 87l76 112l-74 110
q-27 40 -27 69q0 32 29 58.5t68 26.5q28 0 47 -12t37 -45z" />
    <glyph glyph-name="y" unicode="y" horiz-adv-x="556" 
d="M283 169l60 250q15 64 37 90.5t62 26.5t68.5 -23t28.5 -65q0 -21 -39 -133l-120 -351q-55 -161 -221 -161q-60 0 -91 22.5t-31 63.5q0 64 79 64q53 0 53 25q0 13 -10 40l-110 313q-32 90 -32 117q0 38 29 63t72 25q69 0 88 -77l75 -290h2z" />
    <glyph glyph-name="z" unicode="z" horiz-adv-x="574" 
d="M290 144h179q38 0 57.5 -16t19.5 -56t-19.5 -56t-57.5 -16h-371q-34 0 -52 22.5t-18 52.5q0 46 45 91l217 213h-163q-38 0 -57.5 16t-19.5 56q0 39 20 55.5t68 16.5h326q37 0 56 -24t19 -64q0 -25 -7 -40.5t-28 -36.5z" />
    <glyph glyph-name="braceleft" unicode="{" horiz-adv-x="389" 
d="M110 -43v202q0 39 -10 52.5t-37 13.5q-23 0 -35.5 14t-12.5 34t12.5 34t35.5 14q27 0 37 13.5t10 52.5v202q0 69 39.5 100t130.5 31h74q45 0 45 -48t-45 -48h-25q-43 0 -43 -58v-191q0 -96 -109 -101v-2q109 -5 109 -101v-191q0 -58 43 -58h25q45 0 45 -48t-45 -48h-74
q-91 0 -130.5 31t-39.5 100z" />
    <glyph glyph-name="bar" unicode="|" horiz-adv-x="222" 
d="M39 66v588q0 83 72 83t72 -83v-588q0 -83 -72 -83t-72 83z" />
    <glyph glyph-name="braceright" unicode="}" horiz-adv-x="389" 
d="M279 589v-202q0 -39 10 -52.5t37 -13.5q23 0 35.5 -14t12.5 -34t-12.5 -34t-35.5 -14q-27 0 -37 -13.5t-10 -52.5v-202q0 -69 -39.5 -100t-130.5 -31h-74q-45 0 -45 48t45 48h25q43 0 43 58v191q0 96 109 101v2q-109 5 -109 101v191q0 58 -43 58h-25q-45 0 -45 48t45 48
h74q91 0 130.5 -31t39.5 -100z" />
    <glyph glyph-name="asciitilde" unicode="~" horiz-adv-x="600" 
d="M41 245q0 53 40 95.5t101 42.5q47 0 124.5 -34t98.5 -34q29 0 60.5 30t50.5 30q43 0 43 -54q0 -53 -40 -95.5t-101 -42.5q-47 0 -124.5 34t-98.5 34q-29 0 -60.5 -30t-50.5 -30q-43 0 -43 54z" />
    <glyph glyph-name="uni00A0" unicode="&#xa0;" horiz-adv-x="334" 
 />
    <glyph glyph-name="exclamdown" unicode="&#xa1;" horiz-adv-x="370" 
d="M76 -86q0 103 45 309q6 28 20 40t44 12t44 -12t20 -40q45 -206 45 -309q0 -117 -109 -117t-109 117zM73 424q0 46 32.5 79t79.5 33t79.5 -33t32.5 -79t-32.5 -79t-79.5 -33t-79.5 33t-32.5 79z" />
    <glyph glyph-name="cent" unicode="&#xa2;" horiz-adv-x="668" 
d="M321 534v74q0 53 43 53t43 -53v-75q85 -9 138.5 -49t53.5 -89q0 -34 -21 -55t-53 -21q-22 0 -44 18.5t-48 36.5t-57 18q-57 0 -80 -37t-23 -89q0 -58 22 -96.5t72 -38.5q36 0 83 36.5t74 36.5q35 0 56 -23.5t21 -52.5q0 -39 -48.5 -83.5t-145.5 -54.5v-99q0 -53 -43 -53
t-43 53v99q-115 9 -184.5 78t-69.5 194t69.5 193.5t184.5 78.5z" />
    <glyph glyph-name="sterling" unicode="&#xa3;" horiz-adv-x="668" 
d="M168 284h-65q-22 0 -38.5 17t-16.5 40t16.5 40t38.5 17h29q-39 44 -39 108q0 95 80 150t191 55q125 0 203 -56t78 -129q0 -36 -24.5 -59.5t-61.5 -23.5q-55 0 -92 71q-15 27 -33.5 37t-48.5 10q-33 0 -59.5 -20t-26.5 -56q0 -37 33 -87h113q22 0 38.5 -17t16.5 -40
t-16.5 -40t-38.5 -17h-99q-14 -80 -97 -144l3 -2q50 35 92 35q32 0 77.5 -9t63.5 -9q21 0 48 9t42 9q40 0 61.5 -24.5t21.5 -58.5q0 -46 -37.5 -74.5t-115.5 -28.5q-56 0 -123.5 18t-98.5 18q-30 0 -70 -18t-61 -18q-36 0 -61 26t-25 61q0 23 14 41t38.5 39.5t37.5 42.5
q15 23 15 56q0 17 -3 31z" />
    <glyph glyph-name="currency" unicode="&#xa4;" horiz-adv-x="668" 
d="M475 562l21 21q15 15 39 15q20 0 35.5 -16t15.5 -36q0 -17 -16 -33l-23 -23q42 -62 42 -141t-42 -141l23 -23q16 -16 16 -33q0 -20 -15.5 -36t-35.5 -16q-24 0 -39 15l-21 21q-66 -42 -141 -42t-141 42l-21 -21q-15 -15 -39 -15q-20 0 -35.5 16t-15.5 36q0 17 16 33
l23 23q-42 62 -42 141t42 141l-23 23q-16 16 -16 33q0 20 15.5 36t35.5 16q24 0 39 -15l21 -21q66 42 141 42t141 -42zM463 349q0 53 -38 91t-91 38t-91 -38t-38 -91t38 -91t91 -38t91 38t38 91z" />
    <glyph glyph-name="yen" unicode="&#xa5;" horiz-adv-x="668" 
d="M231 226v55h-102q-22 0 -38.5 17t-16.5 40t16.5 40t38.5 17h33l-76 125q-36 59 -36 102q0 36 27 62.5t70 26.5q67 0 98 -68l88 -192h2l88 192q31 68 98 68q43 0 70 -26.5t27 -62.5q0 -43 -36 -102l-76 -125h33q22 0 38.5 -17t16.5 -40t-16.5 -40t-38.5 -17h-102v-55h102
q22 0 38.5 -17t16.5 -40t-16.5 -40t-38.5 -17h-102v-5q0 -55 -29 -87.5t-74 -32.5t-74 32.5t-29 87.5v5h-102q-22 0 -38.5 17t-16.5 40t16.5 40t38.5 17h102z" />
    <glyph glyph-name="brokenbar" unicode="&#xa6;" horiz-adv-x="222" 
d="M39 66v147q0 83 72 83t72 -83v-147q0 -83 -72 -83t-72 83zM39 507v147q0 83 72 83t72 -83v-147q0 -83 -72 -83t-72 83z" />
    <glyph glyph-name="section" unicode="&#xa7;" horiz-adv-x="667" 
d="M417 300l-151 68q-32 -19 -43 -32.5t-11 -31.5q0 -28 38 -46l151 -68q32 19 43 32.5t11 31.5q0 28 -38 46zM401 -6q0 34 -62 60l-124 53q-72 31 -106.5 72.5t-34.5 102.5q0 101 104 144q-68 39 -68 136q0 83 59 129t158 46q91 0 157.5 -39.5t66.5 -100.5
q0 -30 -19.5 -48.5t-50.5 -18.5q-19 0 -37.5 13.5t-31.5 30t-34 30t-45 13.5q-67 0 -67 -50q0 -34 62 -60l124 -53q72 -31 106.5 -72.5t34.5 -102.5q0 -48 -24.5 -82.5t-79.5 -61.5q68 -39 68 -136q0 -83 -59.5 -129t-161.5 -46q-94 0 -161.5 39.5t-67.5 100.5
q0 30 19.5 48.5t50.5 18.5q19 0 37.5 -13.5t32 -30t35.5 -30t48 -13.5q71 0 71 50z" />
    <glyph glyph-name="dieresis" unicode="&#xa8;" horiz-adv-x="278" 
d="M168 673q0 37 27 64t64 27t64 -27t27 -64t-27 -64t-64 -27t-64 27t-27 64zM-72 673q0 37 27 64t64 27t64 -27t27 -64t-27 -64t-64 -27t-64 27t-27 64z" />
    <glyph glyph-name="copyright" unicode="&#xa9;" horiz-adv-x="800" 
d="M214 363q0 96 54 157t145 61q74 0 120.5 -39t46.5 -83q0 -21 -13.5 -35t-31.5 -14q-23 0 -36 12.5t-18.5 28t-23.5 28t-50 12.5q-41 0 -66 -34t-25 -92q0 -57 25.5 -93t67.5 -36q29 0 47 13.5t25.5 29t22 29t35.5 13.5t33 -12t12 -32q0 -37 -48 -84t-121 -47
q-89 0 -145 62t-56 155zM23 360q0 156 110.5 266.5t266.5 110.5t266.5 -110.5t110.5 -266.5t-110.5 -266.5t-266.5 -110.5t-266.5 110.5t-110.5 266.5zM675 360q0 114 -80.5 194.5t-194.5 80.5t-194.5 -80.5t-80.5 -194.5t80.5 -194.5t194.5 -80.5t194.5 80.5t80.5 194.5z
" />
    <glyph glyph-name="ordfeminine" unicode="&#xaa;" horiz-adv-x="434" 
d="M271 497v39q-11 -11 -46 -16.5t-41 -7.5q-19 -6 -19 -28q0 -15 12 -23t30 -8q27 0 45.5 13.5t18.5 30.5zM403 618v-137q0 -12 2 -30.5t2 -25.5q0 -22 -18.5 -33t-45.5 -11q-61 0 -68 50q-36 -50 -120 -50q-128 0 -128 97q0 91 184 100q60 3 60 30q0 31 -54 31
q-31 0 -63.5 -21.5t-53.5 -21.5q-42 0 -42 44q0 30 48.5 50.5t115.5 20.5q31 0 59.5 -4t57.5 -13t46.5 -28.5t17.5 -47.5z" />
    <glyph glyph-name="guillemotleft" unicode="&#xab;" horiz-adv-x="667" 
d="M180 283l97 -54q26 -15 26 -54q0 -53 -50 -53q-15 0 -42 16q-73 43 -104 67q-12 9 -17 24t-5 54t5 54t17 24q31 24 104 67q27 16 42 16q50 0 50 -53q0 -39 -26 -54zM433 283l97 -54q26 -15 26 -54q0 -53 -50 -53q-15 0 -42 16q-73 43 -104 67q-12 9 -17 24t-5 54t5 54
t17 24q31 24 104 67q27 16 42 16q50 0 50 -53q0 -39 -26 -54z" />
    <glyph glyph-name="logicalnot" unicode="&#xac;" horiz-adv-x="600" 
d="M87 467h416q48 0 64 -17t16 -63v-203q0 -31 -17 -50.5t-46 -19.5t-46 19.5t-17 50.5v151h-370q-32 0 -51 17.5t-19 48.5t19 48.5t51 17.5z" />
    <glyph glyph-name="uni00AD" unicode="&#xad;" horiz-adv-x="389" 
d="M113 377h163q47 0 70.5 -25t23.5 -69t-23.5 -69t-70.5 -25h-163q-47 0 -70.5 25t-23.5 69t23.5 69t70.5 25z" />
    <glyph glyph-name="registered" unicode="&#xae;" horiz-adv-x="800" 
d="M23 360q0 156 110.5 266.5t266.5 110.5t266.5 -110.5t110.5 -266.5t-110.5 -266.5t-266.5 -110.5t-266.5 110.5t-110.5 266.5zM675 360q0 114 -80.5 194.5t-194.5 80.5t-194.5 -80.5t-80.5 -194.5t80.5 -194.5t194.5 -80.5t194.5 80.5t80.5 194.5zM465 198l-93 131h-30
v-119q0 -22 -13 -34t-33 -12t-33 12t-13 34v307q0 46 55 46h117q73 0 109.5 -27.5t36.5 -94.5q0 -52 -27 -81t-65 -31l69 -93q13 -18 13 -36q0 -16 -12 -26t-30 -10q-17 0 -27 7.5t-24 26.5zM342 401h83q51 0 51 45t-51 45h-83v-90z" />
    <glyph glyph-name="macron" unicode="&#xaf;" horiz-adv-x="278" 
d="M271 613h-264q-27 0 -43.5 16t-16.5 44t16.5 44t43.5 16h264q27 0 43.5 -16t16.5 -44t-16.5 -44t-43.5 -16z" />
    <glyph glyph-name="degree" unicode="&#xb0;" horiz-adv-x="400" 
d="M271 556q0 29 -21 50t-50 21t-50 -21t-21 -50t21 -50t50 -21t50 21t21 50zM45 556q0 64 45.5 109.5t109.5 45.5t109.5 -45.5t45.5 -109.5t-45.5 -109.5t-109.5 -45.5t-109.5 45.5t-45.5 109.5z" />
    <glyph glyph-name="plusminus" unicode="&#xb1;" horiz-adv-x="600" 
d="M234 430v66q0 32 17.5 51t48.5 19t48.5 -19t17.5 -51v-66h147q32 0 51 -17.5t19 -48.5t-19 -48.5t-51 -17.5h-147v-66q0 -32 -17.5 -51t-48.5 -19t-48.5 19t-17.5 51v66h-147q-32 0 -51 17.5t-19 48.5t19 48.5t51 17.5h147zM87 132h426q32 0 51 -17.5t19 -48.5t-19 -48.5
t-51 -17.5h-426q-32 0 -51 17.5t-19 48.5t19 48.5t51 17.5z" />
    <glyph glyph-name="twosuperior" unicode="&#xb2;" horiz-adv-x="434" 
d="M219 392h130q56 0 56 -54t-56 -54h-265q-25 0 -40 15t-15 35q0 30 22 54t106 80l59 39q43 29 43 61q0 22 -14.5 34.5t-39.5 12.5q-24 0 -37 -12.5t-16.5 -28t-16.5 -28t-37 -12.5q-64 0 -64 58q0 47 47.5 83t129.5 36q95 0 140.5 -39.5t45.5 -94.5q0 -68 -65 -110
l-113 -73v-2z" />
    <glyph glyph-name="threesuperior" unicode="&#xb3;" horiz-adv-x="434" 
d="M264 424q0 32 -43 34q-58 3 -58 40q0 44 53 44q17 0 30 9t13 26q0 38 -59 38q-19 0 -29 -7t-27 -28q-19 -24 -46 -24q-28 0 -42.5 16.5t-14.5 39.5q0 43 47 71t130 28q77 0 125 -32.5t48 -86.5q0 -64 -58 -81v-2q33 -9 51 -33t18 -56q0 -24 -8 -46t-28 -45.5t-62 -38
t-101 -14.5q-75 0 -123 32t-48 76q0 28 16 44.5t44 16.5q23 0 36 -11.5t16.5 -25t16.5 -25t36 -11.5q67 0 67 52z" />
    <glyph glyph-name="acute" unicode="&#xb4;" horiz-adv-x="278" 
d="M84 678l83 71q24 21 37 27t29 6q22 0 42.5 -18t20.5 -43q0 -30 -28 -53l-83 -71q-24 -21 -37 -27t-29 -6q-22 0 -42.5 18t-20.5 43q0 30 28 53z" />
    <glyph glyph-name="mu" unicode="&#xb5;" 
d="M409 251v183q0 51 28 76.5t75 25.5t75 -25.5t28 -76.5v-349q0 -98 -99 -98q-44 0 -65.5 24t-26.5 73h-2q-12 -44 -41 -70.5t-61 -26.5q-43 0 -61 30h-2v-122q0 -51 -28 -76.5t-75 -25.5t-75 25.5t-28 76.5v539q0 51 28 76.5t75 25.5t75 -25.5t28 -76.5v-197q0 -88 76 -88
q37 0 56.5 27t19.5 75z" />
    <glyph glyph-name="paragraph" unicode="&#xb6;" horiz-adv-x="620" 
d="M444 -99v729h-97v-729q0 -27 -16 -43.5t-44 -16.5t-44 16.5t-16 43.5v470q-108 0 -165.5 45t-57.5 126q0 100 64.5 139t181.5 39h254q28 0 44 -16.5t16 -43.5v-759q0 -27 -16 -43.5t-44 -16.5t-44 16.5t-16 43.5z" />
    <glyph glyph-name="periodcentered" unicode="&#xb7;" horiz-adv-x="334" 
d="M80 289q0 36 25.5 61.5t61.5 25.5t61.5 -25.5t25.5 -61.5t-25.5 -61.5t-61.5 -25.5t-61.5 25.5t-25.5 61.5z" />
    <glyph glyph-name="cedilla" unicode="&#xb8;" horiz-adv-x="278" 
d="M105 1h68q-22 -19 -40 -50q36 3 39 3q36 0 61 -19t25 -56q0 -41 -35 -67.5t-113 -26.5q-96 0 -96 41q0 29 27 29q7 0 28 -5t37 -5q32 0 32 29q0 10 -6.5 17.5t-16.5 7.5h-30q-28 0 -28 22q0 13 8.5 27t39.5 53z" />
    <glyph glyph-name="onesuperior" unicode="&#xb9;" horiz-adv-x="337" 
d="M119 536h-71q-48 0 -48 42q0 24 14.5 33t43.5 9q16 0 43 17.5t39 35.5q26 38 63 38q54 0 54 -42v-332q0 -30 -19 -45.5t-50 -15.5t-50 15.5t-19 45.5v199z" />
    <glyph glyph-name="ordmasculine" unicode="&#xba;" horiz-adv-x="434" 
d="M27 546q0 82 53 123.5t137 41.5t137 -41.5t53 -123.5t-53 -123.5t-137 -41.5t-137 41.5t-53 123.5zM269 543q0 84 -52 84t-52 -84q0 -78 52 -78t52 78z" />
    <glyph glyph-name="guillemotright" unicode="&#xbb;" horiz-adv-x="667" 
d="M234 283l-97 54q-26 15 -26 54q0 53 50 53q15 0 42 -16q73 -43 104 -67q12 -9 17 -24t5 -54t-5 -54t-17 -24q-31 -24 -104 -67q-27 -16 -42 -16q-50 0 -50 53q0 39 26 54zM487 283l-97 54q-26 15 -26 54q0 53 50 53q15 0 42 -16q73 -43 104 -67q12 -9 17 -24t5 -54
t-5 -54t-17 -24q-31 -24 -104 -67q-27 -16 -42 -16q-50 0 -50 53q0 39 26 54z" />
    <glyph glyph-name="onequarter" unicode="&#xbc;" horiz-adv-x="1000" 
d="M765 52v28h-153q-61 0 -61 65q0 31 30 65l156 173q21 25 37 33.5t41 8.5q36 0 56 -16.5t20 -46.5v-186q63 0 63 -48t-63 -48v-28q0 -30 -16 -47.5t-47 -17.5t-47 17.5t-16 47.5zM765 176v128h-2l-106 -128h108zM241 40l313 633q21 43 35.5 55t36.5 12q18 0 33 -14.5
t15 -27.5q0 -14 -13 -40l-313 -633q-21 -43 -35.5 -55t-36.5 -12q-18 0 -33 14.5t-15 27.5q0 14 13 40zM119 536h-71q-48 0 -48 42q0 24 14.5 33t43.5 9q16 0 43 17.5t39 35.5q26 38 63 38q54 0 54 -42v-332q0 -30 -19 -45.5t-50 -15.5t-50 15.5t-19 45.5v199z" />
    <glyph glyph-name="onehalf" unicode="&#xbd;" horiz-adv-x="1000" 
d="M218 40l313 633q21 43 35.5 55t36.5 12q18 0 33 -14.5t15 -27.5q0 -14 -13 -40l-313 -633q-21 -43 -35.5 -55t-36.5 -12q-18 0 -33 14.5t-15 27.5q0 14 13 40zM119 536h-71q-48 0 -48 42q0 24 14.5 33t43.5 9q16 0 43 17.5t39 35.5q26 38 63 38q54 0 54 -42v-332
q0 -30 -19 -45.5t-50 -15.5t-50 15.5t-19 45.5v199zM768 108h130q56 0 56 -54t-56 -54h-265q-25 0 -40 15t-15 35q0 30 22 54t106 80l59 39q43 29 43 61q0 22 -14.5 34.5t-39.5 12.5q-24 0 -37 -12.5t-16.5 -28t-16.5 -28t-37 -12.5q-64 0 -64 58q0 47 47.5 83t129.5 36
q95 0 140.5 -39.5t45.5 -94.5q0 -68 -65 -110l-113 -73v-2z" />
    <glyph glyph-name="threequarters" unicode="&#xbe;" horiz-adv-x="1000" 
d="M765 52v28h-153q-61 0 -61 65q0 31 30 65l156 173q21 25 37 33.5t41 8.5q36 0 56 -16.5t20 -46.5v-186q63 0 63 -48t-63 -48v-28q0 -30 -16 -47.5t-47 -17.5t-47 17.5t-16 47.5zM765 176v128h-2l-106 -128h108zM298 40l313 633q21 43 35.5 55t36.5 12q18 0 33 -14.5
t15 -27.5q0 -14 -13 -40l-313 -633q-21 -43 -35.5 -55t-36.5 -12q-18 0 -33 14.5t-15 27.5q0 14 13 40zM268 424q0 32 -43 34q-58 3 -58 40q0 44 53 44q17 0 30 9t13 26q0 38 -59 38q-19 0 -29 -7t-27 -28q-19 -24 -46 -24q-28 0 -42.5 16.5t-14.5 39.5q0 43 47 71t130 28
q77 0 125 -32.5t48 -86.5q0 -64 -58 -81v-2q33 -9 51 -33t18 -56q0 -24 -8 -46t-28 -45.5t-62 -38t-101 -14.5q-76 0 -124 32t-48 76q0 28 16 44.5t44 16.5q23 0 36 -11.5t16.5 -25t16.5 -25t37 -11.5q67 0 67 52z" />
    <glyph glyph-name="questiondown" unicode="&#xbf;" horiz-adv-x="593" 
d="M249 -2q0 -55 69 -55q56 0 90 51q22 34 39 44t47 10q41 0 66.5 -21t25.5 -60q0 -60 -72 -117t-197 -57q-134 0 -207 58.5t-73 143.5q0 47 19 82.5t47 55.5t57.5 35t55 31t33.5 34q13 29 34 39t58 10q79 0 79 -79q0 -73 -93 -120q-49 -25 -63.5 -40.5t-14.5 -44.5z
M439 424q0 -46 -32.5 -79t-79.5 -33t-79.5 33t-32.5 79t32.5 79t79.5 33t79.5 -33t32.5 -79z" />
    <glyph glyph-name="Agrave" unicode="&#xc0;" horiz-adv-x="684" 
d="M463 97h-242l-16 -53q-8 -28 -35 -42.5t-58 -14.5q-41 0 -73 27t-32 66q0 32 36 134l153 426q17 47 42.5 70t67.5 23h72q42 0 67.5 -23t42.5 -70l153 -426q36 -102 36 -134q0 -39 -32 -66t-73 -27q-31 0 -58 14.5t-35 42.5zM421 241l-78 263h-2l-78 -263h158zM296 799
l-83 71q-28 23 -28 53q0 25 20.5 43t42.5 18q16 0 29 -6t37 -27l83 -71q28 -23 28 -53q0 -25 -20.5 -43t-42.5 -18q-16 0 -29 6t-37 27z" />
    <glyph glyph-name="Aacute" unicode="&#xc1;" horiz-adv-x="684" 
d="M463 97h-242l-16 -53q-8 -28 -35 -42.5t-58 -14.5q-41 0 -73 27t-32 66q0 32 36 134l153 426q17 47 42.5 70t67.5 23h72q42 0 67.5 -23t42.5 -70l153 -426q36 -102 36 -134q0 -39 -32 -66t-73 -27q-31 0 -58 14.5t-35 42.5zM421 241l-78 263h-2l-78 -263h158zM287 880
l83 71q24 21 37 27t29 6q22 0 42.5 -18t20.5 -43q0 -30 -28 -53l-83 -71q-24 -21 -37 -27t-29 -6q-22 0 -42.5 18t-20.5 43q0 30 28 53z" />
    <glyph glyph-name="Acircumflex" unicode="&#xc2;" horiz-adv-x="684" 
d="M463 97h-242l-16 -53q-8 -28 -35 -42.5t-58 -14.5q-41 0 -73 27t-32 66q0 32 36 134l153 426q17 47 42.5 70t67.5 23h72q42 0 67.5 -23t42.5 -70l153 -426q36 -102 36 -134q0 -39 -32 -66t-73 -27q-31 0 -58 14.5t-35 42.5zM421 241l-78 263h-2l-78 -263h158zM161 836
q0 32 82 96q43 34 59.5 42.5t39.5 8.5t39.5 -8.5t59.5 -42.5q82 -64 82 -96q0 -23 -15.5 -41t-40.5 -18q-31 0 -125 81q-94 -81 -125 -81q-25 0 -40.5 18t-15.5 41z" />
    <glyph glyph-name="Atilde" unicode="&#xc3;" horiz-adv-x="684" 
d="M463 97h-242l-16 -53q-8 -28 -35 -42.5t-58 -14.5q-41 0 -73 27t-32 66q0 32 36 134l153 426q17 47 42.5 70t67.5 23h72q42 0 67.5 -23t42.5 -70l153 -426q36 -102 36 -134q0 -39 -32 -66t-73 -27q-31 0 -58 14.5t-35 42.5zM421 241l-78 263h-2l-78 -263h158zM156 853
q0 37 30.5 68t74.5 31q38 0 79.5 -16t51.5 -16q18 0 40 16t42 16q22 0 38 -16.5t16 -40.5q0 -37 -30.5 -68t-74.5 -31q-38 0 -79.5 16t-51.5 16q-18 0 -39.5 -16t-42.5 -16q-22 0 -38 16.5t-16 40.5z" />
    <glyph glyph-name="Adieresis" unicode="&#xc4;" horiz-adv-x="684" 
d="M463 97h-242l-16 -53q-8 -28 -35 -42.5t-58 -14.5q-41 0 -73 27t-32 66q0 32 36 134l153 426q17 47 42.5 70t67.5 23h72q42 0 67.5 -23t42.5 -70l153 -426q36 -102 36 -134q0 -39 -32 -66t-73 -27q-31 0 -58 14.5t-35 42.5zM421 241l-78 263h-2l-78 -263h158zM371 875
q0 37 26.5 64t64.5 27t64.5 -27t26.5 -64t-26.5 -64t-64.5 -27t-64.5 27t-26.5 64zM131 875q0 37 26.5 64t64.5 27t64.5 -27t26.5 -64t-26.5 -64t-64.5 -27t-64.5 27t-26.5 64z" />
    <glyph glyph-name="Aring" unicode="&#xc5;" horiz-adv-x="684" 
d="M463 97h-242l-16 -53q-8 -28 -35 -42.5t-58 -14.5q-41 0 -73 27t-32 66q0 32 36 134l153 426q17 47 42.5 70t67.5 23h72q42 0 67.5 -23t42.5 -70l153 -426q36 -102 36 -134q0 -39 -32 -66t-73 -27q-31 0 -58 14.5t-35 42.5zM421 241l-78 263h-2l-78 -263h158zM223 881
q0 49 34.5 84t84.5 35t84.5 -35t34.5 -84t-34.5 -84t-84.5 -35t-84.5 35t-34.5 84zM289 881q0 -22 15.5 -37.5t37.5 -15.5t37.5 15.5t15.5 37.5t-15.5 37.5t-37.5 15.5t-37.5 -15.5t-15.5 -37.5z" />
    <glyph glyph-name="AE" unicode="&#xc6;" horiz-adv-x="981" 
d="M429 101h-191q-18 -64 -43 -89t-73 -25q-46 0 -75 25.5t-29 72.5q0 31 44 167l116 365q19 60 41.5 81.5t69.5 21.5h560q50 0 75 -22.5t25 -61.5t-25 -61.5t-75 -22.5h-197v-101h166q50 0 75 -22.5t25 -61.5t-25 -61.5t-75 -22.5h-166v-115h197q50 0 75 -22.5t25 -61.5
t-25 -61.5t-75 -22.5h-324q-92 0 -96 101zM428 251v301h-60l-87 -301h147z" />
    <glyph glyph-name="Ccedilla" unicode="&#xc7;" horiz-adv-x="741" 
d="M44 360q0 91 31 164.5t83.5 119t118.5 69.5t139 24q125 0 211.5 -61.5t86.5 -141.5q0 -43 -30.5 -71t-78.5 -28q-32 0 -48.5 11t-39.5 49q-22 35 -48 48.5t-65 13.5q-56 0 -93 -52.5t-37 -144.5q0 -91 36 -144t106 -53q32 0 53.5 14.5t55.5 61.5q34 48 84 48
q46 0 76.5 -28.5t30.5 -72.5q0 -60 -49 -108t-116.5 -71.5t-134.5 -23.5h-10q-10 -10 -23 -32q36 3 39 3q36 0 61 -19t25 -56q0 -41 -35 -67.5t-113 -26.5q-96 0 -96 41q0 29 27 29q7 0 28 -5t37 -5q32 0 32 29q0 10 -6.5 17.5t-16.5 7.5h-30q-28 0 -28 22q0 20 39 68
q-132 19 -217 113.5t-85 257.5z" />
    <glyph glyph-name="Egrave" unicode="&#xc8;" horiz-adv-x="722" 
d="M82 137v446q0 71 32 104t99 33h366q50 0 75 -22.5t25 -61.5t-25 -61.5t-75 -22.5h-267v-101h214q50 0 75 -22.5t25 -61.5t-25 -61.5t-75 -22.5h-214v-115h278q50 0 75 -22.5t25 -61.5t-25 -61.5t-75 -22.5h-377q-67 0 -99 33t-32 104zM315 799l-83 71q-28 23 -28 53
q0 25 20.5 43t42.5 18q16 0 29 -6t37 -27l83 -71q28 -23 28 -53q0 -25 -20.5 -43t-42.5 -18q-16 0 -29 6t-37 27z" />
    <glyph glyph-name="Eacute" unicode="&#xc9;" horiz-adv-x="722" 
d="M82 137v446q0 71 32 104t99 33h366q50 0 75 -22.5t25 -61.5t-25 -61.5t-75 -22.5h-267v-101h214q50 0 75 -22.5t25 -61.5t-25 -61.5t-75 -22.5h-214v-115h278q50 0 75 -22.5t25 -61.5t-25 -61.5t-75 -22.5h-377q-67 0 -99 33t-32 104zM306 880l83 71q24 21 37 27t29 6
q22 0 42.5 -18t20.5 -43q0 -30 -28 -53l-83 -71q-24 -21 -37 -27t-29 -6q-22 0 -42.5 18t-20.5 43q0 30 28 53z" />
    <glyph glyph-name="Ecircumflex" unicode="&#xca;" horiz-adv-x="722" 
d="M82 137v446q0 71 32 104t99 33h366q50 0 75 -22.5t25 -61.5t-25 -61.5t-75 -22.5h-267v-101h214q50 0 75 -22.5t25 -61.5t-25 -61.5t-75 -22.5h-214v-115h278q50 0 75 -22.5t25 -61.5t-25 -61.5t-75 -22.5h-377q-67 0 -99 33t-32 104zM180 836q0 32 82 96
q43 34 59.5 42.5t39.5 8.5t39.5 -8.5t59.5 -42.5q82 -64 82 -96q0 -23 -15.5 -41t-40.5 -18q-31 0 -125 81q-94 -81 -125 -81q-25 0 -40.5 18t-15.5 41z" />
    <glyph glyph-name="Edieresis" unicode="&#xcb;" horiz-adv-x="722" 
d="M82 137v446q0 71 32 104t99 33h366q50 0 75 -22.5t25 -61.5t-25 -61.5t-75 -22.5h-267v-101h214q50 0 75 -22.5t25 -61.5t-25 -61.5t-75 -22.5h-214v-115h278q50 0 75 -22.5t25 -61.5t-25 -61.5t-75 -22.5h-377q-67 0 -99 33t-32 104zM390 875q0 37 27 64t64 27t64 -27
t27 -64t-27 -64t-64 -27t-64 27t-27 64zM150 875q0 37 27 64t64 27t64 -27t27 -64t-27 -64t-64 -27t-64 27t-27 64z" />
    <glyph glyph-name="Igrave" unicode="&#xcc;" horiz-adv-x="388" 
d="M79 111v498q0 58 31 91t84 33t84 -33t31 -91v-498q0 -58 -31 -91t-84 -33t-84 33t-31 91zM148 799l-83 71q-28 23 -28 53q0 25 20.5 43t42.5 18q16 0 29 -6t37 -27l83 -71q28 -23 28 -53q0 -25 -20.5 -43t-42.5 -18q-16 0 -29 6t-37 27z" />
    <glyph glyph-name="Iacute" unicode="&#xcd;" horiz-adv-x="388" 
d="M79 111v498q0 58 31 91t84 33t84 -33t31 -91v-498q0 -58 -31 -91t-84 -33t-84 33t-31 91zM139 880l83 71q24 21 37 27t29 6q22 0 42.5 -18t20.5 -43q0 -30 -28 -53l-83 -71q-24 -21 -37 -27t-29 -6q-22 0 -42.5 18t-20.5 43q0 30 28 53z" />
    <glyph glyph-name="Icircumflex" unicode="&#xce;" horiz-adv-x="388" 
d="M79 111v498q0 58 31 91t84 33t84 -33t31 -91v-498q0 -58 -31 -91t-84 -33t-84 33t-31 91zM13 836q0 32 82 96q43 34 59.5 42.5t39.5 8.5t39.5 -8.5t59.5 -42.5q82 -64 82 -96q0 -23 -15.5 -41t-40.5 -18q-31 0 -125 81q-94 -81 -125 -81q-25 0 -40.5 18t-15.5 41z" />
    <glyph glyph-name="Idieresis" unicode="&#xcf;" horiz-adv-x="388" 
d="M79 111v498q0 58 31 91t84 33t84 -33t31 -91v-498q0 -58 -31 -91t-84 -33t-84 33t-31 91zM223 875q0 37 26.5 64t64.5 27t64.5 -27t26.5 -64t-26.5 -64t-64.5 -27t-64.5 27t-26.5 64zM-17 875q0 37 26.5 64t64.5 27t64.5 -27t26.5 -64t-26.5 -64t-64.5 -27t-64.5 27
t-26.5 64z" />
    <glyph glyph-name="Eth" unicode="&#xd0;" horiz-adv-x="778" 
d="M69 137v158h-15q-32 0 -51 17.5t-19 48.5t19 48.5t51 17.5h15v156q0 71 32 104t99 33h213q153 0 240 -100t87 -260t-87 -260t-240 -100h-213q-67 0 -99 33t-32 104zM293 295v-115h51q95 0 130.5 44t35.5 136t-35.5 136t-130.5 44h-51v-113h31q32 0 51 -17.5t19 -48.5
t-19 -48.5t-51 -17.5h-31z" />
    <glyph glyph-name="Ntilde" unicode="&#xd1;" horiz-adv-x="833" 
d="M535 321v301q0 51 30 83t82 32t82 -32t30 -83v-529q0 -56 -35.5 -83t-94.5 -27q-47 0 -76.5 18.5t-61.5 71.5l-191 314h-2v-284q0 -58 -29 -89t-83 -31t-83 31t-29 89v511q0 59 33.5 91t98.5 32q84 0 125 -70l202 -346h2zM231 853q0 37 30.5 68t74.5 31q38 0 79.5 -16
t51.5 -16q17 0 39 16t43 16q22 0 38 -16.5t16 -40.5q0 -37 -30.5 -68t-74.5 -31q-38 0 -79.5 16t-51.5 16q-17 0 -39 -16t-43 -16q-22 0 -38 16.5t-16 40.5z" />
    <glyph glyph-name="Ograve" unicode="&#xd2;" horiz-adv-x="832" 
d="M558 360q0 91 -36 144t-106 53t-106 -53t-36 -144t36 -144t106 -53t106 53t36 144zM44 360q0 91 31 164.5t83.5 119t118.5 69.5t139 24t139 -24t118.5 -69.5t83.5 -119t31 -164.5q0 -95 -30.5 -168.5t-83.5 -118t-118.5 -67.5t-139.5 -23t-139.5 23t-118.5 67.5
t-83.5 118t-30.5 168.5zM370 799l-83 71q-28 23 -28 53q0 25 20.5 43t42.5 18q16 0 29 -6t37 -27l83 -71q28 -23 28 -53q0 -25 -20.5 -43t-42.5 -18q-16 0 -29 6t-37 27z" />
    <glyph glyph-name="Oacute" unicode="&#xd3;" horiz-adv-x="832" 
d="M558 360q0 91 -36 144t-106 53t-106 -53t-36 -144t36 -144t106 -53t106 53t36 144zM44 360q0 91 31 164.5t83.5 119t118.5 69.5t139 24t139 -24t118.5 -69.5t83.5 -119t31 -164.5q0 -95 -30.5 -168.5t-83.5 -118t-118.5 -67.5t-139.5 -23t-139.5 23t-118.5 67.5
t-83.5 118t-30.5 168.5zM361 880l83 71q24 21 37 27t29 6q22 0 42.5 -18t20.5 -43q0 -30 -28 -53l-83 -71q-24 -21 -37 -27t-29 -6q-22 0 -42.5 18t-20.5 43q0 30 28 53z" />
    <glyph glyph-name="Ocircumflex" unicode="&#xd4;" horiz-adv-x="832" 
d="M558 360q0 91 -36 144t-106 53t-106 -53t-36 -144t36 -144t106 -53t106 53t36 144zM44 360q0 91 31 164.5t83.5 119t118.5 69.5t139 24t139 -24t118.5 -69.5t83.5 -119t31 -164.5q0 -95 -30.5 -168.5t-83.5 -118t-118.5 -67.5t-139.5 -23t-139.5 23t-118.5 67.5
t-83.5 118t-30.5 168.5zM235 836q0 32 82 96q43 34 59.5 42.5t39.5 8.5t39.5 -8.5t59.5 -42.5q82 -64 82 -96q0 -23 -15.5 -41t-40.5 -18q-31 0 -125 81q-94 -81 -125 -81q-25 0 -40.5 18t-15.5 41z" />
    <glyph glyph-name="Otilde" unicode="&#xd5;" horiz-adv-x="832" 
d="M558 360q0 91 -36 144t-106 53t-106 -53t-36 -144t36 -144t106 -53t106 53t36 144zM44 360q0 91 31 164.5t83.5 119t118.5 69.5t139 24t139 -24t118.5 -69.5t83.5 -119t31 -164.5q0 -95 -30.5 -168.5t-83.5 -118t-118.5 -67.5t-139.5 -23t-139.5 23t-118.5 67.5
t-83.5 118t-30.5 168.5zM230 853q0 37 30.5 68t74.5 31q38 0 79.5 -16t51.5 -16q18 0 40 16t42 16q22 0 38 -16.5t16 -40.5q0 -37 -30.5 -68t-74.5 -31q-38 0 -79.5 16t-51.5 16q-18 0 -40 -16t-42 -16q-22 0 -38 16.5t-16 40.5z" />
    <glyph glyph-name="Odieresis" unicode="&#xd6;" horiz-adv-x="832" 
d="M558 360q0 91 -36 144t-106 53t-106 -53t-36 -144t36 -144t106 -53t106 53t36 144zM44 360q0 91 31 164.5t83.5 119t118.5 69.5t139 24t139 -24t118.5 -69.5t83.5 -119t31 -164.5q0 -95 -30.5 -168.5t-83.5 -118t-118.5 -67.5t-139.5 -23t-139.5 23t-118.5 67.5
t-83.5 118t-30.5 168.5zM445 875q0 37 26.5 64t64.5 27t64.5 -27t26.5 -64t-26.5 -64t-64.5 -27t-64.5 27t-26.5 64zM205 875q0 37 26.5 64t64.5 27t64.5 -27t26.5 -64t-26.5 -64t-64.5 -27t-64.5 27t-26.5 64z" />
    <glyph glyph-name="multiply" unicode="&#xd7;" horiz-adv-x="600" 
d="M300 373l138 137q19 19 40 19q25 0 47 -23t22 -48q0 -19 -19 -38l-138 -137l138 -138q19 -19 19 -40q0 -25 -23 -47t-48 -22q-19 0 -38 19l-138 138l-138 -138q-19 -19 -38 -19q-25 0 -48 22t-23 47q0 21 19 40l138 138l-138 137q-19 19 -19 38q0 25 22 48t47 23
q21 0 40 -19z" />
    <glyph glyph-name="Oslash" unicode="&#xd8;" horiz-adv-x="832" 
d="M553 419l-220 -227q32 -29 83 -29q70 0 106 53t36 144q0 31 -5 59zM279 301l220 227q-34 29 -83 29q-70 0 -106 -53t-36 -144q0 -29 5 -59zM637 671l61 63q23 25 55 25q22 0 39 -15.5t17 -36.5q0 -24 -36 -61l-53 -55q68 -94 68 -231q0 -95 -30.5 -168.5t-83.5 -118
t-118.5 -67.5t-139.5 -23q-129 0 -223 64l-59 -61q-23 -25 -55 -25q-22 0 -39 15.5t-17 36.5q0 24 36 61l51 53q-66 95 -66 233q0 91 31 164.5t83.5 119t118.5 69.5t139 24q127 0 221 -66z" />
    <glyph glyph-name="Ugrave" unicode="&#xd9;" horiz-adv-x="832" 
d="M532 281v328q0 58 31 91t84 33t84 -33t31 -91v-330q0 -155 -93 -225.5t-253 -70.5t-253 70.5t-93 225.5v330q0 58 31 91t84 33t84 -33t31 -91v-328q0 -124 116 -124t116 124zM370 799l-83 71q-28 23 -28 53q0 25 20.5 43t42.5 18q16 0 29 -6t37 -27l83 -71q28 -23 28 -53
q0 -25 -20.5 -43t-42.5 -18q-16 0 -29 6t-37 27z" />
    <glyph glyph-name="Uacute" unicode="&#xda;" horiz-adv-x="832" 
d="M532 281v328q0 58 31 91t84 33t84 -33t31 -91v-330q0 -155 -93 -225.5t-253 -70.5t-253 70.5t-93 225.5v330q0 58 31 91t84 33t84 -33t31 -91v-328q0 -124 116 -124t116 124zM361 880l83 71q24 21 37 27t29 6q22 0 42.5 -18t20.5 -43q0 -30 -28 -53l-83 -71
q-24 -21 -37 -27t-29 -6q-22 0 -42.5 18t-20.5 43q0 30 28 53z" />
    <glyph glyph-name="Ucircumflex" unicode="&#xdb;" horiz-adv-x="832" 
d="M532 281v328q0 58 31 91t84 33t84 -33t31 -91v-330q0 -155 -93 -225.5t-253 -70.5t-253 70.5t-93 225.5v330q0 58 31 91t84 33t84 -33t31 -91v-328q0 -124 116 -124t116 124zM235 836q0 32 82 96q43 34 59.5 42.5t39.5 8.5t39.5 -8.5t59.5 -42.5q82 -64 82 -96
q0 -23 -15.5 -41t-40.5 -18q-31 0 -125 81q-94 -81 -125 -81q-25 0 -40.5 18t-15.5 41z" />
    <glyph glyph-name="Udieresis" unicode="&#xdc;" horiz-adv-x="832" 
d="M532 281v328q0 58 31 91t84 33t84 -33t31 -91v-330q0 -155 -93 -225.5t-253 -70.5t-253 70.5t-93 225.5v330q0 58 31 91t84 33t84 -33t31 -91v-328q0 -124 116 -124t116 124zM445 875q0 37 26.5 64t64.5 27t64.5 -27t26.5 -64t-26.5 -64t-64.5 -27t-64.5 27t-26.5 64z
M205 875q0 37 26.5 64t64.5 27t64.5 -27t26.5 -64t-26.5 -64t-64.5 -27t-64.5 27t-26.5 64z" />
    <glyph glyph-name="Yacute" unicode="&#xdd;" 
d="M333 470l93 193q34 70 107 70q46 0 78 -32.5t32 -76.5q0 -29 -29 -79l-166 -287v-147q0 -58 -31 -91t-84 -33t-84 33t-31 91v147l-166 287q-29 50 -29 79q0 44 32 76.5t78 32.5q73 0 107 -70zM278 880l83 71q24 21 37 27t29 6q22 0 42.5 -18t20.5 -43q0 -30 -28 -53
l-83 -71q-24 -21 -37 -27t-29 -6q-22 0 -42.5 18t-20.5 43q0 30 28 53z" />
    <glyph glyph-name="Thorn" unicode="&#xde;" horiz-adv-x="778" 
d="M82 107v506q0 58 29 89t83 31t83 -31t29 -89h115q70 0 124 -12t98.5 -39t68 -77t23.5 -121q0 -70 -23.5 -120t-68 -77t-98.5 -39t-124 -12h-115v-9q0 -58 -29 -89t-83 -31t-83 31t-29 89zM306 290h127q31 0 54.5 19t23.5 54q0 36 -23.5 56t-65.5 20h-116v-149z" />
    <glyph glyph-name="germandbls" unicode="&#xdf;" 
d="M51 89v418q0 113 68 171.5t195 58.5q131 0 201.5 -51.5t70.5 -140.5q0 -108 -109 -139v-2q70 -4 109.5 -56t39.5 -125q0 -101 -59.5 -168.5t-159.5 -67.5q-109 0 -109 78q0 24 16 42t37 18q29 0 46 18.5t17 76.5q0 82 -37 105q-7 4 -31 12.5t-36 21t-12 36.5q0 46 45 59
q23 7 33 21.5t10 52.5q0 35 -16.5 56t-50.5 21q-62 0 -62 -71v-445q0 -51 -28 -76.5t-75 -25.5t-75 25.5t-28 76.5z" />
    <glyph glyph-name="agrave" unicode="&#xe0;" 
d="M415 176v59q-17 -18 -70.5 -27t-62.5 -13q-28 -12 -28 -43q0 -23 18.5 -37t44.5 -14q42 0 70 22.5t28 52.5zM615 382v-229q0 -19 3 -50.5t3 -42.5q0 -36 -28 -54.5t-68 -18.5q-92 0 -104 83q-55 -83 -184 -83q-90 0 -142.5 39.5t-52.5 122.5q0 71 60 113.5t205 51.5
q60 4 84 14.5t24 36.5q0 51 -83 51q-47 0 -97 -35.5t-83 -35.5q-31 0 -48 16.5t-17 47.5q0 57 71 92t180 35q47 0 90.5 -6.5t88 -22t71.5 -47.5t27 -78zM287 597l-83 71q-28 23 -28 53q0 25 20.5 43t42.5 18q16 0 29 -6t37 -27l83 -71q28 -23 28 -53q0 -25 -20.5 -43
t-42.5 -18q-16 0 -29 6t-37 27z" />
    <glyph glyph-name="aacute" unicode="&#xe1;" 
d="M415 176v59q-17 -18 -70.5 -27t-62.5 -13q-28 -12 -28 -43q0 -23 18.5 -37t44.5 -14q42 0 70 22.5t28 52.5zM615 382v-229q0 -19 3 -50.5t3 -42.5q0 -36 -28 -54.5t-68 -18.5q-92 0 -104 83q-55 -83 -184 -83q-90 0 -142.5 39.5t-52.5 122.5q0 71 60 113.5t205 51.5
q60 4 84 14.5t24 36.5q0 51 -83 51q-47 0 -97 -35.5t-83 -35.5q-31 0 -48 16.5t-17 47.5q0 57 71 92t180 35q47 0 90.5 -6.5t88 -22t71.5 -47.5t27 -78zM278 678l83 71q24 21 37 27t29 6q22 0 42.5 -18t20.5 -43q0 -30 -28 -53l-83 -71q-24 -21 -37 -27t-29 -6
q-22 0 -42.5 18t-20.5 43q0 30 28 53z" />
    <glyph glyph-name="acircumflex" unicode="&#xe2;" 
d="M415 176v59q-17 -18 -70.5 -27t-62.5 -13q-28 -12 -28 -43q0 -23 18.5 -37t44.5 -14q42 0 70 22.5t28 52.5zM615 382v-229q0 -19 3 -50.5t3 -42.5q0 -36 -28 -54.5t-68 -18.5q-92 0 -104 83q-55 -83 -184 -83q-90 0 -142.5 39.5t-52.5 122.5q0 71 60 113.5t205 51.5
q60 4 84 14.5t24 36.5q0 51 -83 51q-47 0 -97 -35.5t-83 -35.5q-31 0 -48 16.5t-17 47.5q0 57 71 92t180 35q47 0 90.5 -6.5t88 -22t71.5 -47.5t27 -78zM152 634q0 32 82 96q43 34 59.5 42.5t39.5 8.5t39.5 -8.5t59.5 -42.5q82 -64 82 -96q0 -23 -15.5 -41t-40.5 -18
q-31 0 -125 81q-94 -81 -125 -81q-25 0 -40.5 18t-15.5 41z" />
    <glyph glyph-name="atilde" unicode="&#xe3;" 
d="M415 176v59q-17 -18 -70.5 -27t-62.5 -13q-28 -12 -28 -43q0 -23 18.5 -37t44.5 -14q42 0 70 22.5t28 52.5zM615 382v-229q0 -19 3 -50.5t3 -42.5q0 -36 -28 -54.5t-68 -18.5q-92 0 -104 83q-55 -83 -184 -83q-90 0 -142.5 39.5t-52.5 122.5q0 71 60 113.5t205 51.5
q60 4 84 14.5t24 36.5q0 51 -83 51q-47 0 -97 -35.5t-83 -35.5q-31 0 -48 16.5t-17 47.5q0 57 71 92t180 35q47 0 90.5 -6.5t88 -22t71.5 -47.5t27 -78zM147 651q0 37 30.5 68t74.5 31q38 0 79.5 -16t51.5 -16q18 0 40 16t42 16q22 0 38 -16.5t16 -40.5q0 -37 -30.5 -68
t-74.5 -31q-38 0 -79.5 16t-51.5 16q-17 0 -39 -16t-43 -16q-22 0 -38 16.5t-16 40.5z" />
    <glyph glyph-name="adieresis" unicode="&#xe4;" 
d="M415 176v59q-17 -18 -70.5 -27t-62.5 -13q-28 -12 -28 -43q0 -23 18.5 -37t44.5 -14q42 0 70 22.5t28 52.5zM615 382v-229q0 -19 3 -50.5t3 -42.5q0 -36 -28 -54.5t-68 -18.5q-92 0 -104 83q-55 -83 -184 -83q-90 0 -142.5 39.5t-52.5 122.5q0 71 60 113.5t205 51.5
q60 4 84 14.5t24 36.5q0 51 -83 51q-47 0 -97 -35.5t-83 -35.5q-31 0 -48 16.5t-17 47.5q0 57 71 92t180 35q47 0 90.5 -6.5t88 -22t71.5 -47.5t27 -78zM362 673q0 37 27 64t64 27t64 -27t27 -64t-27 -64t-64 -27t-64 27t-27 64zM122 673q0 37 27 64t64 27t64 -27t27 -64
t-27 -64t-64 -27t-64 27t-27 64z" />
    <glyph glyph-name="aring" unicode="&#xe5;" 
d="M415 176v59q-17 -18 -70.5 -27t-62.5 -13q-28 -12 -28 -43q0 -23 18.5 -37t44.5 -14q42 0 70 22.5t28 52.5zM615 382v-229q0 -19 3 -50.5t3 -42.5q0 -36 -28 -54.5t-68 -18.5q-92 0 -104 83q-55 -83 -184 -83q-90 0 -142.5 39.5t-52.5 122.5q0 71 60 113.5t205 51.5
q60 4 84 14.5t24 36.5q0 51 -83 51q-47 0 -97 -35.5t-83 -35.5q-31 0 -48 16.5t-17 47.5q0 57 71 92t180 35q47 0 90.5 -6.5t88 -22t71.5 -47.5t27 -78zM234 689q0 49 35 84t84 35t84 -35t35 -84t-35 -84t-84 -35t-84 35t-35 84zM300 689q0 -22 15.5 -37.5t37.5 -15.5
t37.5 15.5t15.5 37.5t-15.5 37.5t-37.5 15.5t-37.5 -15.5t-15.5 -37.5z" />
    <glyph glyph-name="ae" unicode="&#xe6;" horiz-adv-x="980" 
d="M395 176v59q-17 -18 -70.5 -27t-62.5 -13q-28 -12 -28 -43q0 -23 18.5 -37t44.5 -14q42 0 70 22.5t28 52.5zM22 149q0 71 60 113.5t205 51.5q59 4 83 14.5t24 36.5q0 51 -82 51q-47 0 -97 -35.5t-83 -35.5q-65 0 -65 74q0 49 75 83t176 34q106 0 167 -39q75 39 173 39
q81 0 143 -25.5t94 -64t47.5 -76t15.5 -70.5q0 -46 -22.5 -65t-72.5 -19h-292q4 -51 32.5 -80t77.5 -29q39 0 95.5 32t86.5 32q26 0 45 -21t19 -47q0 -48 -65.5 -82t-203.5 -34q-130 0 -210 64q-88 -64 -231 -64q-90 0 -142.5 39.5t-52.5 122.5zM571 318h193q0 51 -27 74.5
t-69 23.5q-39 0 -67 -23.5t-30 -74.5z" />
    <glyph glyph-name="ccedilla" unicode="&#xe7;" horiz-adv-x="611" 
d="M40 262q0 136 81.5 205t211.5 69q104 0 171.5 -42.5t67.5 -98.5q0 -34 -21 -55t-53 -21q-22 0 -44 18.5t-48 36.5t-57 18q-57 0 -80 -37t-23 -89q0 -58 22 -96.5t72 -38.5q36 0 83 36.5t74 36.5q35 0 56 -23.5t21 -52.5q0 -18 -12.5 -40t-38.5 -45.5t-76 -39.5t-114 -16
q-10 0 -14 1q-17 -17 -27 -37q36 3 39 3q36 0 61 -19t25 -56q0 -41 -35 -67.5t-113 -26.5q-96 0 -96 41q0 29 27 29q8 0 28 -5t37 -5q32 0 32 29q0 10 -6.5 17.5t-16.5 7.5h-30q-28 0 -28 22q0 12 7.5 25t35.5 48q-100 17 -159.5 85t-59.5 183z" />
    <glyph glyph-name="egrave" unicode="&#xe8;" 
d="M602 103q0 -48 -65.5 -82t-203.5 -34q-130 0 -211.5 69.5t-81.5 205.5t81.5 205t211.5 69q81 0 143 -25.5t94 -64t47.5 -76t15.5 -70.5q0 -46 -22.5 -65t-72.5 -19h-292q4 -51 32.5 -80t77.5 -29q39 0 95.5 32t86.5 32q26 0 45 -21t19 -47zM246 318h193q0 51 -27 74.5
t-69 23.5q-39 0 -67 -23.5t-30 -74.5zM287 597l-83 71q-28 23 -28 53q0 25 20.5 43t42.5 18q16 0 29 -6t37 -27l83 -71q28 -23 28 -53q0 -25 -20.5 -43t-42.5 -18q-16 0 -29 6t-37 27z" />
    <glyph glyph-name="eacute" unicode="&#xe9;" 
d="M602 103q0 -48 -65.5 -82t-203.5 -34q-130 0 -211.5 69.5t-81.5 205.5t81.5 205t211.5 69q81 0 143 -25.5t94 -64t47.5 -76t15.5 -70.5q0 -46 -22.5 -65t-72.5 -19h-292q4 -51 32.5 -80t77.5 -29q39 0 95.5 32t86.5 32q26 0 45 -21t19 -47zM246 318h193q0 51 -27 74.5
t-69 23.5q-39 0 -67 -23.5t-30 -74.5zM278 678l83 71q24 21 37 27t29 6q22 0 42.5 -18t20.5 -43q0 -30 -28 -53l-83 -71q-24 -21 -37 -27t-29 -6q-22 0 -42.5 18t-20.5 43q0 30 28 53z" />
    <glyph glyph-name="ecircumflex" unicode="&#xea;" 
d="M602 103q0 -48 -65.5 -82t-203.5 -34q-130 0 -211.5 69.5t-81.5 205.5t81.5 205t211.5 69q81 0 143 -25.5t94 -64t47.5 -76t15.5 -70.5q0 -46 -22.5 -65t-72.5 -19h-292q4 -51 32.5 -80t77.5 -29q39 0 95.5 32t86.5 32q26 0 45 -21t19 -47zM246 318h193q0 51 -27 74.5
t-69 23.5q-39 0 -67 -23.5t-30 -74.5zM152 634q0 32 82 96q43 34 59.5 42.5t39.5 8.5t39.5 -8.5t59.5 -42.5q82 -64 82 -96q0 -23 -15.5 -41t-40.5 -18q-31 0 -125 81q-94 -81 -125 -81q-25 0 -40.5 18t-15.5 41z" />
    <glyph glyph-name="edieresis" unicode="&#xeb;" 
d="M602 103q0 -48 -65.5 -82t-203.5 -34q-130 0 -211.5 69.5t-81.5 205.5t81.5 205t211.5 69q81 0 143 -25.5t94 -64t47.5 -76t15.5 -70.5q0 -46 -22.5 -65t-72.5 -19h-292q4 -51 32.5 -80t77.5 -29q39 0 95.5 32t86.5 32q26 0 45 -21t19 -47zM246 318h193q0 51 -27 74.5
t-69 23.5q-39 0 -67 -23.5t-30 -74.5zM362 673q0 37 27 64t64 27t64 -27t27 -64t-27 -64t-64 -27t-64 27t-27 64zM122 673q0 37 27 64t64 27t64 -27t27 -64t-27 -64t-64 -27t-64 27t-27 64z" />
    <glyph glyph-name="igrave" unicode="&#xec;" horiz-adv-x="314" 
d="M54 89v345q0 51 28 76.5t75 25.5t75 -25.5t28 -76.5v-345q0 -51 -28 -76.5t-75 -25.5t-75 25.5t-28 76.5zM111 597l-83 71q-28 23 -28 53q0 25 20.5 43t42.5 18q16 0 29 -6t37 -27l83 -71q28 -23 28 -53q0 -25 -20.5 -43t-42.5 -18q-16 0 -29 6t-37 27z" />
    <glyph glyph-name="iacute" unicode="&#xed;" horiz-adv-x="314" 
d="M54 89v345q0 51 28 76.5t75 25.5t75 -25.5t28 -76.5v-345q0 -51 -28 -76.5t-75 -25.5t-75 25.5t-28 76.5zM102 678l83 71q24 21 37 27t29 6q22 0 42.5 -18t20.5 -43q0 -30 -28 -53l-83 -71q-24 -21 -37 -27t-29 -6q-22 0 -42.5 18t-20.5 43q0 30 28 53z" />
    <glyph glyph-name="icircumflex" unicode="&#xee;" horiz-adv-x="314" 
d="M54 89v345q0 51 28 76.5t75 25.5t75 -25.5t28 -76.5v-345q0 -51 -28 -76.5t-75 -25.5t-75 25.5t-28 76.5zM-24 634q0 32 82 96q43 34 59.5 42.5t39.5 8.5t39.5 -8.5t59.5 -42.5q82 -64 82 -96q0 -23 -15.5 -41t-40.5 -18q-31 0 -125 81q-94 -81 -125 -81q-25 0 -40.5 18
t-15.5 41z" />
    <glyph glyph-name="idieresis" unicode="&#xef;" horiz-adv-x="314" 
d="M54 89v345q0 51 28 76.5t75 25.5t75 -25.5t28 -76.5v-345q0 -51 -28 -76.5t-75 -25.5t-75 25.5t-28 76.5zM186 673q0 37 27 64t64 27t64 -27t27 -64t-27 -64t-64 -27t-64 27t-27 64zM-54 673q0 37 27 64t64 27t64 -27t27 -64t-27 -64t-64 -27t-64 27t-27 64z" />
    <glyph glyph-name="eth" unicode="&#xf0;" 
d="M420 256q0 142 -87 142t-87 -142q0 -131 87 -131t87 131zM378 727l75 36q39 19 56 19t28.5 -12t11.5 -28q0 -14 -7.5 -22.5t-28.5 -19.5l-48 -23q56 -38 108.5 -137t52.5 -198q0 -355 -293 -355q-130 0 -211.5 69.5t-81.5 205.5q0 68 22.5 121.5t59 84t77.5 46.5t83 16
q56 0 103 -20q-10 48 -83 88l-85 -42q-39 -19 -56 -19t-28.5 11.5t-11.5 28.5q0 14 7.5 22.5t28.5 19.5l39 19l-1 2q-46 6 -63.5 21.5t-17.5 43.5q0 24 22.5 39.5t57.5 15.5q100 0 184 -33z" />
    <glyph glyph-name="ntilde" unicode="&#xf1;" 
d="M409 89v197q0 88 -76 88q-37 0 -56.5 -27t-19.5 -75v-183q0 -51 -28 -76.5t-75 -25.5t-75 25.5t-28 76.5v349q0 98 99 98q44 0 65.5 -24t26.5 -73h2q53 97 170 97q102 0 151.5 -55.5t49.5 -146.5v-245q0 -51 -28 -76.5t-75 -25.5t-75 25.5t-28 76.5zM147 651
q0 37 30.5 68t74.5 31q38 0 79.5 -16t51.5 -16q18 0 40 16t42 16q22 0 38 -16.5t16 -40.5q0 -37 -30.5 -68t-74.5 -31q-38 0 -79.5 16t-51.5 16q-17 0 -39 -16t-43 -16q-22 0 -38 16.5t-16 40.5z" />
    <glyph glyph-name="ograve" unicode="&#xf2;" 
d="M40 262q0 136 81.5 205t211.5 69t211.5 -69t81.5 -205t-81.5 -205.5t-211.5 -69.5t-211.5 69.5t-81.5 205.5zM420 256q0 142 -87 142t-87 -142q0 -131 87 -131t87 131zM287 597l-83 71q-28 23 -28 53q0 25 20.5 43t42.5 18q16 0 29 -6t37 -27l83 -71q28 -23 28 -53
q0 -25 -20.5 -43t-42.5 -18q-16 0 -29 6t-37 27z" />
    <glyph glyph-name="oacute" unicode="&#xf3;" 
d="M40 262q0 136 81.5 205t211.5 69t211.5 -69t81.5 -205t-81.5 -205.5t-211.5 -69.5t-211.5 69.5t-81.5 205.5zM420 256q0 142 -87 142t-87 -142q0 -131 87 -131t87 131zM278 678l83 71q24 21 37 27t29 6q22 0 42.5 -18t20.5 -43q0 -30 -28 -53l-83 -71q-24 -21 -37 -27
t-29 -6q-22 0 -42.5 18t-20.5 43q0 30 28 53z" />
    <glyph glyph-name="ocircumflex" unicode="&#xf4;" 
d="M40 262q0 136 81.5 205t211.5 69t211.5 -69t81.5 -205t-81.5 -205.5t-211.5 -69.5t-211.5 69.5t-81.5 205.5zM420 256q0 142 -87 142t-87 -142q0 -131 87 -131t87 131zM152 634q0 32 82 96q43 34 59.5 42.5t39.5 8.5t39.5 -8.5t59.5 -42.5q82 -64 82 -96q0 -23 -15.5 -41
t-40.5 -18q-31 0 -125 81q-94 -81 -125 -81q-25 0 -40.5 18t-15.5 41z" />
    <glyph glyph-name="otilde" unicode="&#xf5;" 
d="M40 262q0 136 81.5 205t211.5 69t211.5 -69t81.5 -205t-81.5 -205.5t-211.5 -69.5t-211.5 69.5t-81.5 205.5zM420 256q0 142 -87 142t-87 -142q0 -131 87 -131t87 131zM147 651q0 37 30.5 68t74.5 31q38 0 79.5 -16t51.5 -16q18 0 40 16t42 16q22 0 38 -16.5t16 -40.5
q0 -37 -30.5 -68t-74.5 -31q-38 0 -79.5 16t-51.5 16q-17 0 -39 -16t-43 -16q-22 0 -38 16.5t-16 40.5z" />
    <glyph glyph-name="odieresis" unicode="&#xf6;" 
d="M40 262q0 136 81.5 205t211.5 69t211.5 -69t81.5 -205t-81.5 -205.5t-211.5 -69.5t-211.5 69.5t-81.5 205.5zM420 256q0 142 -87 142t-87 -142q0 -131 87 -131t87 131zM362 673q0 37 27 64t64 27t64 -27t27 -64t-27 -64t-64 -27t-64 27t-27 64zM122 673q0 37 27 64t64 27
t64 -27t27 -64t-27 -64t-64 -27t-64 27t-27 64z" />
    <glyph glyph-name="divide" unicode="&#xf7;" horiz-adv-x="600" 
d="M87 349h426q32 0 51 -17.5t19 -48.5t-19 -48.5t-51 -17.5h-426q-32 0 -51 17.5t-19 48.5t19 48.5t51 17.5zM206 72q0 39 27.5 66.5t66.5 27.5t66.5 -27.5t27.5 -66.5t-27.5 -66.5t-66.5 -27.5t-66.5 27.5t-27.5 66.5zM206 494q0 39 27.5 66.5t66.5 27.5t66.5 -27.5
t27.5 -66.5t-27.5 -66.5t-66.5 -27.5t-66.5 27.5t-27.5 66.5z" />
    <glyph glyph-name="oslash" unicode="&#xf8;" 
d="M235 234l157 157q-22 19 -59 19q-51 0 -75 -36.5t-24 -117.5q0 -16 1 -22zM431 289l-157 -157q22 -19 59 -19q51 0 75 34.5t24 108.5q0 24 -1 33zM48 47l43 43q-51 67 -51 172q0 136 81.5 205t211.5 69q96 0 166 -38l53 53q19 19 46 19q18 0 32.5 -12.5t13.5 -34.5
q0 -21 -26 -47l-43 -43q51 -67 51 -171q0 -136 -81.5 -205.5t-211.5 -69.5q-99 0 -166 38l-53 -53q-19 -19 -46 -19q-18 0 -32.5 12.5t-13.5 34.5q0 21 26 47z" />
    <glyph glyph-name="ugrave" unicode="&#xf9;" 
d="M409 251v183q0 51 28 76.5t75 25.5t75 -25.5t28 -76.5v-349q0 -98 -99 -98q-44 0 -65.5 24t-26.5 73h-2q-53 -97 -170 -97q-102 0 -151.5 55.5t-49.5 146.5v245q0 51 28 76.5t75 25.5t75 -25.5t28 -76.5v-197q0 -88 76 -88q37 0 56.5 27t19.5 75zM287 597l-83 71
q-28 23 -28 53q0 25 20.5 43t42.5 18q16 0 29 -6t37 -27l83 -71q28 -23 28 -53q0 -25 -20.5 -43t-42.5 -18q-16 0 -29 6t-37 27z" />
    <glyph glyph-name="uacute" unicode="&#xfa;" 
d="M409 251v183q0 51 28 76.5t75 25.5t75 -25.5t28 -76.5v-349q0 -98 -99 -98q-44 0 -65.5 24t-26.5 73h-2q-53 -97 -170 -97q-102 0 -151.5 55.5t-49.5 146.5v245q0 51 28 76.5t75 25.5t75 -25.5t28 -76.5v-197q0 -88 76 -88q37 0 56.5 27t19.5 75zM278 678l83 71
q24 21 37 27t29 6q22 0 42.5 -18t20.5 -43q0 -30 -28 -53l-83 -71q-24 -21 -37 -27t-29 -6q-22 0 -42.5 18t-20.5 43q0 30 28 53z" />
    <glyph glyph-name="ucircumflex" unicode="&#xfb;" 
d="M409 251v183q0 51 28 76.5t75 25.5t75 -25.5t28 -76.5v-349q0 -98 -99 -98q-44 0 -65.5 24t-26.5 73h-2q-53 -97 -170 -97q-102 0 -151.5 55.5t-49.5 146.5v245q0 51 28 76.5t75 25.5t75 -25.5t28 -76.5v-197q0 -88 76 -88q37 0 56.5 27t19.5 75zM152 634q0 32 82 96
q43 34 59.5 42.5t39.5 8.5t39.5 -8.5t59.5 -42.5q82 -64 82 -96q0 -23 -15.5 -41t-40.5 -18q-31 0 -125 81q-94 -81 -125 -81q-25 0 -40.5 18t-15.5 41z" />
    <glyph glyph-name="udieresis" unicode="&#xfc;" 
d="M409 251v183q0 51 28 76.5t75 25.5t75 -25.5t28 -76.5v-349q0 -98 -99 -98q-44 0 -65.5 24t-26.5 73h-2q-53 -97 -170 -97q-102 0 -151.5 55.5t-49.5 146.5v245q0 51 28 76.5t75 25.5t75 -25.5t28 -76.5v-197q0 -88 76 -88q37 0 56.5 27t19.5 75zM362 673q0 37 27 64
t64 27t64 -27t27 -64t-27 -64t-64 -27t-64 27t-27 64zM122 673q0 37 27 64t64 27t64 -27t27 -64t-27 -64t-64 -27t-64 27t-27 64z" />
    <glyph glyph-name="yacute" unicode="&#xfd;" horiz-adv-x="556" 
d="M283 169l60 250q15 64 37 90.5t62 26.5t68.5 -23t28.5 -65q0 -21 -39 -133l-120 -351q-55 -161 -221 -161q-60 0 -91 22.5t-31 63.5q0 64 79 64q53 0 53 25q0 13 -10 40l-110 313q-32 90 -32 117q0 38 29 63t72 25q69 0 88 -77l75 -290h2zM223 678l83 71q24 21 37 27
t29 6q22 0 42.5 -18t20.5 -43q0 -30 -28 -53l-83 -71q-24 -21 -37 -27t-29 -6q-22 0 -42.5 18t-20.5 43q0 30 28 53z" />
    <glyph glyph-name="thorn" unicode="&#xfe;" 
d="M51 -104v734q0 103 100 103t100 -103v-154h2q19 28 56.5 44t82.5 16q108 0 171 -74.5t63 -201.5q0 -42 -12 -86t-37.5 -87.5t-73 -71.5t-110.5 -28q-93 0 -140 80h-2v-171q0 -103 -100 -103t-100 103zM248 262q0 -53 22 -83t57 -30q49 0 71 33.5t22 84.5q0 50 -20.5 84.5
t-68.5 34.5q-83 0 -83 -124z" />
    <glyph glyph-name="ydieresis" unicode="&#xff;" horiz-adv-x="556" 
d="M283 169l60 250q15 64 37 90.5t62 26.5t68.5 -23t28.5 -65q0 -21 -39 -133l-120 -351q-55 -161 -221 -161q-60 0 -91 22.5t-31 63.5q0 64 79 64q53 0 53 25q0 13 -10 40l-110 313q-32 90 -32 117q0 38 29 63t72 25q69 0 88 -77l75 -290h2zM307 673q0 37 26.5 64t64.5 27
t64.5 -27t26.5 -64t-26.5 -64t-64.5 -27t-64.5 27t-26.5 64zM67 673q0 37 26.5 64t64.5 27t64.5 -27t26.5 -64t-26.5 -64t-64.5 -27t-64.5 27t-26.5 64z" />
    <glyph glyph-name="dotlessi" unicode="&#x131;" horiz-adv-x="314" 
d="M54 89v345q0 51 28 76.5t75 25.5t75 -25.5t28 -76.5v-345q0 -51 -28 -76.5t-75 -25.5t-75 25.5t-28 76.5z" />
    <glyph glyph-name="Lslash" unicode="&#x141;" horiz-adv-x="667" 
d="M82 364v245q0 58 31 91t84 33t84 -33t31 -91v-113l50 29q36 21 55 21q31 0 51.5 -20t20.5 -48q0 -36 -60 -71l-117 -67v-154h241q45 0 72 -24.5t27 -68.5t-27 -68.5t-72 -24.5h-340q-67 0 -99 33t-32 104v71q-30 -18 -48 -18q-32 0 -52 18.5t-20 46.5q0 38 60 74z" />
    <glyph glyph-name="lslash" unicode="&#x142;" horiz-adv-x="332" 
d="M63 89v166q-16 -7 -30 -7q-25 0 -43.5 18.5t-18.5 42.5q0 38 37 59l55 32v231q0 51 28 76.5t75 25.5t75 -25.5t28 -76.5v-121q18 7 30 7q25 0 43.5 -18.5t18.5 -42.5q0 -38 -37 -59l-55 -31v-277q0 -51 -28 -76.5t-75 -25.5t-75 25.5t-28 76.5z" />
    <glyph glyph-name="OE" unicode="&#x152;" horiz-adv-x="1000" 
d="M714 168h166q50 0 75 -22.5t25 -61.5t-25 -61.5t-75 -22.5h-290q-68 0 -68 65q-74 -82 -190 -82q-56 0 -106.5 20.5t-93.5 62t-68.5 113.5t-25.5 166q0 186 82 289t209 103q68 0 113.5 -19.5t75.5 -67.5h2q0 31 18.5 50.5t51.5 19.5h291q50 0 75 -22.5t25 -61.5
t-25 -61.5t-75 -22.5h-167v-101h145q50 0 75 -22.5t25 -61.5t-25 -61.5t-75 -22.5h-145v-115zM502 357q0 106 -29 153t-93 47q-61 0 -89.5 -58t-28.5 -142q0 -200 118 -200q122 0 122 200z" />
    <glyph glyph-name="oe" unicode="&#x153;" horiz-adv-x="1000" 
d="M884 216h-291q0 -47 27.5 -78t74.5 -31q35 0 65.5 15.5t53.5 31.5t40 16q31 0 50.5 -19t19.5 -44q0 -54 -67 -87t-157 -33q-72 0 -115.5 13.5t-85.5 52.5q-39 -39 -82.5 -52.5t-104.5 -13.5q-115 0 -191 67.5t-76 208.5q0 124 71.5 198.5t196.5 74.5q64 0 107.5 -15.5
t83.5 -53.5q47 39 84 54t94 15q125 0 199 -74t74 -171q0 -41 -17.5 -58t-53.5 -17zM417 265q0 133 -85 133q-81 0 -81 -131q0 -31 2.5 -52.5t10.5 -44t25.5 -34t45.5 -11.5q27 0 44.5 12.5t25 35.5t10 43t2.5 49zM596 318h171q-3 44 -23.5 71t-60.5 27q-38 0 -61.5 -25
t-25.5 -73z" />
    <glyph glyph-name="Scaron" unicode="&#x160;" horiz-adv-x="722" 
d="M446 205q0 21 -14.5 32t-48.5 21l-153 44q-178 51 -178 202q0 99 69.5 166t210.5 67q55 0 104.5 -7.5t97 -23.5t75.5 -47.5t28 -74.5q0 -41 -28 -66t-72 -25q-25 0 -46.5 13.5t-35.5 30.5t-43 30.5t-67 13.5q-32 0 -53.5 -12.5t-21.5 -35.5t18.5 -35.5t58.5 -23.5
l119 -32q99 -27 151.5 -76.5t52.5 -137.5q0 -120 -87 -182.5t-212 -62.5q-86 0 -151 17.5t-99 45t-50 55.5t-16 55q0 42 27.5 68t69.5 26q27 0 51 -16.5t40 -36t46 -36t68 -16.5q39 0 64 14.5t25 45.5zM180 915q0 23 15.5 41t40.5 18q31 0 125 -81q94 81 125 81
q25 0 40.5 -18t15.5 -41q0 -32 -82 -96q-43 -34 -59.5 -42.5t-39.5 -8.5t-39.5 8.5t-59.5 42.5q-82 64 -82 96z" />
    <glyph glyph-name="scaron" unicode="&#x161;" horiz-adv-x="593" 
d="M352 142q0 34 -67 48l-61 13q-108 23 -151 62.5t-43 100.5q0 71 61.5 120.5t202.5 49.5q64 0 119 -11.5t92.5 -38t37.5 -64.5q0 -27 -19 -45.5t-49 -18.5q-27 0 -54 16t-59 32t-74 16q-58 0 -58 -37q0 -16 12.5 -24.5t51.5 -17.5l87 -19q183 -40 183 -156
q0 -78 -67 -129.5t-217 -51.5q-107 0 -179 32.5t-72 94.5q0 26 21.5 44.5t51.5 18.5q23 0 49 -19t60 -38t76 -19q31 0 48 12.5t17 28.5zM116 713q0 23 15.5 41t40.5 18q31 0 125 -81q94 81 125 81q25 0 40.5 -18t15.5 -41q0 -32 -82 -96q-43 -34 -59.5 -42.5t-39.5 -8.5
t-39.5 8.5t-59.5 42.5q-82 64 -82 96z" />
    <glyph glyph-name="Ydieresis" unicode="&#x178;" 
d="M333 470l93 193q34 70 107 70q46 0 78 -32.5t32 -76.5q0 -29 -29 -79l-166 -287v-147q0 -58 -31 -91t-84 -33t-84 33t-31 91v147l-166 287q-29 50 -29 79q0 44 32 76.5t78 32.5q73 0 107 -70zM362 875q0 37 27 64t64 27t64 -27t27 -64t-27 -64t-64 -27t-64 27t-27 64z
M122 875q0 37 27 64t64 27t64 -27t27 -64t-27 -64t-64 -27t-64 27t-27 64z" />
    <glyph glyph-name="Zcaron" unicode="&#x17d;" horiz-adv-x="722" 
d="M335 180h260q105 0 105 -90t-105 -90h-460q-56 0 -84.5 28t-28.5 73q0 28 13 53t51 66l288 320h-224q-55 0 -82.5 24t-27.5 66t27.5 66t82.5 24h434q52 0 78.5 -28t26.5 -73q0 -46 -46 -97zM180 915q0 23 15.5 41t40.5 18q31 0 125 -81q94 81 125 81q25 0 40.5 -18
t15.5 -41q0 -32 -82 -96q-43 -34 -59.5 -42.5t-39.5 -8.5t-39.5 8.5t-59.5 42.5q-82 64 -82 96z" />
    <glyph glyph-name="zcaron" unicode="&#x17e;" horiz-adv-x="574" 
d="M290 144h179q38 0 57.5 -16t19.5 -56t-19.5 -56t-57.5 -16h-371q-34 0 -52 22.5t-18 52.5q0 46 45 91l217 213h-163q-38 0 -57.5 16t-19.5 56q0 39 20 55.5t68 16.5h326q37 0 56 -24t19 -64q0 -25 -7 -40.5t-28 -36.5zM106 713q0 23 15.5 41t40.5 18q31 0 125 -81
q94 81 125 81q25 0 40.5 -18t15.5 -41q0 -32 -82 -96q-43 -34 -59.5 -42.5t-39.5 -8.5t-39.5 8.5t-59.5 42.5q-82 64 -82 96z" />
    <glyph glyph-name="florin" unicode="&#x192;" horiz-adv-x="668" 
d="M222 404l28 152q17 90 58.5 122.5t121.5 32.5t118.5 -15.5t38.5 -61.5q0 -38 -24 -55.5t-56 -17.5q-33 0 -42 -4.5t-13 -23.5l-24 -129h68q47 0 47 -50q0 -30 -19.5 -47t-52.5 -17h-65l-70 -370q-16 -82 -60.5 -112t-126.5 -30q-142 0 -142 79q0 33 18.5 52t56.5 19
q33 0 42 4.5t13 23.5l63 334h-62q-47 0 -47 50q0 30 19.5 47t52.5 17h59z" />
    <glyph glyph-name="circumflex" unicode="&#x2c6;" horiz-adv-x="278" 
d="M-42 634q0 32 82 96q43 34 59.5 42.5t39.5 8.5t39.5 -8.5t59.5 -42.5q82 -64 82 -96q0 -23 -15.5 -41t-40.5 -18q-31 0 -125 81q-94 -81 -125 -81q-25 0 -40.5 18t-15.5 41z" />
    <glyph glyph-name="caron" unicode="&#x2c7;" horiz-adv-x="278" 
d="M-42 713q0 23 15.5 41t40.5 18q31 0 125 -81q94 81 125 81q25 0 40.5 -18t15.5 -41q0 -32 -82 -96q-43 -34 -59.5 -42.5t-39.5 -8.5t-39.5 8.5t-59.5 42.5q-82 64 -82 96z" />
    <glyph glyph-name="uni02C9" unicode="&#x2c9;" horiz-adv-x="278" 
d="M271 613h-264q-27 0 -43.5 16t-16.5 44t16.5 44t43.5 16h264q27 0 43.5 -16t16.5 -44t-16.5 -44t-43.5 -16z" />
    <glyph glyph-name="breve" unicode="&#x2d8;" horiz-adv-x="278" 
d="M-30 710q0 25 16 40t44 15q17 0 28.5 -13.5t17.5 -30.5t22 -30.5t41 -13.5t41 13.5t22 30.5t17.5 30.5t28.5 13.5q28 0 44 -15t16 -40q0 -52 -44 -93.5t-125 -41.5t-125 41.5t-44 93.5z" />
    <glyph glyph-name="dotaccent" unicode="&#x2d9;" horiz-adv-x="278" 
d="M48 673q0 37 27 64t64 27t64 -27t27 -64t-27 -64t-64 -27t-64 27t-27 64z" />
    <glyph glyph-name="ring" unicode="&#x2da;" horiz-adv-x="278" 
d="M20 679q0 49 35 84t84 35t84 -35t35 -84t-35 -84t-84 -35t-84 35t-35 84zM86 679q0 -22 15.5 -37.5t37.5 -15.5t37.5 15.5t15.5 37.5t-15.5 37.5t-37.5 15.5t-37.5 -15.5t-15.5 -37.5z" />
    <glyph glyph-name="ogonek" unicode="&#x2db;" horiz-adv-x="278" 
d="M123 0h64q-66 -46 -66 -106q0 -42 36 -42q11 0 27.5 5.5t20.5 5.5q10 0 17 -9.5t7 -22.5q0 -45 -96 -45q-114 0 -114 89q0 38 29.5 72.5t74.5 52.5z" />
    <glyph glyph-name="tilde" unicode="&#x2dc;" horiz-adv-x="278" 
d="M-47 651q0 37 30.5 68t74.5 31q38 0 79.5 -16t51.5 -16q17 0 39 16t43 16q22 0 38 -16.5t16 -40.5q0 -37 -30.5 -68t-74.5 -31q-38 0 -79.5 16t-51.5 16q-17 0 -39 -16t-43 -16q-22 0 -38 16.5t-16 40.5z" />
    <glyph glyph-name="hungarumlaut" unicode="&#x2dd;" horiz-adv-x="278" 
d="M-34 678l83 71q24 21 37 27t29 6q22 0 42.5 -18t20.5 -43q0 -30 -28 -53l-83 -71q-24 -21 -37 -27t-29 -6q-22 0 -42.5 18t-20.5 43q0 30 28 53zM206 678l83 71q24 21 37 27t29 6q22 0 42.5 -18t20.5 -43q0 -30 -28 -53l-83 -71q-24 -21 -37 -27t-29 -6q-22 0 -42.5 18
t-20.5 43q0 30 28 53z" />
    <glyph glyph-name="uni03A9" unicode="&#x3a9;" horiz-adv-x="853" 
d="M198 131v3q-59 41 -100.5 107t-41.5 153q0 131 103 223t269 92q167 0 267 -93.5t100 -219.5q0 -158 -146 -262v-3h160v-131h-338v100q145 87 145 263q0 91 -51.5 152.5t-136.5 61.5q-84 0 -138 -60.5t-54 -158.5q0 -91 40.5 -158.5t105.5 -99.5v-100h-341v131h157z" />
    <glyph glyph-name="uni03BC" unicode="&#x3bc;" 
d="M409 251v183q0 51 28 76.5t75 25.5t75 -25.5t28 -76.5v-349q0 -98 -99 -98q-44 0 -65.5 24t-26.5 73h-2q-12 -44 -41 -70.5t-61 -26.5q-43 0 -61 30h-2v-122q0 -51 -28 -76.5t-75 -25.5t-75 25.5t-28 76.5v539q0 51 28 76.5t75 25.5t75 -25.5t28 -76.5v-197q0 -88 76 -88
q37 0 56.5 27t19.5 75z" />
    <glyph glyph-name="pi" unicode="&#x3c0;" horiz-adv-x="720" 
d="M691 391h-75v-224q0 -107 14 -167h-174q-19 25 -19 155v236h-134q-2 -93 -21 -212.5t-44 -178.5h-174q25 82 44.5 198t18.5 193q-73 0 -109 -10l-17 106q41 38 202 38h503z" />
    <glyph glyph-name="endash" unicode="&#x2013;" horiz-adv-x="500" 
d="M98 358h304q88 0 88 -75t-88 -75h-304q-88 0 -88 75t88 75z" />
    <glyph glyph-name="emdash" unicode="&#x2014;" horiz-adv-x="1000" 
d="M98 358h804q88 0 88 -75t-88 -75h-804q-88 0 -88 75t88 75z" />
    <glyph glyph-name="quoteleft" unicode="&#x2018;" horiz-adv-x="334" 
d="M52 529q0 53 17.5 94.5t45.5 64t56.5 34t55.5 11.5q25 0 37.5 -13.5t12.5 -30.5q0 -21 -13 -33.5t-46 -19.5q-58 -13 -58 -67q14 7 35 7q42 0 64.5 -28.5t22.5 -69.5q0 -45 -31 -76.5t-78 -31.5q-50 0 -85.5 38.5t-35.5 120.5z" />
    <glyph glyph-name="quoteright" unicode="&#x2019;" horiz-adv-x="334" 
d="M52 625q0 45 31 76.5t78 31.5q50 0 85.5 -38.5t35.5 -120.5q0 -53 -17.5 -94.5t-45.5 -64t-56.5 -34t-55.5 -11.5q-25 0 -37.5 13.5t-12.5 30.5q0 21 13 33.5t46 19.5q58 13 58 67q-14 -7 -35 -7q-42 0 -64.5 28.5t-22.5 69.5z" />
    <glyph glyph-name="quotesinglbase" unicode="&#x201a;" horiz-adv-x="334" 
d="M52 110q0 45 31 76.5t78 31.5q50 0 85.5 -38.5t35.5 -120.5q0 -53 -17.5 -94.5t-45.5 -64t-56.5 -34t-55.5 -11.5q-25 0 -37.5 13.5t-12.5 30.5q0 21 13 33.5t46 19.5q58 13 58 67q-14 -7 -35 -7q-42 0 -64.5 28.5t-22.5 69.5z" />
    <glyph glyph-name="quotedblleft" unicode="&#x201c;" horiz-adv-x="611" 
d="M53 529q0 53 17.5 94.5t45.5 64t56.5 34t55.5 11.5q25 0 37.5 -13.5t12.5 -30.5q0 -21 -13 -33.5t-46 -19.5q-58 -13 -58 -67q14 7 35 7q42 0 64.5 -28.5t22.5 -69.5q0 -45 -31 -76.5t-78 -31.5q-50 0 -85.5 38.5t-35.5 120.5zM328 529q0 53 17.5 94.5t45.5 64t56.5 34
t55.5 11.5q25 0 37.5 -13.5t12.5 -30.5q0 -21 -13 -33.5t-46 -19.5q-58 -13 -58 -67q14 7 35 7q42 0 64.5 -28.5t22.5 -69.5q0 -45 -31 -76.5t-78 -31.5q-50 0 -85.5 38.5t-35.5 120.5z" />
    <glyph glyph-name="quotedblright" unicode="&#x201d;" horiz-adv-x="611" 
d="M53 625q0 45 31 76.5t78 31.5q50 0 85.5 -38.5t35.5 -120.5q0 -53 -17.5 -94.5t-45.5 -64t-56.5 -34t-55.5 -11.5q-25 0 -37.5 13.5t-12.5 30.5q0 21 13 33.5t46 19.5q58 13 58 67q-14 -7 -35 -7q-42 0 -64.5 28.5t-22.5 69.5zM328 625q0 45 31 76.5t78 31.5
q50 0 85.5 -38.5t35.5 -120.5q0 -53 -17.5 -94.5t-45.5 -64t-56.5 -34t-55.5 -11.5q-25 0 -37.5 13.5t-12.5 30.5q0 21 13 33.5t46 19.5q58 13 58 67q-14 -7 -35 -7q-42 0 -64.5 28.5t-22.5 69.5z" />
    <glyph glyph-name="quotedblbase" unicode="&#x201e;" horiz-adv-x="611" 
d="M53 110q0 45 31 76.5t78 31.5q50 0 85.5 -38.5t35.5 -120.5q0 -53 -17.5 -94.5t-45.5 -64t-56.5 -34t-55.5 -11.5q-25 0 -37.5 13.5t-12.5 30.5q0 21 13 33.5t46 19.5q58 13 58 67q-14 -7 -35 -7q-42 0 -64.5 28.5t-22.5 69.5zM328 110q0 45 31 76.5t78 31.5
q50 0 85.5 -38.5t35.5 -120.5q0 -53 -17.5 -94.5t-45.5 -64t-56.5 -34t-55.5 -11.5q-25 0 -37.5 13.5t-12.5 30.5q0 21 13 33.5t46 19.5q58 13 58 67q-14 -7 -35 -7q-42 0 -64.5 28.5t-22.5 69.5z" />
    <glyph glyph-name="dagger" unicode="&#x2020;" 
d="M239 516v106q0 111 94 111t94 -111v-106h89q48 0 68 -18.5t20 -56.5t-20 -56.5t-68 -18.5h-89v-441q0 -111 -94 -111t-94 111v441h-89q-48 0 -68 18.5t-20 56.5t20 56.5t68 18.5h89z" />
    <glyph glyph-name="daggerdbl" unicode="&#x2021;" 
d="M239 155v237h-100q-38 0 -57.5 16t-19.5 56t19.5 56t57.5 16h100v86q0 111 94 111t94 -111v-86h100q38 0 57.5 -16t19.5 -56t-19.5 -56t-57.5 -16h-100v-237h100q38 0 57.5 -16t19.5 -56t-19.5 -56t-57.5 -16h-100v-86q0 -111 -94 -111t-94 111v86h-100q-38 0 -57.5 16
t-19.5 56t19.5 56t57.5 16h100z" />
    <glyph glyph-name="bullet" unicode="&#x2022;" horiz-adv-x="500" 
d="M72 360q0 74 52 126t126 52t126 -52t52 -126t-52 -126t-126 -52t-126 52t-52 126z" />
    <glyph glyph-name="ellipsis" unicode="&#x2026;" horiz-adv-x="1000" 
d="M55 106q0 46 32.5 79t79.5 33t79.5 -33t32.5 -79t-32.5 -79t-79.5 -33t-79.5 33t-32.5 79zM388 106q0 46 33 79t79 33t79 -33t33 -79t-33 -79t-79 -33t-79 33t-33 79zM721 106q0 46 32.5 79t79.5 33t79.5 -33t32.5 -79t-32.5 -79t-79.5 -33t-79.5 33t-32.5 79z" />
    <glyph glyph-name="perthousand" unicode="&#x2030;" horiz-adv-x="1000" 
d="M194 533q0 55 -8.5 77.5t-33.5 22.5t-33.5 -22.5t-8.5 -77.5t8.5 -77.5t33.5 -22.5t33.5 22.5t8.5 77.5zM2 533q0 86 38 132t112 46t112 -46t38 -132t-38 -132t-112 -46t-112 46t-38 132zM554 165q0 55 -8.5 77.5t-33.5 22.5t-33.5 -22.5t-8.5 -77.5t8.5 -77.5
t33.5 -22.5t33.5 22.5t8.5 77.5zM362 165q0 86 38 132t112 46t112 -46t38 -132t-38 -132t-112 -46t-112 46t-38 132zM890 165q0 55 -8.5 77.5t-33.5 22.5t-33.5 -22.5t-8.5 -77.5t8.5 -77.5t33.5 -22.5t33.5 22.5t8.5 77.5zM698 165q0 86 38 132t112 46t112 -46t38 -132
t-38 -132t-112 -46t-112 46t-38 132zM86 27l422 687q19 32 43 32q14 0 27 -10t13 -23q0 -22 -13 -42l-422 -687q-19 -32 -43 -32q-14 0 -27 10t-13 23q0 22 13 42z" />
    <glyph glyph-name="guilsinglleft" unicode="&#x2039;" horiz-adv-x="407" 
d="M177 283l97 -54q26 -15 26 -54q0 -53 -50 -53q-15 0 -42 16q-73 43 -104 67q-12 9 -17 24t-5 54t5 54t17 24q31 24 104 67q27 16 42 16q50 0 50 -53q0 -39 -26 -54z" />
    <glyph glyph-name="guilsinglright" unicode="&#x203a;" horiz-adv-x="407" 
d="M230 283l-97 54q-26 15 -26 54q0 53 50 53q15 0 42 -16q73 -43 104 -67q12 -9 17 -24t5 -54t-5 -54t-17 -24q-31 -24 -104 -67q-27 -16 -42 -16q-50 0 -50 53q0 39 26 54z" />
    <glyph glyph-name="fraction" unicode="&#x2044;" horiz-adv-x="166" 
d="M-127 40l313 633q21 43 35.5 55t36.5 12q18 0 33 -14.5t15 -27.5q0 -14 -13 -40l-313 -633q-21 -43 -35.5 -55t-36.5 -12q-18 0 -33 14.5t-15 27.5q0 14 13 40z" />
    <glyph glyph-name="Euro" unicode="&#x20ac;" horiz-adv-x="668" 
d="M644 118q0 -38 -26 -65.5t-66.5 -40.5t-77.5 -19t-71 -6q-131 0 -209.5 67.5t-102.5 183.5h-15q-28 0 -44 8.5t-16 35.5q0 42 65 42v18q0 27 1 40h-8q-27 0 -42.5 8t-15.5 33q0 28 17 36.5t46 8.5h17q29 110 109 176.5t204 66.5q237 0 237 -124q0 -32 -19 -53t-51 -21
q-23 0 -62.5 18t-79.5 18q-81 0 -122 -81h154q14 0 23 -1t19 -5t14.5 -13t4.5 -24q0 -26 -16 -34.5t-45 -8.5h-179q-2 -11 -2 -32q0 -17 1 -26h137q20 0 31 -2t20.5 -11t9.5 -27q0 -28 -15.5 -37t-45.5 -9h-120q36 -97 133 -97q36 0 80.5 21t66.5 21q28 0 44.5 -18.5
t16.5 -46.5z" />
    <glyph glyph-name="afii61289" unicode="&#x2113;" horiz-adv-x="632" 
d="M535 218l73 -74q-90 -154 -267 -154q-173 0 -213 149q0 6 -1 8q-5 -3 -23.5 -15.5t-29.5 -18.5l-46 86q12 9 45.5 31t50.5 35v217q0 142 58.5 212.5t161.5 70.5q90 0 136.5 -53.5t46.5 -133.5q0 -88 -58 -168.5t-176 -176.5l1 -25q3 -37 28 -59t63 -22q82 0 150 91z
M293 516v-138q52 51 82 104.5t30 97.5q0 72 -51 72q-26 0 -43.5 -32t-17.5 -104z" />
    <glyph glyph-name="trademark" unicode="&#x2122;" horiz-adv-x="1000" 
d="M129 359v271h-63q-24 0 -36.5 12t-12.5 33t12.5 33t36.5 12h246q24 0 36.5 -12t12.5 -33t-12.5 -33t-36.5 -12h-63v-271q0 -27 -16 -43.5t-44 -16.5t-44 16.5t-16 43.5zM803 359v197h-2l-76 -204q-20 -53 -57 -53t-57 53l-76 204h-2v-197q0 -27 -16 -43.5t-44 -16.5
t-44 16.5t-16 43.5v277q0 39 22 64.5t61 25.5q76 0 107 -77l65 -167l65 167q31 77 107 77q39 0 61 -25.5t22 -64.5v-277q0 -27 -16 -43.5t-44 -16.5t-44 16.5t-16 43.5z" />
    <glyph glyph-name="Omega" unicode="&#x2126;" horiz-adv-x="853" 
d="M198 131v3q-59 41 -100.5 107t-41.5 153q0 131 103 223t269 92q167 0 267 -93.5t100 -219.5q0 -158 -146 -262v-3h160v-131h-338v100q145 87 145 263q0 91 -51.5 152.5t-136.5 61.5q-84 0 -138 -60.5t-54 -158.5q0 -91 40.5 -158.5t105.5 -99.5v-100h-341v131h157z" />
    <glyph glyph-name="estimated" unicode="&#x212e;" horiz-adv-x="873" 
d="M838 339h-651q-5 0 -5 -4v-197q0 -13 8 -23q104 -107 246 -107q155 0 260 120h57q-54 -65 -138 -102.5t-180 -37.5q-166 0 -283.5 105.5t-117.5 254.5q0 151 117.5 257t283.5 106q167 0 285 -106t118 -257v-9zM690 365v198q0 14 -9 23q-106 103 -245 103
q-141 0 -245 -106q-9 -9 -9 -25v-193q0 -7 5 -7h499q4 0 4 7z" />
    <glyph glyph-name="partialdiff" unicode="&#x2202;" horiz-adv-x="680" 
d="M113 608l-50 115q93 64 230 64q147 0 244 -106t97 -282q0 -184 -95.5 -296.5t-249.5 -112.5q-63 0 -113.5 23.5t-80.5 61t-45.5 78.5t-15.5 81q0 114 70.5 188t182.5 74q63 0 107.5 -28t65.5 -58h1q1 5 1 24q0 90 -52 154.5t-140 64.5q-86 0 -157 -45zM308 123h1
q52 0 89 50t46 111q-8 28 -39.5 56t-76.5 28q-52 0 -86 -40t-34 -97q0 -46 28.5 -77t71.5 -31z" />
    <glyph glyph-name="Delta" unicode="&#x2206;" horiz-adv-x="774" 
d="M25 0v87l257 625h214l252 -624v-88h-723zM214 132h333l-111 276q-4 13 -25.5 73t-29.5 85h-4q-4 -14 -12.5 -38.5t-19.5 -56.5t-17 -50z" />
    <glyph glyph-name="product" unicode="&#x220f;" horiz-adv-x="838" 
d="M815 552h-117v-648h-171v648h-217v-648h-172v648h-117v144h794v-144z" />
    <glyph glyph-name="summation" unicode="&#x2211;" horiz-adv-x="657" 
d="M639 -96h-616v96l263 297l-251 288v111h581v-140h-341v-4l209 -234l-231 -265v-4h386v-145z" />
    <glyph glyph-name="minus" unicode="&#x2212;" horiz-adv-x="600" 
d="M87 349h426q32 0 51 -17.5t19 -48.5t-19 -48.5t-51 -17.5h-426q-32 0 -51 17.5t-19 48.5t19 48.5t51 17.5z" />
    <glyph glyph-name="uni2215" unicode="&#x2215;" horiz-adv-x="166" 
d="M-127 40l313 633q21 43 35.5 55t36.5 12q18 0 33 -14.5t15 -27.5q0 -14 -13 -40l-313 -633q-21 -43 -35.5 -55t-36.5 -12q-18 0 -33 14.5t-15 27.5q0 14 13 40z" />
    <glyph glyph-name="uni2219" unicode="&#x2219;" horiz-adv-x="334" 
d="M80 289q0 36 25.5 61.5t61.5 25.5t61.5 -25.5t25.5 -61.5t-25.5 -61.5t-61.5 -25.5t-61.5 25.5t-25.5 61.5z" />
    <glyph glyph-name="radical" unicode="&#x221a;" horiz-adv-x="694" 
d="M719 834l-269 -980h-135l-175 429l-82 -34l-28 85l211 86l117 -313q13 -44 26 -87h2q17 80 20 93l190 721h123z" />
    <glyph glyph-name="infinity" unicode="&#x221e;" horiz-adv-x="832" 
d="M783 289v-1q0 -87 -53 -139t-124 -52q-106 0 -191 117q-46 -58 -90.5 -87.5t-103.5 -29.5q-70 0 -121.5 52t-51.5 133q0 83 52.5 135.5t130.5 52.5q105 0 191 -113q1 1 13.5 15t16 17.5t15.5 16.5t18.5 17.5t19.5 14.5t23 14t24 9t28.5 7t30.5 2q73 -1 122.5 -51
t49.5 -130zM231 184h2q26 0 53 16t43 32.5t39 45.5q-22 31 -31 42.5t-28 31t-37.5 26.5t-42.5 7q-40 0 -66 -28t-26 -75q0 -40 27.5 -69t66.5 -29zM602 385h-1q-9 0 -17.5 -2t-16 -4.5t-16 -8t-14 -9t-14 -11.5t-13 -12t-12.5 -13.5t-11 -13t-11.5 -13.5t-9.5 -12
q45 -59 75 -80.5t66 -21.5q39 0 62.5 31t23.5 66q0 46 -25 75t-66 29z" />
    <glyph glyph-name="integral" unicode="&#x222b;" horiz-adv-x="439" 
d="M427 855l-16 -106q-24 8 -42 8q-40 0 -58 -29q-26 -33 -26 -160q0 -80 9 -225.5t9 -239.5q0 -127 -38 -196q-47 -86 -157 -86q-62 0 -96 17l20 110q24 -10 50 -10q33 0 51 21q29 36 29 145q0 96 -9 246t-9 235q0 88 17 142t54 91q48 49 140 49q44 0 72 -12z" />
    <glyph glyph-name="approxequal" unicode="&#x2248;" horiz-adv-x="620" 
d="M522 475l59 -60q-70 -109 -159 -109q-34 0 -60 9.5t-66 32.5q-56 33 -93 33q-33 0 -57.5 -19t-53.5 -55l-58 60q27 46 74.5 77t98.5 31q55 0 115 -36q27 -16 38 -22t26.5 -11t31.5 -5q51 0 104 74zM522 268l59 -60q-70 -108 -161 -108q-50 0 -124 41q-57 34 -93 34
q-23 0 -44.5 -12t-33.5 -24.5t-33 -37.5l-58 60q27 46 74.5 77t98.5 31q49 0 115 -35q4 -3 17.5 -11t19.5 -11t17 -8t20.5 -7t20.5 -2q30 0 53 17.5t52 55.5z" />
    <glyph glyph-name="notequal" unicode="&#x2260;" horiz-adv-x="620" 
d="M462 528l-38 -86h144v-93h-183l-60 -132h243v-93h-283l-55 -122l-75 34l40 88h-143v93h183l59 132h-242v93h281l54 119z" />
    <glyph glyph-name="lessequal" unicode="&#x2264;" horiz-adv-x="620" 
d="M566 118l-511 229v100l510 228v-104l-411 -173v-2l412 -174v-104zM568 -14h-516v95h516v-95z" />
    <glyph glyph-name="greaterequal" unicode="&#x2265;" horiz-adv-x="620" 
d="M56 675l511 -229v-100l-510 -228v104l411 174v2l-412 173v104zM564 -14h-511v95h511v-95z" />
    <glyph glyph-name="lozenge" unicode="&#x25ca;" horiz-adv-x="694" 
d="M643 347l-232 -397h-133l-227 397l230 398h133zM493 344l-126 229q-18 38 -20 49h-3q-6 -18 -20 -49l-124 -223l127 -232q13 -28 18 -46h4q10 30 19 45z" />
    </font>
</defs>
</svg>
