<?xml version="1.0" standalone="no"?>
<!DOCTYPE svg PUBLIC "-//W3C//DTD SVG 1.1//EN" "http://www.w3.org/Graphics/SVG/1.1/DTD/svg11.dtd" >
<svg xmlns="http://www.w3.org/2000/svg" xmlns:xlink="http://www.w3.org/1999/xlink" version="1.1">
<metadata>
Created by FontForge 20170731 at Wed Jun  5 20:55:15 2002
 By Aleksey,,,
Copyright (c) 1990, 2002 Adobe Systems Incorporated.  All Rights Reserved. (c) 1981, 2002 Heidelberger Druckmaschinen AG. All rights reserved.
</metadata>
<defs>
<font id="HelveticaNeueLTStd-UltLtEx" horiz-adv-x="648" >
  <font-face 
    font-family="HelveticaNeueLT Std UltLt Ext"
    font-weight="275"
    font-stretch="expanded"
    units-per-em="1000"
    panose-1="2 11 2 4 2 2 2 2 2 4"
    ascent="714"
    descent="-286"
    x-height="512"
    cap-height="714"
    bbox="-165 -220 1162 937"
    underline-thickness="50"
    underline-position="-200"
    unicode-range="U+0020-FB02"
  />
<missing-glyph horiz-adv-x="500" 
d="M0 0v700h500v-700h-500zM250 395l170 255h-340zM280 350l170 -255v510zM80 50h340l-170 255zM50 605v-510l170 255z" />
    <glyph glyph-name="fi" unicode="fi" horiz-adv-x="426" 
d="M351 0v512h20v-512h-20zM351 605v109h20v-109h-20zM123 0v492h-122v20h122v101q0 62 34.5 84.5t98.5 22.5q14 0 60 -2v-20q-19 2 -57 2q-68 0 -92 -22t-24 -76v-90h149v-20h-149v-492h-20z" />
    <glyph glyph-name="fl" unicode="fl" horiz-adv-x="426" 
d="M351 0v714h20v-714h-20zM123 0v492h-122v20h122v101q0 62 34.5 84.5t98.5 22.5q14 0 60 -2v-20q-19 2 -57 2q-68 0 -92 -22t-24 -76v-90h149v-20h-149v-492h-20z" />
    <glyph glyph-name=".notdef" horiz-adv-x="500" 
d="M0 0v700h500v-700h-500zM250 395l170 255h-340zM280 350l170 -255v510zM80 50h340l-170 255zM50 605v-510l170 255z" />
    <glyph glyph-name=".null" horiz-adv-x="0" 
 />
    <glyph glyph-name="nonmarkingreturn" horiz-adv-x="333" 
 />
    <glyph glyph-name="space" unicode=" " horiz-adv-x="324" 
 />
    <glyph glyph-name="exclam" unicode="!" horiz-adv-x="222" 
d="M101 182v532h20v-532h-20zM101 0v96h20v-96h-20z" />
    <glyph glyph-name="quotedbl" unicode="&#x22;" horiz-adv-x="296" 
d="M77 498v216h20v-216h-20zM199 498v216h20v-216h-20z" />
    <glyph glyph-name="numbersign" unicode="#" 
d="M167 0l33 237h-124v20h127l26 190h-124v20h127l33 237h20l-33 -237h176l33 237h20l-33 -237h124v-20h-127l-26 -190h124v-20h-127l-33 -237h-20l33 237h-176l-33 -237h-20zM249 447l-26 -190h176l26 190h-176z" />
    <glyph glyph-name="dollar" unicode="$" 
d="M346 349v-345q62 0 109 11.5t75 28.5t45 41.5t23 47t6 48.5q0 61 -40 95.5t-123 52.5zM326 373v327h-9q-249 0 -249 -162q0 -54 35.5 -89t122.5 -54zM326 -110v95q-79 1 -136.5 19t-88 42.5t-49 61t-23 64t-5.5 60.5h20q2 -122 75 -173.5t207 -53.5v348l-92 19
q-87 18 -136.5 54.5t-49.5 113.5q0 87 66.5 133.5t199.5 46.5h12v80h20v-81q67 -3 115.5 -19t74.5 -35.5t42 -51t20.5 -53t7.5 -53.5h-20q-4 41 -14 69.5t-34.5 57.5t-72.5 45.5t-119 19.5v-330l115 -25q163 -35 163 -162q0 -35 -11 -65.5t-38.5 -62.5t-86 -51t-142.5 -19
v-94h-20z" />
    <glyph glyph-name="percent" unicode="%" horiz-adv-x="889" 
d="M493 173q0 98 50 143.5t120 45.5t120 -45.5t50 -143.5t-50 -143.5t-120 -45.5t-120 45.5t-50 143.5zM513 173q0 -81 40.5 -125t109.5 -44t109.5 44t40.5 125t-40.5 125t-109.5 44t-109.5 -44t-40.5 -125zM56 531q0 98 50 143.5t120 45.5t120 -45.5t50 -143.5t-50 -143.5
t-120 -45.5t-120 45.5t-50 143.5zM76 531q0 -81 40.5 -125t109.5 -44t109.5 44t40.5 125t-40.5 125t-109.5 44t-109.5 -44t-40.5 -125zM197 -22l476 748h20l-476 -748h-20z" />
    <glyph glyph-name="ampersand" unicode="&#x26;" horiz-adv-x="704" 
d="M312 397l274 -263q42 57 49 140h20q-6 -86 -55 -154l125 -120h-29l-108 104q-105 -120 -272 -120q-112 0 -186.5 54.5t-74.5 147.5q0 65 31.5 108.5t104.5 74.5l85 36q-59 57 -84.5 96.5t-25.5 79.5q0 60 38.5 96.5t119.5 36.5q80 0 120.5 -37t40.5 -94t-37 -98.5
t-136 -87.5zM465 584q0 50 -37.5 80t-104.5 30q-70 0 -103.5 -31.5t-33.5 -80.5q0 -34 21 -67.5t89 -102.5q92 40 130.5 79t38.5 93zM574 118l-283 272l-83 -35q-69 -29 -101 -68.5t-32 -100.5q0 -77 64.5 -129.5t178.5 -52.5q154 0 256 114z" />
    <glyph glyph-name="quotesingle" unicode="'" horiz-adv-x="168" 
d="M74 498v216h20v-216h-20z" />
    <glyph glyph-name="parenleft" unicode="(" horiz-adv-x="260" 
d="M233 -190h-26q-65 94 -102.5 212.5t-37.5 239.5t37.5 239.5t102.5 212.5h26q-146 -208 -146 -452t146 -452z" />
    <glyph glyph-name="parenright" unicode=")" horiz-adv-x="260" 
d="M53 -190h-26q146 208 146 452t-146 452h26q65 -94 102.5 -212.5t37.5 -239.5t-37.5 -239.5t-102.5 -212.5z" />
    <glyph glyph-name="asterisk" unicode="*" horiz-adv-x="370" 
d="M175 566v148h20v-148l141 46l6 -19l-141 -46l87 -120l-16 -12l-87 120l-87 -120l-16 12l87 120l-141 46l6 19z" />
    <glyph glyph-name="plus" unicode="+" horiz-adv-x="600" 
d="M290 0v243h-243v20h243v243h20v-243h243v-20h-243v-243h-20z" />
    <glyph glyph-name="comma" unicode="," horiz-adv-x="168" 
d="M74 -6v102h20v-95q0 -46 -9.5 -75t-38.5 -46v26q28 18 28 88z" />
    <glyph glyph-name="hyphen" unicode="-" horiz-adv-x="370" 
d="M292 256h-214v20h214v-20z" />
    <glyph glyph-name="period" unicode="." horiz-adv-x="168" 
d="M74 0v96h20v-96h-20z" />
    <glyph glyph-name="slash" unicode="/" horiz-adv-x="407" 
d="M-15 -16l417 746h20l-417 -746h-20z" />
    <glyph glyph-name="zero" unicode="0" 
d="M25 352q0 77 16 141.5t50.5 116.5t93.5 81t139 29t139 -29t93.5 -81t50.5 -116.5t16 -141.5t-16 -141.5t-50.5 -116.5t-93.5 -81t-139 -29t-139 29t-93.5 81t-50.5 116.5t-16 141.5zM45 352q0 -157 68 -252.5t211 -95.5t211 95.5t68 252.5t-68 252.5t-211 95.5
t-211 -95.5t-68 -252.5z" />
    <glyph glyph-name="one" unicode="1" horiz-adv-x="426" 
d="M262 0v678q-43 -48 -105 -81t-123 -46v20q137 34 222 133h26v-704h-20z" />
    <glyph glyph-name="two" unicode="2" 
d="M586 0h-524q1 75 40.5 120.5t142.5 105.5l159 92q141 81 141 198q0 92 -59.5 138t-166.5 46q-114 0 -168 -57t-54 -173h-20q0 23 0.5 38.5t5.5 44t14 48.5t27.5 44t44.5 39t66.5 25.5t91.5 10.5q57 0 100.5 -14.5t69 -35.5t41.5 -49t21.5 -52t5.5 -47q0 -132 -148 -220
l-175 -101q-84 -48 -118.5 -86.5t-41.5 -94.5h504v-20z" />
    <glyph glyph-name="three" unicode="3" 
d="M294 386h42q113 0 168.5 40.5t55.5 108.5q0 83 -58.5 124t-162.5 41q-129 0 -185 -52t-62 -165h-20q6 117 66 177t201 60q121 0 181 -49.5t60 -135.5q0 -59 -39.5 -104t-126.5 -54v-2q182 -20 182 -188q0 -33 -12 -65t-40.5 -65t-85 -53t-135.5 -20q-134 0 -202.5 62
t-68.5 170q0 3 0.5 10.5t0.5 11.5h20q-1 -7 -1 -22q0 -109 67.5 -160.5t185.5 -51.5q70 0 121.5 17.5t78 46t39 58t12.5 61.5q0 179 -238 179h-44v20z" />
    <glyph glyph-name="four" unicode="4" 
d="M440 0v186h-396v27l390 491h26v-498h144v-20h-144v-186h-20zM438 678l-374 -472h376v472h-2z" />
    <glyph glyph-name="five" unicode="5" 
d="M159 704h401v-20h-383l-72 -299l2 -2q31 40 91 66.5t126 26.5q49 0 92.5 -11.5t85 -38t66.5 -78.5t25 -125q0 -104 -70 -171.5t-199 -67.5q-39 0 -75 7t-72 24t-62.5 43.5t-43 69.5t-16.5 97h20q0 -56 19 -98.5t45.5 -65t63 -36t64.5 -17.5t57 -4q119 0 184 60.5
t65 158.5q0 107 -62.5 170t-186.5 63q-75 0 -136 -33t-86 -78h-26z" />
    <glyph glyph-name="six" unicode="6" 
d="M581 532h-20q-12 85 -74.5 126.5t-148.5 41.5q-143 0 -205 -87t-62 -267q0 -15 0.5 -33t0.5 -26h2q21 91 92.5 137t165.5 46q121 0 193 -67.5t72 -175.5t-72 -175.5t-193 -67.5q-69 0 -120 19t-81.5 50.5t-48.5 79.5t-24.5 98t-6.5 115q0 192 68.5 283t219.5 91
q94 0 162.5 -47.5t79.5 -140.5zM577 227q0 102 -68 162.5t-177 60.5q-113 0 -179 -62.5t-66 -160.5q0 -107 64.5 -165t180.5 -58q109 0 177 60.5t68 162.5z" />
    <glyph glyph-name="seven" unicode="7" horiz-adv-x="593" 
d="M45 684v20h498v-26q-330 -290 -348 -678h-20q20 395 348 684h-478z" />
    <glyph glyph-name="eight" unicode="8" 
d="M42 186q0 182 201 202v2q-59 4 -98 31t-52.5 58t-13.5 65q0 87 63 131.5t182 44.5t182 -44.5t63 -131.5q0 -34 -13.5 -65t-52.5 -58t-98 -31v-2q201 -20 201 -202q0 -90 -66.5 -146t-215.5 -56t-215.5 56t-66.5 146zM99 547q0 -72 57.5 -110t167.5 -38t167.5 38t57.5 110
q0 73 -57 113t-168 40t-168 -40t-57 -113zM62 186q0 -182 262 -182t262 182q0 193 -262 193t-262 -193z" />
    <glyph glyph-name="nine" unicode="9" 
d="M67 172h20q12 -85 74.5 -126.5t148.5 -41.5q143 0 205 87t62 267q0 15 -0.5 33t-0.5 26h-2q-21 -91 -92.5 -137t-165.5 -46q-121 0 -193 67.5t-72 175.5t72 175.5t193 67.5q69 0 120 -19t81.5 -50.5t48.5 -79.5t24.5 -98t6.5 -115q0 -192 -68.5 -283t-219.5 -91
q-94 0 -162.5 47.5t-79.5 140.5zM71 477q0 -102 68 -162.5t177 -60.5q113 0 179 62.5t66 160.5q0 107 -64.5 165t-180.5 58q-109 0 -177 -60.5t-68 -162.5z" />
    <glyph glyph-name="colon" unicode=":" horiz-adv-x="168" 
d="M74 394v96h20v-96h-20zM74 0v96h20v-96h-20z" />
    <glyph glyph-name="semicolon" unicode=";" horiz-adv-x="168" 
d="M74 -6v102h20v-95q0 -46 -9.5 -75t-38.5 -46v26q28 18 28 88zM74 394v96h20v-96h-20z" />
    <glyph glyph-name="less" unicode="&#x3c;" horiz-adv-x="600" 
d="M47 238v30l506 248v-26l-486 -237l486 -237v-26z" />
    <glyph glyph-name="equal" unicode="=" horiz-adv-x="600" 
d="M553 340h-506v20h506v-20zM553 146h-506v20h506v-20z" />
    <glyph glyph-name="greater" unicode="&#x3e;" horiz-adv-x="600" 
d="M47 -10v26l486 237l-486 237v26l506 -248v-30z" />
    <glyph glyph-name="question" unicode="?" horiz-adv-x="611" 
d="M290 183v28q0 65 12 89.5t68 59.5l70 45q53 34 71.5 66.5t18.5 80.5q0 158 -229 158q-60 0 -104 -12.5t-68.5 -31t-39 -49t-19 -58t-5.5 -66.5h-20q1 40 5 68t19.5 62.5t41.5 55.5t74.5 36t115.5 15q249 0 249 -177q0 -57 -21 -91.5t-72 -68.5l-86 -57q-40 -27 -50.5 -46
t-10.5 -65v-42h-20zM290 0v96h20v-96h-20z" />
    <glyph glyph-name="at" unicode="@" horiz-adv-x="800" 
d="M215 274q0 -54 33.5 -88t87.5 -34q43 0 81.5 37.5t62 89t37.5 99.5t14 75q0 54 -30 80.5t-72 26.5q-92 0 -153 -87.5t-61 -198.5zM547 493l20 67h20l-92 -323q-8 -29 -8 -50q0 -15 11 -25t29 -10q78 0 142.5 84.5t64.5 180.5q0 92 -48 160.5t-118 100.5t-149 32
q-146 0 -249.5 -103.5t-103.5 -249.5t103.5 -249.5t249.5 -103.5q96 0 172 45t124 119h23q-46 -85 -133.5 -134.5t-185.5 -49.5q-155 0 -264 109t-109 264t109 264t264 109q139 0 237 -88t98 -222q0 -110 -71 -199t-157 -89q-25 0 -42 15.5t-17 40.5q0 21 10 48h-2
q-55 -104 -148 -104q-58 0 -95 42t-37 100q0 74 27 143t82 116t125 47q43 0 75.5 -23.5t40.5 -63.5h2z" />
    <glyph glyph-name="A" unicode="A" 
d="M-17 0l328 714h26l328 -714h-26l-107 236h-416l-107 -236h-26zM324 694l-199 -438h398z" />
    <glyph glyph-name="B" unicode="B" horiz-adv-x="685" 
d="M55 0v714h388q87 0 139.5 -46t52.5 -131q0 -64 -48 -113.5t-110 -48.5v-2q77 -3 128.5 -47t51.5 -132q0 -34 -12 -66t-37.5 -62t-74.5 -48t-116 -18h-362zM75 694v-312h350q86 0 138 46.5t52 108.5q0 76 -47 116.5t-129 40.5h-364zM75 362v-342h342q63 0 108.5 17
t68.5 44.5t33 55.5t10 57q0 168 -220 168h-342z" />
    <glyph glyph-name="C" unicode="C" horiz-adv-x="796" 
d="M736 271h20q-10 -91 -65.5 -158t-131.5 -98t-161 -31q-159 0 -264.5 100.5t-105.5 272.5t105.5 272.5t264.5 100.5q132 0 222.5 -56t118.5 -168h-20q-22 90 -102.5 147t-218.5 57q-147 0 -248.5 -94t-101.5 -259t101.5 -259t248.5 -94q139 0 234 79t104 188z" />
    <glyph glyph-name="D" unicode="D" horiz-adv-x="741" 
d="M75 694v-674h328q74 0 129.5 28t87 76.5t46.5 106.5t15 126t-15 126t-46.5 106.5t-87 76.5t-129.5 28h-328zM55 0v714h348q144 0 221 -96.5t77 -260.5t-77 -260.5t-221 -96.5h-348z" />
    <glyph glyph-name="E" unicode="E" horiz-adv-x="630" 
d="M55 0v714h556v-20h-536v-312h513v-20h-513v-342h542v-20h-562z" />
    <glyph glyph-name="F" unicode="F" horiz-adv-x="556" 
d="M55 0v714h501v-20h-481v-312h452v-20h-452v-362h-20z" />
    <glyph glyph-name="G" unicode="G" horiz-adv-x="815" 
d="M424 315v20h336v-335h-20v191h-2q-25 -71 -78 -118.5t-118.5 -68t-143.5 -20.5q-159 0 -264.5 100.5t-105.5 272.5t105.5 272.5t264.5 100.5q299 0 344 -240h-20q-27 105 -100 162.5t-224 57.5q-147 0 -248.5 -94t-101.5 -259t102 -259t253 -94q68 0 127.5 18.5t107 55.5
t75 98t27.5 139h-316z" />
    <glyph glyph-name="H" unicode="H" horiz-adv-x="722" 
d="M55 0v714h20v-332h572v332h20v-714h-20v362h-572v-362h-20z" />
    <glyph glyph-name="I" unicode="I" horiz-adv-x="130" 
d="M55 0v714h20v-714h-20z" />
    <glyph glyph-name="J" unicode="J" horiz-adv-x="519" 
d="M444 714h20v-536q0 -35 -11 -67t-35 -61.5t-69.5 -47.5t-106.5 -18q-220 0 -220 238h20q0 -218 198 -218q59 0 101.5 17t63.5 45t30 55.5t9 56.5v536z" />
    <glyph glyph-name="K" unicode="K" horiz-adv-x="685" 
d="M55 0v714h20v-435l567 435h35l-390 -298l421 -416h-31l-407 402l-195 -149v-253h-20z" />
    <glyph glyph-name="L" unicode="L" horiz-adv-x="537" 
d="M55 0v714h20v-694h481v-20h-501z" />
    <glyph glyph-name="M" unicode="M" horiz-adv-x="926" 
d="M55 0v714h33l375 -694h2l373 694h33v-714h-20v688h-2l-373 -688h-26l-373 688h-2v-688h-20z" />
    <glyph glyph-name="N" unicode="N" horiz-adv-x="722" 
d="M55 0v714h26l564 -688h2v688h20v-714h-26l-564 688h-2v-688h-20z" />
    <glyph glyph-name="O" unicode="O" horiz-adv-x="796" 
d="M28 357q0 172 105.5 272.5t264.5 100.5t264.5 -100.5t105.5 -272.5t-105.5 -272.5t-264.5 -100.5t-264.5 100.5t-105.5 272.5zM48 357q0 -165 101.5 -259t248.5 -94t248.5 94t101.5 259t-101.5 259t-248.5 94t-248.5 -94t-101.5 -259z" />
    <glyph glyph-name="P" unicode="P" 
d="M55 0v714h382q198 0 198 -195q0 -83 -52 -138.5t-174 -55.5h-334v-325h-20zM75 694v-349h339q99 0 150 45.5t51 128.5q0 175 -172 175h-368z" />
    <glyph glyph-name="Q" unicode="Q" horiz-adv-x="796" 
d="M759 -43l-140 92q-94 -65 -221 -65q-159 0 -264.5 100.5t-105.5 272.5t105.5 272.5t264.5 100.5t264.5 -100.5t105.5 -272.5q0 -190 -130 -294l133 -88zM600 62l-134 88l12 18l141 -93q129 97 129 282q0 165 -101.5 259t-248.5 94t-248.5 -94t-101.5 -259t101.5 -259
t248.5 -94q113 0 202 58z" />
    <glyph glyph-name="R" unicode="R" horiz-adv-x="685" 
d="M55 0v714h393q105 0 151 -48.5t46 -146.5q0 -61 -42.5 -113t-127.5 -57l-1 -2q158 -1 158 -150q0 -164 16 -197h-20q-16 32 -16 178q0 45 -7.5 72t-29 48t-62.5 29.5t-108 8.5h-330v-336h-20zM75 694v-338h340q102 0 156 47.5t54 115.5q0 99 -45.5 137t-133.5 38h-371z
" />
    <glyph glyph-name="S" unicode="S" horiz-adv-x="667" 
d="M616 514h-20q-7 96 -69 146t-200 50q-249 0 -249 -165q0 -55 33.5 -90t119.5 -54l240 -52q83 -18 123 -58t40 -106q0 -35 -10.5 -66t-38 -63.5t-88 -52t-147.5 -19.5q-81 0 -141 17t-92.5 41.5t-52 61t-25 66t-6.5 65.5h20q1 -66 23 -112t64 -71.5t94 -36.5t120 -11
q76 0 129.5 16t80.5 44t38.5 57t11.5 62q0 59 -36.5 95t-117.5 53l-226 48q-91 19 -133.5 57.5t-42.5 110.5q0 183 264 183q85 0 144.5 -17.5t90 -50t43.5 -67.5t16 -81z" />
    <glyph glyph-name="T" unicode="T" horiz-adv-x="574" 
d="M277 0v694h-298v20h616v-20h-298v-694h-20z" />
    <glyph glyph-name="U" unicode="U" horiz-adv-x="722" 
d="M50 261v453h20v-455q0 -255 291 -255t291 255v455h20v-453q0 -277 -311 -277t-311 277z" />
    <glyph glyph-name="V" unicode="V" horiz-adv-x="630" 
d="M302 0l-318 714h26l305 -688l305 688h26l-318 -714h-26z" />
    <glyph glyph-name="W" unicode="W" horiz-adv-x="982" 
d="M219 0l-238 714h20l230 -688h2l243 688h30l243 -688h2l230 688h20l-238 -714h-26l-245 694h-2l-245 -694h-26z" />
    <glyph glyph-name="X" unicode="X" horiz-adv-x="612" 
d="M-18 0l309 365l-298 349h26l287 -336l287 336h26l-298 -349l309 -365h-26l-298 352l-298 -352h-26z" />
    <glyph glyph-name="Y" unicode="Y" horiz-adv-x="630" 
d="M305 0v301l-337 413h29l318 -391l318 391h29l-337 -413v-301h-20z" />
    <glyph glyph-name="Z" unicode="Z" horiz-adv-x="574" 
d="M-19 0v29l575 665h-541v20h567v-24l-581 -670h592v-20h-612z" />
    <glyph glyph-name="bracketleft" unicode="[" horiz-adv-x="260" 
d="M70 -190v904h136v-20h-116v-864h116v-20h-136z" />
    <glyph glyph-name="backslash" unicode="\" horiz-adv-x="407" 
d="M402 -16l-417 746h20l417 -746h-20z" />
    <glyph glyph-name="bracketright" unicode="]" horiz-adv-x="260" 
d="M170 -170v864h-116v20h136v-904h-136v20h116z" />
    <glyph glyph-name="asciicircum" unicode="^" horiz-adv-x="600" 
d="M61 251l229 453h20l229 -453h-20l-219 433l-219 -433h-20z" />
    <glyph glyph-name="underscore" unicode="_" horiz-adv-x="500" 
d="M0 -125v50h500v-50h-500z" />
    <glyph glyph-name="grave" unicode="`" horiz-adv-x="130" 
d="M102 589l-168 139h32l164 -139h-28z" />
    <glyph glyph-name="a" unicode="a" horiz-adv-x="564" 
d="M586 27v-20q-18 -7 -47 -7q-54 0 -54 51v61h-2q-62 -128 -256 -128q-94 0 -148.5 40t-54.5 115q0 66 43 103.5t124 40.5l169 6q81 3 103 16.5t22 60.5v28q0 61 -52.5 87.5t-159.5 26.5q-109 0 -154.5 -34t-51.5 -117h-20q5 97 62 134t164 37q121 0 176.5 -32.5
t55.5 -100.5v-332q0 -24 7 -33.5t27 -9.5q23 0 47 7zM485 205v95h-2q-15 -26 -134 -31l-156 -6q-149 -6 -149 -125q0 -66 51 -100t133 -34q125 0 191 57t66 144z" />
    <glyph glyph-name="b" unicode="b" horiz-adv-x="612" 
d="M75 256q0 -107 61.5 -179.5t184.5 -72.5t185 72.5t62 179.5t-62 179.5t-185 72.5t-184.5 -72.5t-61.5 -179.5zM55 0v714h20v-341h2q30 81 95 118t149 37q131 0 199 -77.5t68 -194.5t-68 -194.5t-199 -77.5q-89 0 -152.5 39.5t-91.5 114.5h-2v-138h-20z" />
    <glyph glyph-name="c" unicode="c" 
d="M580 174h20q-22 -89 -90 -139.5t-180 -50.5q-128 0 -205 76.5t-77 195.5t77 195.5t205 76.5q112 0 181.5 -46.5t84.5 -129.5h-20q-36 156 -246 156q-124 0 -193 -72.5t-69 -179.5t69 -179.5t193 -72.5q99 0 163.5 43.5t86.5 126.5z" />
    <glyph glyph-name="d" unicode="d" horiz-adv-x="612" 
d="M44 256q0 -107 62 -179.5t185 -72.5t184.5 72.5t61.5 179.5t-61.5 179.5t-184.5 72.5t-185 -72.5t-62 -179.5zM537 0v138h-2q-28 -75 -91.5 -114.5t-152.5 -39.5q-131 0 -199 77.5t-68 194.5t68 194.5t199 77.5q84 0 149 -37t95 -118h2v341h20v-714h-20z" />
    <glyph glyph-name="e" unicode="e" horiz-adv-x="593" 
d="M579 256h-535q0 -107 69 -179.5t193 -72.5q197 0 245 174h20q-7 -32 -22 -61.5t-43.5 -61.5t-80 -51.5t-119.5 -19.5q-128 0 -205 76.5t-77 195.5t77 195.5t205 76.5q116 0 194.5 -73.5t78.5 -198.5zM44 276h515q-6 97 -73.5 164.5t-179.5 67.5q-118 0 -186.5 -66
t-75.5 -166z" />
    <glyph glyph-name="f" unicode="f" horiz-adv-x="278" 
d="M123 0v492h-122v20h122v101q0 62 34.5 84.5t98.5 22.5q14 0 60 -2v-20q-19 2 -57 2q-68 0 -92 -22t-24 -76v-90h149v-20h-149v-492h-20z" />
    <glyph glyph-name="g" unicode="g" horiz-adv-x="630" 
d="M49 269q0 -115 67.5 -177t185.5 -62q120 0 186.5 63t66.5 176q0 117 -67 178t-186 61q-118 0 -185.5 -62t-67.5 -177zM555 382v130h20v-496q0 -120 -68.5 -178t-194.5 -58q-48 0 -86 6t-78.5 22.5t-65.5 53t-31 90.5h20q4 -27 11.5 -47t24.5 -41t41.5 -34t65.5 -21.5
t95 -8.5q246 0 246 217v137h-2q-64 -144 -251 -144q-126 0 -199.5 68.5t-73.5 190.5t73.5 190.5t199.5 68.5q99 0 162.5 -38.5t88.5 -107.5h2z" />
    <glyph glyph-name="h" unicode="h" horiz-adv-x="593" 
d="M55 0v714h20v-317h2q58 131 231 131q70 0 118 -17.5t71 -49.5t32 -65t9 -74v-322h-20v322q0 37 -7.5 66t-28 58.5t-64.5 45.5t-110 16q-61 0 -106 -17t-68.5 -41t-37.5 -57t-17.5 -57t-3.5 -49v-287h-20z" />
    <glyph glyph-name="i" unicode="i" horiz-adv-x="130" 
d="M55 0v512h20v-512h-20zM55 605v109h20v-109h-20z" />
    <glyph glyph-name="j" unicode="j" horiz-adv-x="130" 
d="M55 -74v586h20v-603q0 -57 -29 -84t-93 -27q-11 0 -31.5 1.5t-29.5 1.5v20q30 -3 67 -3q56 0 76 25t20 83zM55 605v109h20v-109h-20z" />
    <glyph glyph-name="k" unicode="k" horiz-adv-x="537" 
d="M55 0v714h20v-500l408 298h35l-268 -196l288 -316h-26l-278 305l-159 -117v-188h-20z" />
    <glyph glyph-name="l" unicode="l" horiz-adv-x="130" 
d="M55 0v714h20v-714h-20z" />
    <glyph glyph-name="m" unicode="m" horiz-adv-x="944" 
d="M55 0v512h20v-98h2q51 114 208 114q68 0 118.5 -29.5t67.5 -90.5h2q26 61 75.5 90.5t110.5 29.5q70 0 118 -17.5t71 -49.5t32 -65t9 -74v-322h-20v322q0 37 -7.5 66t-28 58.5t-64.5 45.5t-110 16q-75 0 -126 -46.5t-51 -131.5v-330h-20v330q0 92 -48.5 135t-128.5 43
q-99 0 -154.5 -50t-55.5 -142v-316h-20z" />
    <glyph glyph-name="n" unicode="n" horiz-adv-x="593" 
d="M55 0v512h20v-115h2q58 131 231 131q70 0 118 -17.5t71 -49.5t32 -65t9 -74v-322h-20v322q0 37 -7.5 66t-28 58.5t-64.5 45.5t-110 16q-61 0 -106 -17t-68.5 -41t-37.5 -57t-17.5 -57t-3.5 -49v-287h-20z" />
    <glyph glyph-name="o" unicode="o" horiz-adv-x="612" 
d="M24 256q0 119 77 195.5t205 76.5t205 -76.5t77 -195.5t-77 -195.5t-205 -76.5t-205 76.5t-77 195.5zM44 256q0 -107 69 -179.5t193 -72.5t193 72.5t69 179.5t-69 179.5t-193 72.5t-193 -72.5t-69 -179.5z" />
    <glyph glyph-name="p" unicode="p" horiz-adv-x="612" 
d="M75 256q0 -107 61.5 -179.5t184.5 -72.5t185 72.5t62 179.5t-62 179.5t-185 72.5t-184.5 -72.5t-61.5 -179.5zM55 -202v714h20v-138h2q28 75 91.5 114.5t152.5 39.5q131 0 199 -77.5t68 -194.5t-68 -194.5t-199 -77.5q-84 0 -149 37t-95 118h-2v-341h-20z" />
    <glyph glyph-name="q" unicode="q" horiz-adv-x="612" 
d="M44 256q0 -107 62 -179.5t185 -72.5t184.5 72.5t61.5 179.5t-61.5 179.5t-184.5 72.5t-185 -72.5t-62 -179.5zM537 -202v341h-2q-30 -81 -95 -118t-149 -37q-131 0 -199 77.5t-68 194.5t68 194.5t199 77.5q89 0 152.5 -39.5t91.5 -114.5h2v138h20v-714h-20z" />
    <glyph glyph-name="r" unicode="r" horiz-adv-x="315" 
d="M55 0v512h20v-138h2q22 74 80 114t131 40q13 0 43 -3v-20q-23 3 -44 3q-92 0 -152 -67t-60 -188v-253h-20z" />
    <glyph glyph-name="s" unicode="s" horiz-adv-x="500" 
d="M11 160h20q6 -54 23 -85t67 -51t138 -20q210 0 210 126q0 57 -33 81t-115 34l-155 19q-137 16 -137 127q0 137 223 137q108 0 159.5 -36.5t55.5 -129.5h-20q-4 84 -51 115t-150 31q-197 0 -197 -117q0 -48 29 -73.5t92 -33.5l155 -19q92 -11 128 -41.5t36 -94.5
q0 -145 -230 -145q-61 0 -105.5 10t-70 24.5t-41.5 39.5t-22 47t-9 55z" />
    <glyph glyph-name="t" unicode="t" horiz-adv-x="296" 
d="M123 96v396h-122v20h122v176h20v-176h149v-20h-149v-397q0 -47 19 -64t72 -17q12 0 72 5v-20q-43 -5 -72 -5q-65 0 -88 23.5t-23 78.5z" />
    <glyph glyph-name="u" unicode="u" horiz-adv-x="593" 
d="M538 512v-512h-20v115l-2 -2q-57 -129 -231 -129q-70 0 -118 17.5t-71 49.5t-32 65t-9 74v322h20v-322q0 -37 7.5 -66t28 -58.5t64.5 -45.5t110 -16q60 0 105 17.5t68.5 41.5t38 56.5t18 55.5t3.5 45v292h20z" />
    <glyph glyph-name="v" unicode="v" horiz-adv-x="538" 
d="M259 0l-259 512h23l246 -492l246 492h23l-259 -512h-20z" />
    <glyph glyph-name="w" unicode="w" horiz-adv-x="852" 
d="M195 0l-208 512h26l197 -492l200 492h32l200 -492l197 492h26l-208 -512h-30l-201 492l-201 -492h-30z" />
    <glyph glyph-name="x" unicode="x" horiz-adv-x="520" 
d="M-9 0l253 267l-232 245h30l218 -230l218 230h30l-234 -245l255 -267h-29l-240 251l-240 -251h-29z" />
    <glyph glyph-name="y" unicode="y" horiz-adv-x="500" 
d="M250 1l-263 511h26l249 -487l225 487h26l-272 -580q-31 -65 -59 -85t-85 -20h-40v20h46q43 0 67 16t46 64z" />
    <glyph glyph-name="z" unicode="z" horiz-adv-x="481" 
d="M3 27l432 465h-405v20h431v-24l-438 -468h455v-20h-475v27z" />
    <glyph glyph-name="braceleft" unicode="{" horiz-adv-x="260" 
d="M236 -190h-54q-48 0 -65 28.5t-17 86.5v167q0 158 -70 160v20q70 2 70 160v167q0 58 17 86.5t65 28.5h54v-20h-54q-39 0 -50.5 -23t-11.5 -90v-156q0 -133 -70 -163q70 -30 70 -163v-156q0 -67 11.5 -90t50.5 -23h54v-20z" />
    <glyph glyph-name="bar" unicode="|" horiz-adv-x="222" 
d="M101 -16v746h20v-746h-20z" />
    <glyph glyph-name="braceright" unicode="}" horiz-adv-x="260" 
d="M24 714h54q48 0 65 -28.5t17 -86.5v-167q0 -158 70 -160v-20q-70 -2 -70 -160v-167q0 -58 -17 -86.5t-65 -28.5h-54v20h54q39 0 50.5 23t11.5 90v156q0 133 70 163q-70 30 -70 163v156q0 67 -11.5 90t-50.5 23h-54v20z" />
    <glyph glyph-name="asciitilde" unicode="~" horiz-adv-x="600" 
d="M93 205l-14 14q27 43 55.5 61t66.5 18q52 0 114 -34t99 -34q19 0 46 19t46 52l15 -15q-22 -36 -53 -56t-54 -20q-43 0 -104 34q-62 34 -109 34q-34 0 -57 -16t-51 -57z" />
    <glyph glyph-name="uni00A0" unicode="&#xa0;" horiz-adv-x="324" 
 />
    <glyph glyph-name="exclamdown" unicode="&#xa1;" horiz-adv-x="222" 
d="M101 -186v532h20v-532h-20zM101 432v96h20v-96h-20z" />
    <glyph glyph-name="cent" unicode="&#xa2;" 
d="M316 5v502q-117 -4 -182.5 -76t-65.5 -175t65.5 -175t182.5 -76zM316 -118v103q-123 4 -195.5 79.5t-72.5 191.5t72.5 191.5t195.5 79.5v103h20v-102q109 -1 177 -47.5t83 -128.5h-20q-36 153 -240 156v-504q96 2 159 45.5t85 124.5h20q-22 -87 -88 -138t-176 -52v-102
h-20z" />
    <glyph glyph-name="sterling" unicode="&#xa3;" 
d="M157 328h-91v20h81q-7 15 -24.5 45.5t-26.5 48.5t-17 46.5t-8 55.5q0 83 65.5 129.5t175.5 46.5q134 0 202 -53.5t68 -180.5v-14h-20q0 45 -6 78t-22.5 62.5t-44 48t-72 29t-105.5 10.5q-93 0 -157 -38.5t-64 -119.5q0 -32 10.5 -62t34 -72t31.5 -60h240v-20h-230
q24 -57 24 -105q0 -46 -29 -95.5t-101 -120.5h2q54 31 75 38t57 7t116 -24q82 -24 113 -24q74 0 153 90l14 -16q-48 -51 -85.5 -72.5t-81.5 -21.5q-34 0 -116 24q-80 24 -113 24q-37 0 -67 -10t-77 -38l-14 16q134 132 134 224q0 51 -24 104z" />
    <glyph glyph-name="currency" unicode="&#xa4;" 
d="M87 130l54 54q-66 69 -66 168q0 97 66 168l-54 54l15 15l54 -54q71 66 168 66q99 0 168 -66l54 54l15 -15l-54 -54q66 -71 66 -168t-66 -168l54 -54l-15 -15l-54 54q-69 -66 -168 -66q-97 0 -168 66l-54 -54zM95 352q0 -94 67.5 -161.5t161.5 -67.5t161.5 67.5
t67.5 161.5t-67.5 161.5t-161.5 67.5t-161.5 -67.5t-67.5 -161.5z" />
    <glyph glyph-name="yen" unicode="&#xa5;" 
d="M314 0v186h-224v20h224v95l-7 9h-217v20h201l-294 374h29l293 -374h11l292 374h29l-294 -374h201v-20h-217l-7 -9v-95h224v-20h-224v-186h-20z" />
    <glyph glyph-name="brokenbar" unicode="&#xa6;" horiz-adv-x="222" 
d="M101 -16v270h20v-270h-20zM101 460v270h20v-270h-20z" />
    <glyph glyph-name="section" unicode="&#xa7;" 
d="M110 37h20q0 -40 7 -67t26.5 -51.5t61 -36.5t105.5 -12q177 0 177 117q0 65 -84 106l-278 134q-93 44 -93 122q0 61 39 97.5t102 47.5v2q-74 32 -74 103q0 131 190 131q68 0 112 -13.5t64.5 -41t27.5 -55t8 -69.5h-20q-1 55 -15 87t-57 52t-121 20q-169 0 -169 -111
q0 -37 23.5 -59.5t104.5 -62.5l230 -113q60 -30 79.5 -58.5t19.5 -70.5q0 -53 -39 -92t-103 -42v-3q73 -39 73 -109q0 -139 -195 -139q-123 0 -172.5 44.5t-49.5 142.5zM451 366l-238 114q-50 -4 -95.5 -37t-45.5 -87q0 -46 28.5 -73t126.5 -74l196 -94q78 3 115.5 37.5
t37.5 86.5q0 41 -26 66t-99 61z" />
    <glyph glyph-name="dieresis" unicode="&#xa8;" horiz-adv-x="130" 
d="M178 595h-20v109h20v-109zM-28 595h-20v109h20v-109z" />
    <glyph glyph-name="copyright" unicode="&#xa9;" horiz-adv-x="800" 
d="M578 281h20q-10 -73 -60 -116.5t-128 -43.5q-102 0 -163.5 66t-61.5 171q0 108 59.5 171t163.5 63q77 0 128.5 -40.5t61.5 -113.5h-20q-11 66 -56 100t-113 34q-97 0 -150.5 -57.5t-53.5 -155.5q0 -97 55 -157.5t150 -60.5q69 0 113 37t55 103zM27 357q0 155 109.5 264
t263.5 109t263.5 -109t109.5 -264t-109.5 -264t-263.5 -109t-263.5 109t-109.5 264zM47 357q0 -146 103.5 -249.5t249.5 -103.5t249.5 103.5t103.5 249.5t-103.5 249.5t-249.5 103.5t-249.5 -103.5t-103.5 -249.5z" />
    <glyph glyph-name="ordfeminine" unicode="&#xaa;" horiz-adv-x="372" 
d="M319 636v-191q0 -20 3.5 -24.5t18.5 -4.5q13 0 31 4v-14q-16 -4 -32 -4q-17 0 -26 6.5t-9 26.5v33h-2q-38 -78 -159 -78q-64 0 -101.5 25.5t-37.5 75.5q0 39 29 60.5t78 23.5l96 4q63 2 80 11t17 34v13q0 71 -138 71q-69 0 -99 -21t-34 -71h-14q4 60 39.5 83t101.5 23
q87 0 122.5 -20t35.5 -66zM305 523v60h-2q-8 -16 -95 -18l-93 -4q-96 -4 -96 -76q0 -38 33.5 -59.5t85.5 -21.5q88 0 133 44q34 30 34 75z" />
    <glyph glyph-name="guillemotleft" unicode="&#xab;" horiz-adv-x="389" 
d="M72 275l118 138v-25l-104 -122l104 -122v-25l-118 138v18zM183 275l118 138v-25l-104 -122l104 -122v-25l-118 138v18z" />
    <glyph glyph-name="logicalnot" unicode="&#xac;" horiz-adv-x="600" 
d="M533 108v232h-486v20h506v-252h-20z" />
    <glyph glyph-name="uni00AD" unicode="&#xad;" horiz-adv-x="370" 
d="M292 256h-214v20h214v-20z" />
    <glyph glyph-name="registered" unicode="&#xae;" horiz-adv-x="800" 
d="M264 136v442h175q68 0 101.5 -32t33.5 -90q0 -99 -112 -116l132 -204h-26l-132 204h-152v-204h-20zM284 558v-198h149q121 0 121 97q0 56 -32 78.5t-78 22.5h-160zM27 357q0 155 109.5 264t263.5 109t263.5 -109t109.5 -264t-109.5 -264t-263.5 -109t-263.5 109
t-109.5 264zM47 357q0 -146 103.5 -249.5t249.5 -103.5t249.5 103.5t103.5 249.5t-103.5 249.5t-249.5 103.5t-249.5 -103.5t-103.5 -249.5z" />
    <glyph glyph-name="macron" unicode="&#xaf;" horiz-adv-x="130" 
d="M253 639h-376v20h376v-20z" />
    <glyph glyph-name="degree" unicode="&#xb0;" horiz-adv-x="400" 
d="M57 577q0 59 42 101t101 42t101 -42t42 -101t-42 -101t-101 -42t-101 42t-42 101zM77 577q0 -51 36 -87t87 -36t87 36t36 87t-36 87t-87 36t-87 -36t-36 -87z" />
    <glyph glyph-name="plusminus" unicode="&#xb1;" horiz-adv-x="600" 
d="M290 306v200h20v-200h243v-20h-243v-200h-20v200h-243v20h243zM47 0v20h506v-20h-506z" />
    <glyph glyph-name="twosuperior" unicode="&#xb2;" horiz-adv-x="421" 
d="M48 572h-14q0 21 1.5 34t10.5 38t24.5 39.5t49 26.5t79.5 12q45 0 77.5 -12.5t48 -32.5t22 -38.5t6.5 -36.5q0 -79 -96 -132l-119 -63q-50 -28 -72 -51.5t-27 -55.5h327v-14h-341q1 47 26.5 74.5t92.5 64.5l123 66q31 17 51.5 45.5t20.5 60.5q0 111 -147 111
q-144 0 -144 -136z" />
    <glyph glyph-name="threesuperior" unicode="&#xb3;" horiz-adv-x="421" 
d="M175 520h27q73 0 109.5 24t36.5 64q0 50 -38 75t-106 25q-83 0 -119 -31.5t-41 -98.5h-14q3 71 42.5 107.5t131.5 36.5q79 0 118.5 -30t39.5 -80q0 -38 -25.5 -65.5t-82.5 -32.5v-2q118 -12 118 -114q0 -48 -41.5 -86t-137.5 -38q-88 0 -132.5 37.5t-44.5 104.5v13h14v-9
q0 -132 164 -132q87 0 125.5 34.5t38.5 76.5q0 107 -154 107h-29v14z" />
    <glyph glyph-name="acute" unicode="&#xb4;" horiz-adv-x="130" 
d="M0 589l164 139h32l-168 -139h-28z" />
    <glyph glyph-name="mu" unicode="&#xb5;" horiz-adv-x="593" 
d="M538 512v-512h-20v115l-2 -2q-57 -129 -231 -129q-89 0 -140.5 28t-67.5 69v4h-2v-287h-20v714h20v-322q0 -37 7.5 -66t28 -58.5t64.5 -45.5t110 -16q60 0 105 17.5t68.5 41.5t38 56.5t18 55.5t3.5 45v292h20z" />
    <glyph glyph-name="paragraph" unicode="&#xb6;" horiz-adv-x="600" 
d="M273 -134v458q-82 0 -140.5 57.5t-58.5 136.5q0 95 57 145.5t158 50.5h199v-848h-20v828h-175v-828h-20zM273 344v350q-80 0 -129.5 -46t-49.5 -130q0 -71 53 -122.5t126 -51.5z" />
    <glyph glyph-name="periodcentered" unicode="&#xb7;" horiz-adv-x="168" 
d="M44 332q0 16 12 28t28 12t28 -12t12 -28t-12 -28t-28 -12t-28 12t-12 28z" />
    <glyph glyph-name="cedilla" unicode="&#xb8;" horiz-adv-x="278" 
d="M64 -76l68 75h26l-56 -59l2 -2q32 8 50 8q37 0 59.5 -16t22.5 -45q0 -75 -104 -75q-63 0 -116 21l8 19q48 -20 108 -20q84 0 84 54q0 42 -62 42q-48 0 -73 -14z" />
    <glyph glyph-name="onesuperior" unicode="&#xb9;" horiz-adv-x="388" 
d="M204 286v410q-55 -58 -148 -79v14q92 21 142 79h20v-424h-14z" />
    <glyph glyph-name="ordmasculine" unicode="&#xba;" horiz-adv-x="398" 
d="M16 556q0 73 50 119.5t133 46.5t133 -46.5t50 -119.5t-50 -119.5t-133 -46.5t-133 46.5t-50 119.5zM30 556q0 -65 45 -108.5t124 -43.5t124 43.5t45 108.5t-45 108.5t-124 43.5t-124 -43.5t-45 -108.5z" />
    <glyph glyph-name="guillemotright" unicode="&#xbb;" horiz-adv-x="389" 
d="M199 413l118 -138v-18l-118 -138v25l104 122l-104 122v25zM88 413l118 -138v-18l-118 -138v25l104 122l-104 122v25z" />
    <glyph glyph-name="onequarter" unicode="&#xbc;" horiz-adv-x="972" 
d="M808 0v112h-258v17l252 295h20v-298h94v-14h-94v-112h-14zM808 410l-244 -284h244v284zM204 286v410q-55 -58 -148 -79v14q92 21 142 79h20v-424h-14zM179 -24l478 752h20l-478 -752h-20z" />
    <glyph glyph-name="onehalf" unicode="&#xbd;" horiz-adv-x="972" 
d="M204 286v410q-55 -58 -148 -79v14q92 21 142 79h20v-424h-14zM916 0h-341q1 47 26.5 74.5t92.5 64.5l123 66q31 17 51.5 45.5t20.5 60.5q0 111 -147 111q-144 0 -144 -136h-14q0 21 1.5 34t10.5 38t24.5 39.5t49 26.5t79.5 12q45 0 77.5 -12.5t48 -32.5t22 -38.5
t6.5 -36.5q0 -79 -96 -132l-119 -63q-50 -28 -72 -51.5t-27 -55.5h327v-14zM179 -24l478 752h20l-478 -752h-20z" />
    <glyph glyph-name="threequarters" unicode="&#xbe;" horiz-adv-x="972" 
d="M808 0v112h-258v17l252 295h20v-298h94v-14h-94v-112h-14zM808 410l-244 -284h244v284zM215 520h27q73 0 109.5 24t36.5 64q0 50 -38 75t-106 25q-83 0 -119 -31.5t-41 -98.5h-14q3 71 42.5 107.5t131.5 36.5q79 0 118.5 -30t39.5 -80q0 -38 -25.5 -65.5t-82.5 -32.5v-2
q118 -12 118 -114q0 -48 -41.5 -86t-137.5 -38q-88 0 -132.5 37.5t-44.5 104.5v13h14v-9q0 -132 164 -132q87 0 125.5 34.5t38.5 76.5q0 107 -154 107h-29v14zM265 -24l478 752h20l-478 -752h-20z" />
    <glyph glyph-name="questiondown" unicode="&#xbf;" horiz-adv-x="611" 
d="M301 303v42h20v-28q0 -65 -12 -89.5t-68 -59.5l-70 -45q-53 -34 -71.5 -66.5t-18.5 -80.5q0 -158 229 -158q60 0 104 12.5t68.5 31t39 49t19 58t5.5 66.5h20q-1 -40 -5 -68t-19.5 -62.5t-41.5 -55.5t-74.5 -36t-115.5 -15q-249 0 -249 177q0 57 21 91.5t72 68.5l86 57
q40 27 50.5 46t10.5 65zM301 432v96h20v-96h-20z" />
    <glyph glyph-name="Agrave" unicode="&#xc0;" 
d="M-17 0l328 714h26l328 -714h-26l-107 236h-416l-107 -236h-26zM324 694l-199 -438h398zM361 766l-168 139h32l164 -139h-28z" />
    <glyph glyph-name="Aacute" unicode="&#xc1;" 
d="M-17 0l328 714h26l328 -714h-26l-107 236h-416l-107 -236h-26zM324 694l-199 -438h398zM259 766l164 139h32l-168 -139h-28z" />
    <glyph glyph-name="Acircumflex" unicode="&#xc2;" 
d="M-17 0l328 714h26l328 -714h-26l-107 236h-416l-107 -236h-26zM324 694l-199 -438h398zM143 766l165 139h32l165 -139h-32l-149 125l-149 -125h-32z" />
    <glyph glyph-name="Atilde" unicode="&#xc3;" 
d="M-17 0l328 714h26l328 -714h-26l-107 236h-416l-107 -236h-26zM324 694l-199 -438h398zM180 800h-20q13 81 90 81q21 0 43 -11l75 -39q22 -11 39 -11q21 0 38 14.5t23 46.5h20q-5 -39 -27.5 -60t-54.5 -21q-22 0 -45 12l-74 38q-21 11 -40 11q-23 0 -42 -15t-25 -46z" />
    <glyph glyph-name="Adieresis" unicode="&#xc4;" 
d="M-17 0l328 714h26l328 -714h-26l-107 236h-416l-107 -236h-26zM324 694l-199 -438h398zM437 772h-20v109h20v-109zM231 772h-20v109h20v-109z" />
    <glyph glyph-name="Aring" unicode="&#xc5;" 
d="M-17 0l328 714h26l328 -714h-26l-107 236h-416l-107 -236h-26zM324 694l-199 -438h398zM228 841q0 40 28 68t68 28t68 -28t28 -68t-28 -68t-68 -28t-68 28t-28 68zM248 841q0 -31 22 -53.5t54 -22.5t54 22.5t22 53.5t-22 53.5t-54 22.5t-54 -22.5t-22 -53.5z" />
    <glyph glyph-name="AE" unicode="&#xc6;" horiz-adv-x="1037" 
d="M-25 0l468 714h586v-20h-492v-312h453v-20h-453v-342h492v-20h-512v278h-335l-181 -278h-26zM453 694l-258 -396h322v396h-64z" />
    <glyph glyph-name="Ccedilla" unicode="&#xc7;" horiz-adv-x="796" 
d="M736 271h20q-15 -134 -118 -209.5t-235 -77.5l-42 -44l2 -2q32 8 50 8q37 0 59.5 -16t22.5 -45q0 -75 -104 -75q-63 0 -116 21l8 19q48 -20 108 -20q84 0 84 54q0 42 -62 42q-48 0 -73 -14l-17 12l55 61q-151 6 -250.5 106t-99.5 266q0 172 105.5 272.5t264.5 100.5
q132 0 222.5 -56t118.5 -168h-20q-22 90 -102.5 147t-218.5 57q-147 0 -248.5 -94t-101.5 -259t101.5 -259t248.5 -94q139 0 234 79t104 188z" />
    <glyph glyph-name="Egrave" unicode="&#xc8;" horiz-adv-x="630" 
d="M55 0v714h556v-20h-536v-312h513v-20h-513v-342h542v-20h-562zM352 766l-168 139h32l164 -139h-28z" />
    <glyph glyph-name="Eacute" unicode="&#xc9;" horiz-adv-x="630" 
d="M55 0v714h556v-20h-536v-312h513v-20h-513v-342h542v-20h-562zM250 766l164 139h32l-168 -139h-28z" />
    <glyph glyph-name="Ecircumflex" unicode="&#xca;" horiz-adv-x="630" 
d="M55 0v714h556v-20h-536v-312h513v-20h-513v-342h542v-20h-562zM134 766l165 139h32l165 -139h-32l-149 125l-149 -125h-32z" />
    <glyph glyph-name="Edieresis" unicode="&#xcb;" horiz-adv-x="630" 
d="M55 0v714h556v-20h-536v-312h513v-20h-513v-342h542v-20h-562zM428 772h-20v109h20v-109zM222 772h-20v109h20v-109z" />
    <glyph glyph-name="Igrave" unicode="&#xcc;" horiz-adv-x="130" 
d="M55 0v714h20v-714h-20zM102 766l-168 139h32l164 -139h-28z" />
    <glyph glyph-name="Iacute" unicode="&#xcd;" horiz-adv-x="130" 
d="M55 0v714h20v-714h-20zM0 766l164 139h32l-168 -139h-28z" />
    <glyph glyph-name="Icircumflex" unicode="&#xce;" horiz-adv-x="130" 
d="M55 0v714h20v-714h-20zM-116 766l165 139h32l165 -139h-32l-149 125l-149 -125h-32z" />
    <glyph glyph-name="Idieresis" unicode="&#xcf;" horiz-adv-x="130" 
d="M55 0v714h20v-714h-20zM178 772h-20v109h20v-109zM-28 772h-20v109h20v-109z" />
    <glyph glyph-name="Eth" unicode="&#xd0;" horiz-adv-x="741" 
d="M55 0v362h-76v20h76v332h348q144 0 221 -96.5t77 -260.5t-77 -260.5t-221 -96.5h-348zM75 362v-342h328q74 0 129.5 28t87 76.5t46.5 106.5t15 126t-15 126t-46.5 106.5t-87 76.5t-129.5 28h-328v-312h331v-20h-331z" />
    <glyph glyph-name="Ntilde" unicode="&#xd1;" horiz-adv-x="722" 
d="M55 0v714h26l564 -688h2v688h20v-714h-26l-564 688h-2v-688h-20zM217 800h-20q13 81 90 81q21 0 43 -11l75 -39q22 -11 39 -11q21 0 38 14.5t23 46.5h20q-5 -39 -27.5 -60t-54.5 -21q-22 0 -45 12l-74 38q-21 11 -40 11q-23 0 -42 -15t-25 -46z" />
    <glyph glyph-name="Ograve" unicode="&#xd2;" horiz-adv-x="796" 
d="M28 357q0 172 105.5 272.5t264.5 100.5t264.5 -100.5t105.5 -272.5t-105.5 -272.5t-264.5 -100.5t-264.5 100.5t-105.5 272.5zM48 357q0 -165 101.5 -259t248.5 -94t248.5 94t101.5 259t-101.5 259t-248.5 94t-248.5 -94t-101.5 -259zM435 766l-168 139h32l164 -139h-28z
" />
    <glyph glyph-name="Oacute" unicode="&#xd3;" horiz-adv-x="796" 
d="M28 357q0 172 105.5 272.5t264.5 100.5t264.5 -100.5t105.5 -272.5t-105.5 -272.5t-264.5 -100.5t-264.5 100.5t-105.5 272.5zM48 357q0 -165 101.5 -259t248.5 -94t248.5 94t101.5 259t-101.5 259t-248.5 94t-248.5 -94t-101.5 -259zM333 766l164 139h32l-168 -139h-28z
" />
    <glyph glyph-name="Ocircumflex" unicode="&#xd4;" horiz-adv-x="796" 
d="M28 357q0 172 105.5 272.5t264.5 100.5t264.5 -100.5t105.5 -272.5t-105.5 -272.5t-264.5 -100.5t-264.5 100.5t-105.5 272.5zM48 357q0 -165 101.5 -259t248.5 -94t248.5 94t101.5 259t-101.5 259t-248.5 94t-248.5 -94t-101.5 -259zM217 766l165 139h32l165 -139h-32
l-149 125l-149 -125h-32z" />
    <glyph glyph-name="Otilde" unicode="&#xd5;" horiz-adv-x="796" 
d="M28 357q0 172 105.5 272.5t264.5 100.5t264.5 -100.5t105.5 -272.5t-105.5 -272.5t-264.5 -100.5t-264.5 100.5t-105.5 272.5zM48 357q0 -165 101.5 -259t248.5 -94t248.5 94t101.5 259t-101.5 259t-248.5 94t-248.5 -94t-101.5 -259zM254 800h-20q13 81 90 81
q21 0 43 -11l75 -39q22 -11 39 -11q21 0 38 14.5t23 46.5h20q-5 -39 -27.5 -60t-54.5 -21q-22 0 -45 12l-74 38q-21 11 -40 11q-23 0 -42 -15t-25 -46z" />
    <glyph glyph-name="Odieresis" unicode="&#xd6;" horiz-adv-x="796" 
d="M28 357q0 172 105.5 272.5t264.5 100.5t264.5 -100.5t105.5 -272.5t-105.5 -272.5t-264.5 -100.5t-264.5 100.5t-105.5 272.5zM48 357q0 -165 101.5 -259t248.5 -94t248.5 94t101.5 259t-101.5 259t-248.5 94t-248.5 -94t-101.5 -259zM511 772h-20v109h20v-109zM305 772
h-20v109h20v-109z" />
    <glyph glyph-name="multiply" unicode="&#xd7;" horiz-adv-x="600" 
d="M79 46l208 207l-208 207l14 14l207 -208l207 208l14 -14l-208 -207l208 -207l-14 -14l-207 208l-207 -208z" />
    <glyph glyph-name="Oslash" unicode="&#xd8;" horiz-adv-x="796" 
d="M140 109l505 509q-100 92 -247 92t-248.5 -94t-101.5 -259q0 -154 92 -248zM657 606l-504 -509q96 -93 245 -93q147 0 248.5 94t101.5 259q0 153 -91 249zM31 -2l94 96q-97 102 -97 263q0 172 105.5 272.5t264.5 100.5t260 -98l95 96l12 -12l-94 -96q97 -102 97 -263
q0 -172 -105.5 -272.5t-264.5 -100.5q-158 0 -261 97l-94 -95z" />
    <glyph glyph-name="Ugrave" unicode="&#xd9;" horiz-adv-x="722" 
d="M50 261v453h20v-455q0 -255 291 -255t291 255v455h20v-453q0 -277 -311 -277t-311 277zM398 766l-168 139h32l164 -139h-28z" />
    <glyph glyph-name="Uacute" unicode="&#xda;" horiz-adv-x="722" 
d="M50 261v453h20v-455q0 -255 291 -255t291 255v455h20v-453q0 -277 -311 -277t-311 277zM296 766l164 139h32l-168 -139h-28z" />
    <glyph glyph-name="Ucircumflex" unicode="&#xdb;" horiz-adv-x="722" 
d="M50 261v453h20v-455q0 -255 291 -255t291 255v455h20v-453q0 -277 -311 -277t-311 277zM180 766l165 139h32l165 -139h-32l-149 125l-149 -125h-32z" />
    <glyph glyph-name="Udieresis" unicode="&#xdc;" horiz-adv-x="722" 
d="M50 261v453h20v-455q0 -255 291 -255t291 255v455h20v-453q0 -277 -311 -277t-311 277zM474 772h-20v109h20v-109zM268 772h-20v109h20v-109z" />
    <glyph glyph-name="Yacute" unicode="&#xdd;" horiz-adv-x="630" 
d="M305 0v301l-337 413h29l318 -391l318 391h29l-337 -413v-301h-20zM250 766l164 139h32l-168 -139h-28z" />
    <glyph glyph-name="Thorn" unicode="&#xde;" 
d="M55 0v714h20v-142h362q198 0 198 -195q0 -83 -52 -138.5t-174 -55.5h-334v-183h-20zM75 552v-349h339q99 0 150 45.5t51 128.5q0 175 -172 175h-368z" />
    <glyph glyph-name="germandbls" unicode="&#xdf;" horiz-adv-x="574" 
d="M55 0v524q0 112 59 158t180 46q42 0 78.5 -7.5t70.5 -25.5t53.5 -53t19.5 -85q0 -79 -51.5 -116t-110.5 -39v-2q92 -1 146.5 -50t54.5 -146q0 -37 -11.5 -71.5t-36 -67t-71 -52t-108.5 -19.5q-52 0 -85 12v20q41 -12 85 -12q57 0 99.5 17.5t64.5 46.5t32.5 60.5
t10.5 65.5q0 186 -228 186h-48v20h21q110 0 163 39t53 109q0 78 -54.5 114t-147.5 36q-120 0 -169.5 -43.5t-49.5 -144.5v-520h-20z" />
    <glyph glyph-name="agrave" unicode="&#xe0;" horiz-adv-x="564" 
d="M586 27v-20q-18 -7 -47 -7q-54 0 -54 51v61h-2q-62 -128 -256 -128q-94 0 -148.5 40t-54.5 115q0 66 43 103.5t124 40.5l169 6q81 3 103 16.5t22 60.5v28q0 61 -52.5 87.5t-159.5 26.5q-109 0 -154.5 -34t-51.5 -117h-20q5 97 62 134t164 37q121 0 176.5 -32.5
t55.5 -100.5v-332q0 -24 7 -33.5t27 -9.5q23 0 47 7zM485 205v95h-2q-15 -26 -134 -31l-156 -6q-149 -6 -149 -125q0 -66 51 -100t133 -34q125 0 191 57t66 144zM319 589l-168 139h32l164 -139h-28z" />
    <glyph glyph-name="aacute" unicode="&#xe1;" horiz-adv-x="564" 
d="M586 27v-20q-18 -7 -47 -7q-54 0 -54 51v61h-2q-62 -128 -256 -128q-94 0 -148.5 40t-54.5 115q0 66 43 103.5t124 40.5l169 6q81 3 103 16.5t22 60.5v28q0 61 -52.5 87.5t-159.5 26.5q-109 0 -154.5 -34t-51.5 -117h-20q5 97 62 134t164 37q121 0 176.5 -32.5
t55.5 -100.5v-332q0 -24 7 -33.5t27 -9.5q23 0 47 7zM485 205v95h-2q-15 -26 -134 -31l-156 -6q-149 -6 -149 -125q0 -66 51 -100t133 -34q125 0 191 57t66 144zM217 589l164 139h32l-168 -139h-28z" />
    <glyph glyph-name="acircumflex" unicode="&#xe2;" horiz-adv-x="564" 
d="M586 27v-20q-18 -7 -47 -7q-54 0 -54 51v61h-2q-62 -128 -256 -128q-94 0 -148.5 40t-54.5 115q0 66 43 103.5t124 40.5l169 6q81 3 103 16.5t22 60.5v28q0 61 -52.5 87.5t-159.5 26.5q-109 0 -154.5 -34t-51.5 -117h-20q5 97 62 134t164 37q121 0 176.5 -32.5
t55.5 -100.5v-332q0 -24 7 -33.5t27 -9.5q23 0 47 7zM485 205v95h-2q-15 -26 -134 -31l-156 -6q-149 -6 -149 -125q0 -66 51 -100t133 -34q125 0 191 57t66 144zM101 589l165 139h32l165 -139h-32l-149 125l-149 -125h-32z" />
    <glyph glyph-name="atilde" unicode="&#xe3;" horiz-adv-x="564" 
d="M586 27v-20q-18 -7 -47 -7q-54 0 -54 51v61h-2q-62 -128 -256 -128q-94 0 -148.5 40t-54.5 115q0 66 43 103.5t124 40.5l169 6q81 3 103 16.5t22 60.5v28q0 61 -52.5 87.5t-159.5 26.5q-109 0 -154.5 -34t-51.5 -117h-20q5 97 62 134t164 37q121 0 176.5 -32.5
t55.5 -100.5v-332q0 -24 7 -33.5t27 -9.5q23 0 47 7zM485 205v95h-2q-15 -26 -134 -31l-156 -6q-149 -6 -149 -125q0 -66 51 -100t133 -34q125 0 191 57t66 144zM138 623h-20q13 81 90 81q21 0 43 -11l75 -39q22 -11 39 -11q21 0 38 14.5t23 46.5h20q-5 -39 -27.5 -60
t-54.5 -21q-22 0 -45 12l-74 38q-21 11 -40 11q-23 0 -42 -15t-25 -46z" />
    <glyph glyph-name="adieresis" unicode="&#xe4;" horiz-adv-x="564" 
d="M586 27v-20q-18 -7 -47 -7q-54 0 -54 51v61h-2q-62 -128 -256 -128q-94 0 -148.5 40t-54.5 115q0 66 43 103.5t124 40.5l169 6q81 3 103 16.5t22 60.5v28q0 61 -52.5 87.5t-159.5 26.5q-109 0 -154.5 -34t-51.5 -117h-20q5 97 62 134t164 37q121 0 176.5 -32.5
t55.5 -100.5v-332q0 -24 7 -33.5t27 -9.5q23 0 47 7zM485 205v95h-2q-15 -26 -134 -31l-156 -6q-149 -6 -149 -125q0 -66 51 -100t133 -34q125 0 191 57t66 144zM395 595h-20v109h20v-109zM189 595h-20v109h20v-109z" />
    <glyph glyph-name="aring" unicode="&#xe5;" horiz-adv-x="564" 
d="M586 27v-20q-18 -7 -47 -7q-54 0 -54 51v61h-2q-62 -128 -256 -128q-94 0 -148.5 40t-54.5 115q0 66 43 103.5t124 40.5l169 6q81 3 103 16.5t22 60.5v28q0 61 -52.5 87.5t-159.5 26.5q-109 0 -154.5 -34t-51.5 -117h-20q5 97 62 134t164 37q121 0 176.5 -32.5
t55.5 -100.5v-332q0 -24 7 -33.5t27 -9.5q23 0 47 7zM485 205v95h-2q-15 -26 -134 -31l-156 -6q-149 -6 -149 -125q0 -66 51 -100t133 -34q125 0 191 57t66 144zM186 669q0 40 28 68t68 28t68 -28t28 -68t-28 -68t-68 -28t-68 28t-28 68zM206 669q0 -31 22 -53.5t54 -22.5
t54 22.5t22 53.5t-22 53.5t-54 22.5t-54 -22.5t-22 -53.5z" />
    <glyph glyph-name="ae" unicode="&#xe6;" horiz-adv-x="1054" 
d="M505 276h515q-6 97 -73.5 164.5t-179.5 67.5q-118 0 -186.5 -66t-75.5 -166zM1040 256h-535q0 -112 68 -182t194 -70q197 0 245 174h20q-7 -32 -22 -61.5t-43.5 -61.5t-80 -51.5t-119.5 -19.5q-197 0 -267 167q-18 -57 -60.5 -95.5t-96 -55t-116.5 -16.5
q-94 0 -148.5 39.5t-54.5 114.5q0 139 173 145l163 6q81 3 103 16.5t22 60.5v28q0 61 -52.5 87.5t-159.5 26.5q-109 0 -154.5 -34t-51.5 -117h-20q5 97 62 134t164 37q121 0 176.5 -32.5t55.5 -100.5v-29h2q28 75 96 118.5t164 43.5q116 0 194.5 -73.5t78.5 -198.5zM485 205
v95h-2q-8 -14 -39.5 -20.5t-107.5 -10.5l-133 -6q-90 -4 -125.5 -37t-33.5 -90q0 -65 51 -98.5t133 -33.5q125 0 191 57t66 144z" />
    <glyph glyph-name="ccedilla" unicode="&#xe7;" 
d="M580 174h20q-22 -89 -90 -139.5t-180 -50.5h-1l-42 -44l2 -2q32 8 50 8q37 0 59.5 -16t22.5 -45q0 -75 -104 -75q-63 0 -116 21l8 19q48 -20 108 -20q84 0 84 54q0 42 -62 42q-48 0 -73 -14l-17 12l56 62q-118 7 -187.5 82.5t-69.5 187.5q0 119 77 195.5t205 76.5
q112 0 181.5 -46.5t84.5 -129.5h-20q-36 156 -246 156q-124 0 -193 -72.5t-69 -179.5t69 -179.5t193 -72.5q99 0 163.5 43.5t86.5 126.5z" />
    <glyph glyph-name="egrave" unicode="&#xe8;" horiz-adv-x="593" 
d="M579 256h-535q0 -107 69 -179.5t193 -72.5q197 0 245 174h20q-7 -32 -22 -61.5t-43.5 -61.5t-80 -51.5t-119.5 -19.5q-128 0 -205 76.5t-77 195.5t77 195.5t205 76.5q116 0 194.5 -73.5t78.5 -198.5zM44 276h515q-6 97 -73.5 164.5t-179.5 67.5q-118 0 -186.5 -66
t-75.5 -166zM334 589l-168 139h32l164 -139h-28z" />
    <glyph glyph-name="eacute" unicode="&#xe9;" horiz-adv-x="593" 
d="M579 256h-535q0 -107 69 -179.5t193 -72.5q197 0 245 174h20q-7 -32 -22 -61.5t-43.5 -61.5t-80 -51.5t-119.5 -19.5q-128 0 -205 76.5t-77 195.5t77 195.5t205 76.5q116 0 194.5 -73.5t78.5 -198.5zM44 276h515q-6 97 -73.5 164.5t-179.5 67.5q-118 0 -186.5 -66
t-75.5 -166zM232 589l164 139h32l-168 -139h-28z" />
    <glyph glyph-name="ecircumflex" unicode="&#xea;" horiz-adv-x="593" 
d="M579 256h-535q0 -107 69 -179.5t193 -72.5q197 0 245 174h20q-7 -32 -22 -61.5t-43.5 -61.5t-80 -51.5t-119.5 -19.5q-128 0 -205 76.5t-77 195.5t77 195.5t205 76.5q116 0 194.5 -73.5t78.5 -198.5zM44 276h515q-6 97 -73.5 164.5t-179.5 67.5q-118 0 -186.5 -66
t-75.5 -166zM116 589l165 139h32l165 -139h-32l-149 125l-149 -125h-32z" />
    <glyph glyph-name="edieresis" unicode="&#xeb;" horiz-adv-x="593" 
d="M579 256h-535q0 -107 69 -179.5t193 -72.5q197 0 245 174h20q-7 -32 -22 -61.5t-43.5 -61.5t-80 -51.5t-119.5 -19.5q-128 0 -205 76.5t-77 195.5t77 195.5t205 76.5q116 0 194.5 -73.5t78.5 -198.5zM44 276h515q-6 97 -73.5 164.5t-179.5 67.5q-118 0 -186.5 -66
t-75.5 -166zM410 595h-20v109h20v-109zM204 595h-20v109h20v-109z" />
    <glyph glyph-name="igrave" unicode="&#xec;" horiz-adv-x="130" 
d="M55 0v512h20v-512h-20zM102 589l-168 139h32l164 -139h-28z" />
    <glyph glyph-name="iacute" unicode="&#xed;" horiz-adv-x="130" 
d="M55 0v512h20v-512h-20zM0 589l164 139h32l-168 -139h-28z" />
    <glyph glyph-name="icircumflex" unicode="&#xee;" horiz-adv-x="130" 
d="M55 0v512h20v-512h-20zM-116 589l165 139h32l165 -139h-32l-149 125l-149 -125h-32z" />
    <glyph glyph-name="idieresis" unicode="&#xef;" horiz-adv-x="130" 
d="M55 0v512h20v-512h-20zM178 595h-20v109h20v-109zM-28 595h-20v109h20v-109z" />
    <glyph glyph-name="eth" unicode="&#xf0;" horiz-adv-x="612" 
d="M44 256q0 -107 69 -179.5t193 -72.5t193 72.5t69 179.5t-69 179.5t-193 72.5t-193 -72.5t-69 -179.5zM227 606l-15 15l112 60q-66 33 -152 49l16 20q86 -19 160 -55l116 60l16 -15l-111 -59q219 -125 219 -415q0 -129 -76 -205.5t-206 -76.5q-128 0 -205 76.5t-77 195.5
t77 195.5t205 76.5q184 0 250 -148l2 2q-42 197 -212 287z" />
    <glyph glyph-name="ntilde" unicode="&#xf1;" horiz-adv-x="593" 
d="M55 0v512h20v-115h2q58 131 231 131q70 0 118 -17.5t71 -49.5t32 -65t9 -74v-322h-20v322q0 37 -7.5 66t-28 58.5t-64.5 45.5t-110 16q-61 0 -106 -17t-68.5 -41t-37.5 -57t-17.5 -57t-3.5 -49v-287h-20zM153 623h-20q13 81 90 81q21 0 43 -11l75 -39q22 -11 39 -11
q21 0 38 14.5t23 46.5h20q-5 -39 -27.5 -60t-54.5 -21q-22 0 -45 12l-74 38q-21 11 -40 11q-23 0 -42 -15t-25 -46z" />
    <glyph glyph-name="ograve" unicode="&#xf2;" horiz-adv-x="612" 
d="M24 256q0 119 77 195.5t205 76.5t205 -76.5t77 -195.5t-77 -195.5t-205 -76.5t-205 76.5t-77 195.5zM44 256q0 -107 69 -179.5t193 -72.5t193 72.5t69 179.5t-69 179.5t-193 72.5t-193 -72.5t-69 -179.5zM343 589l-168 139h32l164 -139h-28z" />
    <glyph glyph-name="oacute" unicode="&#xf3;" horiz-adv-x="612" 
d="M24 256q0 119 77 195.5t205 76.5t205 -76.5t77 -195.5t-77 -195.5t-205 -76.5t-205 76.5t-77 195.5zM44 256q0 -107 69 -179.5t193 -72.5t193 72.5t69 179.5t-69 179.5t-193 72.5t-193 -72.5t-69 -179.5zM241 589l164 139h32l-168 -139h-28z" />
    <glyph glyph-name="ocircumflex" unicode="&#xf4;" horiz-adv-x="612" 
d="M24 256q0 119 77 195.5t205 76.5t205 -76.5t77 -195.5t-77 -195.5t-205 -76.5t-205 76.5t-77 195.5zM44 256q0 -107 69 -179.5t193 -72.5t193 72.5t69 179.5t-69 179.5t-193 72.5t-193 -72.5t-69 -179.5zM125 589l165 139h32l165 -139h-32l-149 125l-149 -125h-32z" />
    <glyph glyph-name="otilde" unicode="&#xf5;" horiz-adv-x="612" 
d="M24 256q0 119 77 195.5t205 76.5t205 -76.5t77 -195.5t-77 -195.5t-205 -76.5t-205 76.5t-77 195.5zM44 256q0 -107 69 -179.5t193 -72.5t193 72.5t69 179.5t-69 179.5t-193 72.5t-193 -72.5t-69 -179.5zM162 623h-20q13 81 90 81q21 0 43 -11l75 -39q22 -11 39 -11
q21 0 38 14.5t23 46.5h20q-5 -39 -27.5 -60t-54.5 -21q-22 0 -45 12l-74 38q-21 11 -40 11q-23 0 -42 -15t-25 -46z" />
    <glyph glyph-name="odieresis" unicode="&#xf6;" horiz-adv-x="612" 
d="M24 256q0 119 77 195.5t205 76.5t205 -76.5t77 -195.5t-77 -195.5t-205 -76.5t-205 76.5t-77 195.5zM44 256q0 -107 69 -179.5t193 -72.5t193 72.5t69 179.5t-69 179.5t-193 72.5t-193 -72.5t-69 -179.5zM419 595h-20v109h20v-109zM213 595h-20v109h20v-109z" />
    <glyph glyph-name="divide" unicode="&#xf7;" horiz-adv-x="600" 
d="M553 243h-506v20h506v-20zM261 466q0 16 11.5 28t28.5 12t28.5 -12t11.5 -28t-11.5 -28t-28.5 -12t-28.5 12t-11.5 28zM261 40q0 16 11.5 28t28.5 12t28.5 -12t11.5 -28t-11.5 -28t-28.5 -12t-28.5 12t-11.5 28z" />
    <glyph glyph-name="oslash" unicode="&#xf8;" horiz-adv-x="612" 
d="M111 79l378 366q-71 63 -183 63q-124 0 -193 -72.5t-69 -179.5t67 -177zM501 433l-378 -366q71 -63 183 -63q124 0 193 72.5t69 179.5q0 108 -67 177zM26 -3l71 69q-73 75 -73 190q0 119 77 195.5t205 76.5q118 0 197 -69l71 68l12 -12l-71 -68q73 -76 73 -191
q0 -119 -77 -195.5t-205 -76.5q-122 0 -197 69l-71 -68z" />
    <glyph glyph-name="ugrave" unicode="&#xf9;" horiz-adv-x="593" 
d="M538 512v-512h-20v115l-2 -2q-57 -129 -231 -129q-70 0 -118 17.5t-71 49.5t-32 65t-9 74v322h20v-322q0 -37 7.5 -66t28 -58.5t64.5 -45.5t110 -16q60 0 105 17.5t68.5 41.5t38 56.5t18 55.5t3.5 45v292h20zM334 589l-168 139h32l164 -139h-28z" />
    <glyph glyph-name="uacute" unicode="&#xfa;" horiz-adv-x="593" 
d="M538 512v-512h-20v115l-2 -2q-57 -129 -231 -129q-70 0 -118 17.5t-71 49.5t-32 65t-9 74v322h20v-322q0 -37 7.5 -66t28 -58.5t64.5 -45.5t110 -16q60 0 105 17.5t68.5 41.5t38 56.5t18 55.5t3.5 45v292h20zM232 589l164 139h32l-168 -139h-28z" />
    <glyph glyph-name="ucircumflex" unicode="&#xfb;" horiz-adv-x="593" 
d="M538 512v-512h-20v115l-2 -2q-57 -129 -231 -129q-70 0 -118 17.5t-71 49.5t-32 65t-9 74v322h20v-322q0 -37 7.5 -66t28 -58.5t64.5 -45.5t110 -16q60 0 105 17.5t68.5 41.5t38 56.5t18 55.5t3.5 45v292h20zM116 589l165 139h32l165 -139h-32l-149 125l-149 -125h-32z
" />
    <glyph glyph-name="udieresis" unicode="&#xfc;" horiz-adv-x="593" 
d="M538 512v-512h-20v115l-2 -2q-57 -129 -231 -129q-70 0 -118 17.5t-71 49.5t-32 65t-9 74v322h20v-322q0 -37 7.5 -66t28 -58.5t64.5 -45.5t110 -16q60 0 105 17.5t68.5 41.5t38 56.5t18 55.5t3.5 45v292h20zM410 595h-20v109h20v-109zM204 595h-20v109h20v-109z" />
    <glyph glyph-name="yacute" unicode="&#xfd;" horiz-adv-x="500" 
d="M250 1l-263 511h26l249 -487l225 487h26l-272 -580q-31 -65 -59 -85t-85 -20h-40v20h46q43 0 67 16t46 64zM185 589l164 139h32l-168 -139h-28z" />
    <glyph glyph-name="thorn" unicode="&#xfe;" horiz-adv-x="612" 
d="M75 256q0 -107 61.5 -179.5t184.5 -72.5t185 72.5t62 179.5t-62 179.5t-185 72.5t-184.5 -72.5t-61.5 -179.5zM55 -202v916h20v-340h2q28 75 91.5 114.5t152.5 39.5q131 0 199 -77.5t68 -194.5t-68 -194.5t-199 -77.5q-84 0 -149 37t-95 118h-2v-341h-20z" />
    <glyph glyph-name="ydieresis" unicode="&#xff;" horiz-adv-x="500" 
d="M250 1l-263 511h26l249 -487l225 487h26l-272 -580q-31 -65 -59 -85t-85 -20h-40v20h46q43 0 67 16t46 64zM363 595h-20v109h20v-109zM157 595h-20v109h20v-109z" />
    <glyph glyph-name="dotlessi" unicode="&#x131;" horiz-adv-x="130" 
d="M55 0v512h20v-512h-20z" />
    <glyph glyph-name="Lslash" unicode="&#x141;" horiz-adv-x="537" 
d="M55 0v281l-119 -78v20l119 78v413h20v-400l279 183v-20l-279 -183v-274h481v-20h-501z" />
    <glyph glyph-name="lslash" unicode="&#x142;" horiz-adv-x="130" 
d="M55 0v321l-80 -64v20l80 64v373h20v-357l80 64v-20l-80 -64v-337h-20z" />
    <glyph glyph-name="OE" unicode="&#x152;" horiz-adv-x="1167" 
d="M1120 362h-453v-342h492v-20h-512v71q-101 -87 -249 -87q-159 0 -264.5 100.5t-105.5 272.5t105.5 272.5t264.5 100.5q147 0 249 -87v71h512v-20h-492v-312h453v-20zM647 109v496q0 12 -16 25q-95 80 -233 80q-147 0 -248.5 -94t-101.5 -259t101.5 -259t248.5 -94
q133 0 237 82q12 9 12 23z" />
    <glyph glyph-name="oe" unicode="&#x153;" horiz-adv-x="1054" 
d="M542 276h478q-1 40 -12.5 76.5t-36.5 73.5t-74 59.5t-117 22.5q-97 0 -162 -56.5t-76 -175.5zM1040 256h-498q1 -132 70 -192t169 -60q106 0 162.5 48.5t71.5 119.5h20q-17 -93 -86.5 -140.5t-164.5 -47.5q-94 0 -162 46t-89 139h-2q-27 -94 -96.5 -139.5t-151.5 -45.5
q-111 0 -185 74t-74 198t74 198t185 74q92 0 160 -52t88 -141h2q19 88 82 140.5t167 52.5q73 0 126 -24t80.5 -65t39.5 -86t12 -97zM44 256q0 -116 69 -184t170 -68t170 68t69 184q-1 117 -69.5 184.5t-169.5 67.5t-170 -68t-69 -184z" />
    <glyph glyph-name="Scaron" unicode="&#x160;" horiz-adv-x="667" 
d="M616 514h-20q-7 96 -69 146t-200 50q-249 0 -249 -165q0 -55 33.5 -90t119.5 -54l240 -52q83 -18 123 -58t40 -106q0 -35 -10.5 -66t-38 -63.5t-88 -52t-147.5 -19.5q-81 0 -141 17t-92.5 41.5t-52 61t-25 66t-6.5 65.5h20q1 -66 23 -112t64 -71.5t94 -36.5t120 -11
q76 0 129.5 16t80.5 44t38.5 57t11.5 62q0 59 -36.5 95t-117.5 53l-226 48q-91 19 -133.5 57.5t-42.5 110.5q0 183 264 183q85 0 144.5 -17.5t90 -50t43.5 -67.5t16 -81zM317 766l-163 139h30l150 -125l150 125h30l-163 -139h-34z" />
    <glyph glyph-name="scaron" unicode="&#x161;" horiz-adv-x="500" 
d="M11 160h20q6 -54 23 -85t67 -51t138 -20q210 0 210 126q0 57 -33 81t-115 34l-155 19q-137 16 -137 127q0 137 223 137q108 0 159.5 -36.5t55.5 -129.5h-20q-4 84 -51 115t-150 31q-197 0 -197 -117q0 -48 29 -73.5t92 -33.5l155 -19q92 -11 128 -41.5t36 -94.5
q0 -145 -230 -145q-61 0 -105.5 10t-70 24.5t-41.5 39.5t-22 47t-9 55zM233 589l-163 139h30l150 -125l150 125h30l-163 -139h-34z" />
    <glyph glyph-name="Ydieresis" unicode="&#x178;" horiz-adv-x="630" 
d="M305 0v301l-337 413h29l318 -391l318 391h29l-337 -413v-301h-20zM428 772h-20v109h20v-109zM222 772h-20v109h20v-109z" />
    <glyph glyph-name="Zcaron" unicode="&#x17d;" horiz-adv-x="574" 
d="M-19 0v29l575 665h-541v20h567v-24l-581 -670h592v-20h-612zM270 766l-163 139h30l150 -125l150 125h30l-163 -139h-34z" />
    <glyph glyph-name="zcaron" unicode="&#x17e;" horiz-adv-x="481" 
d="M3 27l432 465h-405v20h431v-24l-438 -468h455v-20h-475v27zM224 589l-163 139h30l150 -125l150 125h30l-163 -139h-34z" />
    <glyph glyph-name="florin" unicode="&#x192;" 
d="M207 -45l98 459h-140l4 20h140l25 115q20 94 56 132.5t112 38.5q25 0 65 -6l-5 -20q-42 6 -58 6q-70 0 -101.5 -34t-51.5 -129l-22 -103h147l-4 -20h-147l-97 -457q-18 -84 -52 -121.5t-111 -37.5q-32 0 -65 5l3 20q25 -5 59 -5q67 0 97.5 29t47.5 108z" />
    <glyph glyph-name="circumflex" unicode="&#x2c6;" horiz-adv-x="130" 
d="M-116 589l165 139h32l165 -139h-32l-149 125l-149 -125h-32z" />
    <glyph glyph-name="caron" unicode="&#x2c7;" horiz-adv-x="130" 
d="M48 589l-163 139h30l150 -125l150 125h30l-163 -139h-34z" />
    <glyph glyph-name="uni02C9" unicode="&#x2c9;" horiz-adv-x="130" 
d="M253 639h-376v20h376v-20z" />
    <glyph glyph-name="breve" unicode="&#x2d8;" horiz-adv-x="130" 
d="M-87 704h20q22 -91 132 -91t132 91h20q-20 -111 -152 -111t-152 111z" />
    <glyph glyph-name="dotaccent" unicode="&#x2d9;" horiz-adv-x="130" 
d="M75 595h-20v109h20v-109z" />
    <glyph glyph-name="ring" unicode="&#x2da;" horiz-adv-x="130" 
d="M-31 669q0 40 28 68t68 28t68 -28t28 -68t-28 -68t-68 -28t-68 28t-28 68zM-11 669q0 -31 22.5 -53.5t53.5 -22.5t53.5 22.5t22.5 53.5t-22.5 53.5t-53.5 22.5t-53.5 -22.5t-22.5 -53.5z" />
    <glyph glyph-name="ogonek" unicode="&#x2db;" horiz-adv-x="130" 
d="M250 -150v-20q-48 -20 -105 -20q-48 0 -76.5 23.5t-28.5 64.5q0 36 31.5 63t86.5 39h25q-123 -49 -123 -102q0 -33 23.5 -50.5t61.5 -17.5q43 0 105 20z" />
    <glyph glyph-name="tilde" unicode="&#x2dc;" horiz-adv-x="130" 
d="M-79 623h-20q13 81 90 81q21 0 43 -11l75 -39q22 -11 39 -11q21 0 38 14.5t23 46.5h20q-5 -39 -27.5 -60t-54.5 -21q-22 0 -45 12l-74 38q-21 11 -40 11q-23 0 -42 -15t-25 -46z" />
    <glyph glyph-name="hungarumlaut" unicode="&#x2dd;" horiz-adv-x="130" 
d="M-100 589l164 139h32l-168 -139h-28zM100 589l164 139h32l-168 -139h-28z" />
    <glyph glyph-name="uni03A9" unicode="&#x3a9;" horiz-adv-x="857" 
d="M256 27v2q-75 55 -123 141.5t-48 195.5q0 156 101 255t246 99q146 0 243.5 -104t97.5 -247q0 -114 -51 -204t-122 -136v-2h189v-27h-255v19q85 44 145.5 135.5t60.5 214.5q0 55 -20.5 111.5t-57.5 104.5t-97.5 78.5t-132.5 30.5q-140 0 -227.5 -96t-87.5 -231
q0 -117 61 -210.5t145 -137.5v-19h-255v27h188z" />
    <glyph glyph-name="uni03BC" unicode="&#x3bc;" horiz-adv-x="593" 
d="M538 512v-512h-20v115l-2 -2q-57 -129 -231 -129q-89 0 -140.5 28t-67.5 69v4h-2v-287h-20v714h20v-322q0 -37 7.5 -66t28 -58.5t64.5 -45.5t110 -16q60 0 105 17.5t68.5 41.5t38 56.5t18 55.5t3.5 45v292h20z" />
    <glyph glyph-name="pi" unicode="&#x3c0;" horiz-adv-x="631" 
d="M600 495h-106v-341q0 -100 18 -154h-32q-18 29 -18 145v350h-259q-7 -121 -35.5 -277t-59.5 -218h-33q34 73 61 222t33 273q-105 0 -146 -17l-10 22q53 23 146 23h446z" />
    <glyph glyph-name="endash" unicode="&#x2013;" horiz-adv-x="500" 
d="M500 256h-500v20h500v-20z" />
    <glyph glyph-name="emdash" unicode="&#x2014;" horiz-adv-x="1000" 
d="M1000 256h-1000v20h1000v-20z" />
    <glyph glyph-name="quoteleft" unicode="&#x2018;" horiz-adv-x="168" 
d="M74 498v95q0 46 9.5 75t38.5 46v-26q-28 -18 -28 -88v-102h-20z" />
    <glyph glyph-name="quoteright" unicode="&#x2019;" horiz-adv-x="168" 
d="M74 612v102h20v-95q0 -46 -9.5 -75t-38.5 -46v26q28 18 28 88z" />
    <glyph glyph-name="quotesinglbase" unicode="&#x201a;" horiz-adv-x="168" 
d="M74 -6v102h20v-95q0 -46 -9.5 -75t-38.5 -46v26q28 18 28 88z" />
    <glyph glyph-name="quotedblleft" unicode="&#x201c;" horiz-adv-x="296" 
d="M202 498v95q0 46 9.5 75t38.5 46v-26q-28 -18 -28 -88v-102h-20zM74 498v95q0 46 9.5 75t38.5 46v-26q-28 -18 -28 -88v-102h-20z" />
    <glyph glyph-name="quotedblright" unicode="&#x201d;" horiz-adv-x="296" 
d="M74 612v102h20v-95q0 -46 -9.5 -75t-38.5 -46v26q28 18 28 88zM202 612v102h20v-95q0 -46 -9.5 -75t-38.5 -46v26q28 18 28 88z" />
    <glyph glyph-name="quotedblbase" unicode="&#x201e;" horiz-adv-x="296" 
d="M74 -6v102h20v-95q0 -46 -9.5 -75t-38.5 -46v26q28 18 28 88zM202 -6v102h20v-95q0 -46 -9.5 -75t-38.5 -46v26q28 18 28 88z" />
    <glyph glyph-name="dagger" unicode="&#x2020;" 
d="M314 -134v584h-260v20h260v244h20v-244h260v-20h-260v-584h-20z" />
    <glyph glyph-name="daggerdbl" unicode="&#x2021;" 
d="M314 83v414h-260v20h260v197h20v-197h260v-20h-260v-414h260v-20h-260v-197h-20v197h-260v20h260z" />
    <glyph glyph-name="bullet" unicode="&#x2022;" horiz-adv-x="500" 
d="M72 356q0 74 52 126t126 52t126 -52t52 -126t-52 -126t-126 -52t-126 52t-52 126z" />
    <glyph glyph-name="ellipsis" unicode="&#x2026;" horiz-adv-x="1000" 
d="M157 0v96h20v-96h-20zM490 0v96h20v-96h-20zM823 0v96h20v-96h-20z" />
    <glyph glyph-name="perthousand" unicode="&#x2030;" horiz-adv-x="1167" 
d="M5 531q0 98 50 143.5t120 45.5t120 -45.5t50 -143.5t-50 -143.5t-120 -45.5t-120 45.5t-50 143.5zM25 531q0 -81 40.5 -125t109.5 -44t109.5 44t40.5 125t-40.5 125t-109.5 44t-109.5 -44t-40.5 -125zM415 173q0 98 50 143.5t120 45.5t120 -45.5t50 -143.5t-50 -143.5
t-120 -45.5t-120 45.5t-50 143.5zM435 173q0 -81 40.5 -125t109.5 -44t109.5 44t40.5 125t-40.5 125t-109.5 44t-109.5 -44t-40.5 -125zM822 173q0 98 50 143.5t120 45.5t120 -45.5t50 -143.5t-50 -143.5t-120 -45.5t-120 45.5t-50 143.5zM842 173q0 -81 40.5 -125
t109.5 -44t109.5 44t40.5 125t-40.5 125t-109.5 44t-109.5 -44t-40.5 -125zM132 -22l476 748h20l-476 -748h-20z" />
    <glyph glyph-name="guilsinglleft" unicode="&#x2039;" horiz-adv-x="278" 
d="M72 275l118 138v-25l-104 -122l104 -122v-25l-118 138v18z" />
    <glyph glyph-name="guilsinglright" unicode="&#x203a;" horiz-adv-x="278" 
d="M88 413l118 -138v-18l-118 -138v25l104 122l-104 122v25z" />
    <glyph glyph-name="fraction" unicode="&#x2044;" horiz-adv-x="168" 
d="M-165 -24l478 752h20l-478 -752h-20z" />
    <glyph glyph-name="Euro" unicode="&#x20ac;" 
d="M639 53q-89 -68 -202 -68q-139 0 -231 86.5t-104 226.5h-86l11 20h74q-1 5 -1 15v16q0 36 4 64h-88l11 20h80q24 132 112 208.5t221 76.5q102 0 189 -54l-10 -16q-82 50 -181 50q-122 0 -205 -72t-103 -193h413l-12 -20h-404q-4 -28 -4 -63v-16q0 -11 1 -16h378l-11 -20
h-365q12 -131 97 -212.5t215 -81.5q60 0 103 17t98 57v-25z" />
    <glyph glyph-name="afii61289" unicode="&#x2113;" horiz-adv-x="526" 
d="M472 131l23 -14q-70 -127 -195 -127q-86 0 -130.5 59.5t-44.5 141.5v13q-9 -7 -21 -16.5t-27.5 -22t-23.5 -18.5l-16 25q85 69 88 72v303q0 67 14.5 115.5t38.5 72.5t48 34.5t50 10.5q62 0 94.5 -45t32.5 -112q0 -95 -64 -191.5t-184 -204.5v-23q0 -95 44 -142t105 -47
q56 0 100.5 35t67.5 81zM155 554v-290q107 105 162.5 186t55.5 166q0 137 -102 137q-44 0 -80 -49t-36 -150z" />
    <glyph glyph-name="trademark" unicode="&#x2122;" horiz-adv-x="990" 
d="M191 302v392h-149v20h318v-20h-149v-392h-20zM828 302v392h-2l-166 -392h-20l-166 392h-2v-392h-20v412h33l165 -386l165 386h33v-412h-20z" />
    <glyph glyph-name="Omega" unicode="&#x2126;" horiz-adv-x="857" 
d="M256 27v2q-75 55 -123 141.5t-48 195.5q0 156 101 255t246 99q146 0 243.5 -104t97.5 -247q0 -114 -51 -204t-122 -136v-2h189v-27h-255v19q85 44 145.5 135.5t60.5 214.5q0 55 -20.5 111.5t-57.5 104.5t-97.5 78.5t-132.5 30.5q-140 0 -227.5 -96t-87.5 -231
q0 -117 61 -210.5t145 -137.5v-19h-255v27h188z" />
    <glyph glyph-name="estimated" unicode="&#x212e;" horiz-adv-x="887" 
d="M852 342h-662q-5 0 -5 -5v-200q0 -12 8 -23q107 -109 251 -109q77 0 145.5 32.5t117.5 89.5h59q-56 -66 -141 -104t-182 -38q-170 0 -289.5 107.5t-119.5 259.5t120 260t289 108t289 -108t120 -260v-10zM702 368v201q0 14 -10 24q-107 105 -248 105q-142 0 -250 -108
q-9 -10 -9 -25v-197q0 -7 5 -7h507q5 0 5 7z" />
    <glyph glyph-name="partialdiff" unicode="&#x2202;" horiz-adv-x="603" 
d="M116 709l-19 20q74 57 176 57q109 0 188 -101.5t79 -282.5q0 -78 -16.5 -150t-49 -132.5t-87.5 -96.5t-126 -36q-100 0 -154 70.5t-54 162.5q0 111 71.5 180.5t166.5 69.5q56 0 105.5 -26t74 -52.5t35.5 -48.5h1q2 17 2 61q0 163 -71 259.5t-165 96.5q-87 0 -157 -51z
M261 13h1q95 0 158 82.5t78 203.5q-20 50 -76.5 97t-129.5 47q-83 0 -144.5 -63.5t-61.5 -154.5q0 -90 48.5 -151t126.5 -61z" />
    <glyph glyph-name="Delta" unicode="&#x2206;" horiz-adv-x="747" 
d="M39 0v35l317 697h36l315 -697v-35h-668zM71 27h601l-206 462q-7 16 -44 97.5t-47 108.5h-5q-5 -15 -19 -47.5t-34 -76t-27 -60.5z" />
    <glyph glyph-name="product" unicode="&#x220f;" horiz-adv-x="792" 
d="M761 679h-139v-777h-31v777h-391v-777h-31v777h-139v29h731v-29z" />
    <glyph glyph-name="summation" unicode="&#x2211;" horiz-adv-x="635" 
d="M604 -98h-579v24l338 377l-322 383v22h549v-29h-497v-4l310 -370l-329 -368v-3h530v-32z" />
    <glyph glyph-name="minus" unicode="&#x2212;" horiz-adv-x="600" 
d="M553 243h-506v20h506v-20z" />
    <glyph glyph-name="uni2215" unicode="&#x2215;" horiz-adv-x="168" 
d="M-165 -24l478 752h20l-478 -752h-20z" />
    <glyph glyph-name="uni2219" unicode="&#x2219;" horiz-adv-x="168" 
d="M44 332q0 16 12 28t28 12t28 -12t12 -28t-12 -28t-28 -12t-28 12t-12 28z" />
    <glyph glyph-name="radical" unicode="&#x221a;" horiz-adv-x="627" 
d="M624 834l-253 -992h-39l-193 492l-86 -32l-12 25l120 46l172 -439q10 -27 16 -56h2q1 10 6 29t6 25l230 902h31z" />
    <glyph glyph-name="infinity" unicode="&#x221e;" horiz-adv-x="871" 
d="M809 294v-1q0 -71 -48.5 -117t-113.5 -46q-13 0 -24.5 1.5t-24 7t-21.5 9.5t-22.5 14t-21 15.5t-23 20.5t-22.5 21.5t-25.5 25l-25.5 25.5q-69 -75 -102 -99q-57 -41 -115 -41q-65 0 -112 48t-47 113q0 69 47.5 116.5t119.5 47.5q30 0 58 -11t59 -37.5t46 -41.5t49 -52
q31 33 41.5 44.5t37 36t43.5 34t42.5 18.5t51.5 9q71 0 112 -45t41 -116zM226 160h1q28 0 58.5 16t46 29t49.5 47.5t38 38.5q-64 73 -96 97q-53 39 -106 39q-56 0 -88.5 -41.5t-32.5 -96.5q0 -54 35.5 -91.5t94.5 -37.5zM652 427h-1q-29 0 -60.5 -16.5t-50.5 -34t-47 -46.5
t-36 -36q43 -43 58 -57t44 -38t49.5 -31.5t43.5 -7.5q56 0 90 39.5t34 92.5q0 64 -35.5 99.5t-88.5 35.5z" />
    <glyph glyph-name="integral" unicode="&#x222b;" horiz-adv-x="364" 
d="M352 839l-12 -24q-14 14 -44 14q-38 0 -58 -21q-46 -46 -46 -191q0 -77 7.5 -265.5t7.5 -263.5q0 -144 -54 -206q-32 -35 -82 -35q-39 0 -65 19l12 24q34 -15 55 -15q33 0 54 23q48 54 48 192q0 76 -7.5 265.5t-7.5 264.5q0 81 12 129t42 74q34 33 82 33q33 0 56 -17z
" />
    <glyph glyph-name="approxequal" unicode="&#x2248;" horiz-adv-x="661" 
d="M579 431l18 -16q-24 -45 -55.5 -70.5t-82.5 -25.5q-9 0 -18 1t-16 2.5t-17 5t-15.5 5.5t-17.5 7.5t-17 8t-19.5 10t-20.5 10.5q-72 38 -115 38q-39 0 -66 -22t-54 -63l-20 15q53 97 149 97q20 0 40.5 -6t33.5 -12t32.5 -17.5t26.5 -14.5t22.5 -11t23.5 -11t20.5 -7.5
t25 -6.5t26.5 -2q37 0 63.5 20t52.5 65zM579 254l18 -16q-52 -95 -138 -95q-8 0 -15.5 0.5t-15.5 2.5t-13.5 3t-15.5 5t-13.5 5t-15.5 7l-15 7.5t-18 9.5t-19 10q-76 38 -115 38t-66.5 -22.5t-53.5 -63.5l-20 15q53 98 148 98q26 0 48.5 -7t53 -24t32.5 -18q3 -2 18.5 -9.5
t20 -9.5t17 -7.5t20.5 -7t19.5 -3.5t23.5 -2q37 0 63 19.5t52 64.5z" />
    <glyph glyph-name="notequal" unicode="&#x2260;" horiz-adv-x="661" 
d="M454 529l-58 -123h203v-28h-217l-87 -178h304v-28h-317l-68 -141l-24 14l61 127h-190v28h205l85 178h-290v28h304l66 137z" />
    <glyph glyph-name="lessequal" unicode="&#x2264;" horiz-adv-x="661" 
d="M596 76l-527 251v29l527 251v-36l-491 -227v-2l491 -230v-36zM599 0h-539v29h539v-29z" />
    <glyph glyph-name="greaterequal" unicode="&#x2265;" horiz-adv-x="661" 
d="M69 607l527 -251v-29l-527 -251v36l490 228v3l-490 228v36zM599 0h-538v29h538v-29z" />
    <glyph glyph-name="lozenge" unicode="&#x25ca;" horiz-adv-x="629" 
d="M562 354l-234 -406h-27l-234 406l234 406h27zM528 353l-192 332q-16 28 -22 46h-2q-11 -25 -23 -46l-190 -330l193 -333q20 -39 22 -45h3q3 11 21 45z" />
    </font>
</defs>
</svg>
