<?xml version="1.0" standalone="no"?>
<!DOCTYPE svg PUBLIC "-//W3C//DTD SVG 1.1//EN" "http://www.w3.org/Graphics/SVG/1.1/DTD/svg11.dtd" >
<svg xmlns="http://www.w3.org/2000/svg" xmlns:xlink="http://www.w3.org/1999/xlink" version="1.1">
<metadata>
Created by FontForge 20170731 at Wed Jun  5 20:33:19 2002
 By Aleksey,,,
Copyright (c) 1985, 1987, 1994, 1999, 2002 Adobe Systems Incorporated.  All Rights Reserved. (c) 1981, 1999, 2002 Heidelberger Druckmaschinen AG. All rights reserved.
</metadata>
<defs>
<font id="HelveticaLTStd-Blk" horiz-adv-x="667" >
  <font-face 
    font-family="Helvetica LT Std Black"
    font-weight="900"
    font-stretch="normal"
    units-per-em="1000"
    panose-1="2 11 9 4 3 5 2 2 2 4"
    ascent="718"
    descent="-282"
    x-height="524"
    cap-height="720"
    bbox="-167 -250 1007 1013"
    underline-thickness="50"
    underline-position="-200"
    unicode-range="U+0020-FB02"
  />
<missing-glyph horiz-adv-x="500" 
d="M0 0v700h500v-700h-500zM250 395l170 255h-340zM280 350l170 -255v510zM80 50h340l-170 255zM50 605v-510l170 255z" />
    <glyph glyph-name="fi" unicode="fi" 
d="M414 524h208v-524h-208v524zM622 739v-148h-208v148h208zM78 404h-69v120h70q0 68 12.5 111.5t41 65.5t63 30t88.5 8h89v-131q-57 0 -73.5 -12.5t-13.5 -71.5h87v-120h-87v-404h-208v404z" />
    <glyph glyph-name="fl" unicode="fl" 
d="M414 720h208v-720h-208v720zM286 524h87v-120h-87v-404h-208v404h-69v120h70q0 68 12.5 111.5t41 65.5t63 30t88.5 8h89v-131q-57 0 -73.5 -12.5t-13.5 -71.5z" />
    <glyph glyph-name=".notdef" horiz-adv-x="500" 
d="M0 0v700h500v-700h-500zM250 395l170 255h-340zM280 350l170 -255v510zM80 50h340l-170 255zM50 605v-510l170 255z" />
    <glyph glyph-name=".null" horiz-adv-x="0" 
 />
    <glyph glyph-name="nonmarkingreturn" horiz-adv-x="333" 
 />
    <glyph glyph-name="space" unicode=" " horiz-adv-x="333" 
 />
    <glyph glyph-name="exclam" unicode="!" horiz-adv-x="333" 
d="M108 264l-48 278v178h213v-178l-52 -278h-113zM267 0h-206v194h206v-194z" />
    <glyph glyph-name="quotedbl" unicode="&#x22;" horiz-adv-x="500" 
d="M401 449h-119v271h119v-271zM218 449h-119v271h119v-271z" />
    <glyph glyph-name="numbersign" unicode="#" horiz-adv-x="660" 
d="M550 315v-93h-102l-32 -222h-89l31 222h-85l-32 -222h-88l31 222h-100v93h114l13 88h-99v93h111l30 209h87l-29 -209h86l29 209h90l-30 -209h90v-93h-103l-12 -88h89zM384 403h-86l-12 -88h85z" />
    <glyph glyph-name="dollar" unicode="$" 
d="M286 455v130q-24 2 -49.5 -16.5t-25.5 -44.5q0 -14 3.5 -24t14.5 -17.5t15.5 -10.5t22 -9.5t19.5 -7.5zM369 260v-146q33 0 60 18t27 48q0 62 -87 80zM286 715v62h83v-62q52 -3 96 -15.5t82 -36.5t59 -66t20 -97h-173q-2 32 -25 56t-59 23v-139q36 -11 55 -17t52 -19
t51.5 -24t42 -29t36 -37.5t21.5 -46.5t9 -58q0 -59 -21 -103t-59 -69t-84 -37.5t-103 -14.5v-97h-83v97q-114 4 -188 65.5t-75 173.5h181q0 -87 82 -104v157q-112 35 -149 54q-100 54 -100 164q0 56 20 96.5t57.5 65t78 37.5t93.5 21z" />
    <glyph glyph-name="percent" unicode="%" horiz-adv-x="1000" 
d="M553 195q0 90 65.5 155.5t155.5 65.5t154.5 -65.5t64.5 -155.5q0 -91 -64 -154.5t-155 -63.5q-90 0 -155.5 64t-65.5 154zM688 196q0 -34 26 -59t60 -25t59 25t25 59t-25 59.5t-59 25.5q-35 0 -60.5 -25t-25.5 -60zM227 302q-91 0 -156 64.5t-65 155.5q0 90 65.5 154.5
t155.5 64.5t155 -64.5t65 -154.5q0 -91 -64.5 -155.5t-155.5 -64.5zM227 606q-34 0 -60 -25t-26 -59t25.5 -59.5t60.5 -25.5q34 0 59.5 25.5t25.5 59.5t-25.5 59t-59.5 25zM761 747l-424 -778h-101l424 778h101z" />
    <glyph glyph-name="ampersand" unicode="&#x26;" horiz-adv-x="889" 
d="M384 595q-30 0 -50 -13t-20 -41q0 -43 61 -84q17 8 27.5 14t23 16t16.5 19.5t8 25t-4 31.5q-15 32 -62 32zM594 0l-57 61q-38 -33 -104.5 -56.5t-133.5 -23.5q-108 0 -181 51t-73 149q0 148 151 224q-62 65 -62 135q0 48 22 84.5t58.5 56.5t78 29.5t86.5 9.5
q102 0 171 -52.5t69 -137.5q0 -118 -117 -182l62 -64q28 24 47 60h190q-55 -105 -121 -175l164 -169h-250zM416 188l-93 98q-78 -40 -78 -86q0 -31 19 -48.5t51 -17.5q37 0 80 26q6 4 15 8q9 5 11 7t1 4.5t-6 8.5z" />
    <glyph glyph-name="quotesingle" unicode="'" horiz-adv-x="278" 
d="M198 449h-119v271h119v-271z" />
    <glyph glyph-name="parenleft" unicode="(" horiz-adv-x="389" 
d="M331 -178h-176q-108 208 -108 455q0 85 20 176t36.5 135t52.5 132h178q-94 -247 -94 -446q0 -218 91 -452z" />
    <glyph glyph-name="parenright" unicode=")" horiz-adv-x="389" 
d="M58 720h176q108 -208 108 -455q0 -85 -20 -176t-36.5 -135t-52.5 -132h-178q94 247 94 446q0 218 -91 452z" />
    <glyph glyph-name="asterisk" unicode="*" horiz-adv-x="556" 
d="M91 627l133 -46v139h108v-139l132 51l38 -103l-139 -47l95 -117l-91 -70l-87 124l-87 -124l-92 68l91 117l-138 37z" />
    <glyph glyph-name="plus" unicode="+" horiz-adv-x="660" 
d="M272 314v191h116v-191h194v-116h-194v-198h-116v198h-194v116h194z" />
    <glyph glyph-name="comma" unicode="," horiz-adv-x="333" 
d="M58 -176v87q45 6 70 29q24 22 27 60h-97v206h212v-174q0 -98 -56 -150.5t-156 -57.5z" />
    <glyph glyph-name="hyphen" unicode="-" horiz-adv-x="333" 
d="M300 165h-268v182h268v-182z" />
    <glyph glyph-name="period" unicode="." horiz-adv-x="333" 
d="M272 0h-212v206h212v-206z" />
    <glyph glyph-name="slash" unicode="/" horiz-adv-x="278" 
d="M184 720h126l-216 -810h-126z" />
    <glyph glyph-name="zero" unicode="0" 
d="M334 141q97 0 97 208v8q0 27 -0.5 42t-3 43t-9 45t-16.5 35.5t-28 27.5t-42 9q-96 0 -96 -212q0 -101 21 -153.5t77 -52.5zM28 359q1 182 87 269t219 87q141 0 223 -91.5t82 -263.5q0 -79 -16 -144t-50.5 -118.5t-95 -83t-143.5 -29.5t-143.5 29.5t-95.5 82.5t-51 118
t-16 144z" />
    <glyph glyph-name="one" unicode="1" 
d="M469 715v-715h-208v411h-163v142q89 2 143 38.5t70 123.5h158z" />
    <glyph glyph-name="two" unicode="2" 
d="M649 0h-593q-5 108 84 200q37 39 96 80t101 67t74 63.5t32 77.5q0 32 -25.5 51.5t-59.5 19.5q-55 0 -79 -38.5t-23 -96.5h-187q4 291 299 291q121 0 202 -56.5t81 -171.5q0 -34 -11 -64t-23 -49t-41 -42.5t-44 -33.5t-52 -33q-4 -3 -6 -4t-5 -3t-5 -3q-21 -13 -71.5 -42
t-70.5 -43h327v-170z" />
    <glyph glyph-name="three" unicode="3" 
d="M35 245h196q-1 -48 25 -76t75 -28q43 0 68 24.5t25 57.5q0 17 -5 30t-11 21t-20 13.5t-21.5 8t-25.5 4t-23 1.5h-24v123q47 -4 85.5 12t38.5 60q0 32 -24 47.5t-58 15.5q-38 0 -62.5 -19t-28.5 -56h-188q5 115 85.5 173t199.5 58q125 0 198 -53.5t73 -143.5
q0 -99 -82 -139q48 -19 74.5 -57t26.5 -90q0 -120 -83.5 -183.5t-228.5 -63.5q-129 0 -208 67t-77 193z" />
    <glyph glyph-name="four" unicode="4" 
d="M25 147v167l329 391h194v-403h88v-155h-88v-147h-198v147h-325zM350 517l-168 -215h168v215z" />
    <glyph glyph-name="five" unicode="5" 
d="M54 304l70 401h452v-170h-306l-23 -106q52 38 146 38q104 0 172 -60t68 -163q0 -70 -26 -122t-72 -81t-100 -42.5t-118 -13.5q-233 0 -294 199l209 21q0 -1 1 -3.5t1 -3.5q9 -27 34.5 -42t55.5 -15q45 0 73 26.5t28 66.5q0 46 -23 74t-68 28q-64 0 -84 -39z" />
    <glyph glyph-name="six" unicode="6" 
d="M344 326q-50 -1 -74 -29t-24 -72q0 -38 28 -64.5t66 -26.5q45 0 68.5 26t23.5 72q0 42 -24.5 68t-63.5 26zM623 529l-194 -12q-16 56 -84 56q-55 0 -82 -44.5t-26 -117.5q42 29 78 40t87 11q59 0 106 -21t75 -55t42.5 -73.5t14.5 -78.5q0 -123 -78 -186t-204 -63
q-159 0 -245 90t-86 277q0 165 81.5 264t226.5 99q249 0 288 -186z" />
    <glyph glyph-name="seven" unicode="7" 
d="M418 535h-362v170h567v-158q-98 -80 -162.5 -226.5t-69.5 -320.5h-216q29 310 243 535z" />
    <glyph glyph-name="eight" unicode="8" 
d="M360 135q69 9 69 84q0 42 -26 66.5t-68 24.5q-45 0 -71.5 -23.5t-26.5 -68.5q0 -48 37.5 -70t85.5 -13zM332 423q37 0 62.5 19.5t25.5 55.5q0 35 -24.5 55.5t-61.5 20.5q-40 0 -65.5 -20t-24.5 -58q0 -37 25 -55t63 -18zM143 369q-47 26 -69 56.5t-22 90.5
q0 65 41.5 111.5t105 67t142.5 20.5q119 0 195 -55t76 -140q0 -109 -93 -146q118 -46 118 -165q0 -105 -83.5 -164.5t-219.5 -59.5q-133 0 -219 57t-86 167q0 60 28.5 96.5t85.5 63.5z" />
    <glyph glyph-name="nine" unicode="9" 
d="M321 375q50 1 74 29t24 72q0 38 -28 64.5t-66 26.5q-45 0 -68.5 -26t-23.5 -72q0 -42 24.5 -68t63.5 -26zM42 171l194 12q16 -56 84 -56q55 0 82 44.5t26 117.5q-42 -29 -78 -40t-87 -11q-59 0 -106 21t-75 55t-42.5 73.5t-14.5 78.5q0 123 78 186t204 63q159 0 245 -90
t86 -277q0 -165 -81.5 -264t-226.5 -99q-249 0 -288 186z" />
    <glyph glyph-name="colon" unicode=":" horiz-adv-x="333" 
d="M272 0h-212v206h212v-206zM272 318h-212v206h212v-206z" />
    <glyph glyph-name="semicolon" unicode=";" horiz-adv-x="333" 
d="M58 206h212v-174q0 -98 -56 -150.5t-156 -57.5v87q45 6 70 29q24 22 27 60h-97v206zM270 318h-212v206h212v-206z" />
    <glyph glyph-name="less" unicode="&#x3c;" horiz-adv-x="660" 
d="M584 108v-128l-509 226v99l509 227v-128l-356 -150z" />
    <glyph glyph-name="equal" unicode="=" horiz-adv-x="660" 
d="M582 412v-116h-504v116h504zM582 216v-116h-504v116h504z" />
    <glyph glyph-name="greater" unicode="&#x3e;" horiz-adv-x="660" 
d="M74 108l356 146l-356 150v128l509 -227v-99l-509 -226v128z" />
    <glyph glyph-name="question" unicode="?" horiz-adv-x="611" 
d="M387 269h-184q-4 65 12 106.5t41.5 59t52 28t45.5 26.5t19 42q0 29 -21.5 43.5t-52.5 14.5q-65 0 -65 -83h-207q6 114 90 177q75 56 194 56q120 0 195 -53t75 -151q0 -48 -22 -81t-52 -51t-59.5 -34t-47.5 -40.5t-13 -59.5zM192 194h206v-194h-206v194z" />
    <glyph glyph-name="at" unicode="@" horiz-adv-x="740" 
d="M280 338q0 -37 20.5 -62.5t55.5 -25.5q45 0 73.5 33t28.5 78q0 37 -22 61t-58 24q-41 0 -69.5 -33.5t-28.5 -74.5zM487 493l10 51h95l-49 -292q-4 -14 -3 -25t15 -11q35 0 66 53t31 130q0 118 -74.5 184t-193.5 66q-125 0 -202 -81.5t-77 -207.5q0 -131 83 -210t213 -79
q105 0 191 67h99q-114 -157 -298 -157q-163 0 -275.5 108t-112.5 271q0 161 111 270t271 109q138 0 235 -84q112 -94 112 -223q0 -128 -77 -206q-32 -32 -83 -58.5t-90 -26.5q-26 0 -42.5 13t-15.5 38q-44 -47 -98 -47q-67 0 -117.5 52t-50.5 125q0 92 57 161t147 69
q80 0 123 -59z" />
    <glyph glyph-name="A" unicode="A" horiz-adv-x="778" 
d="M463 245l-76 258l-73 -258h149zM242 0h-231l258 720h240l258 -720h-235l-28 95h-235z" />
    <glyph glyph-name="B" unicode="B" horiz-adv-x="778" 
d="M383 301h-75v-133h103q49 0 75.5 14t26.5 52q0 43 -31.5 55t-98.5 12zM391 552h-83v-120h98q37 0 59 16t22 47q0 16 -5.5 27.5t-13 17t-22.5 8.5t-25.5 3.5t-29.5 0.5zM423 0h-351v720h344q65 0 114.5 -8.5t91 -28t63.5 -56t22 -88.5q0 -51 -27 -91.5t-67 -65.5
q57 -15 88.5 -60t31.5 -105q0 -217 -310 -217z" />
    <glyph glyph-name="C" unicode="C" horiz-adv-x="778" 
d="M743 445h-224q-5 56 -38.5 87t-89.5 31q-63 0 -98 -53.5t-35 -156.5q0 -57 9.5 -97t42.5 -69.5t90 -29.5q54 0 84 33t37 89h227q-16 -139 -108.5 -218.5t-235.5 -79.5q-178 0 -280 102t-102 278q0 171 102.5 274.5t256.5 103.5q163 0 255.5 -76.5t106.5 -217.5z" />
    <glyph glyph-name="D" unicode="D" horiz-adv-x="778" 
d="M301 552v-384h50q170 0 170 194q0 110 -39 150t-136 40h-45zM375 0h-310v720h316q179 0 277.5 -86t98.5 -259q0 -375 -382 -375z" />
    <glyph glyph-name="E" unicode="E" horiz-adv-x="722" 
d="M677 0h-601v720h587v-168h-351v-103h297v-168h-297v-113h365v-168z" />
    <glyph glyph-name="F" unicode="F" 
d="M310 0h-236v720h560v-168h-324v-131h258v-168h-258v-253z" />
    <glyph glyph-name="G" unicode="G" horiz-adv-x="833" 
d="M766 396v-398h-152l-9 71q-75 -88 -217 -88q-70 0 -132 23t-111 67.5t-77.5 116.5t-28.5 163q0 174 102 281t275 107q134 0 227 -69t114 -198h-224q-26 91 -121 91q-68 0 -102.5 -56.5t-34.5 -154.5q0 -195 151 -195q38 0 75 23.5t46 59.5h-104v156h323z" />
    <glyph glyph-name="H" unicode="H" horiz-adv-x="833" 
d="M305 0h-236v720h236v-243h223v243h236v-720h-236v279h-223v-279z" />
    <glyph glyph-name="I" unicode="I" horiz-adv-x="389" 
d="M312 0h-236v720h236v-720z" />
    <glyph glyph-name="J" unicode="J" 
d="M27 313h210q0 -25 0.5 -38t2 -35t5.5 -34t10.5 -25t17.5 -18.5t26 -5.5q28 0 44 22.5t16 65.5v475h236v-442q0 -145 -70 -221t-211 -76q-156 0 -228.5 85t-58.5 247z" />
    <glyph glyph-name="K" unicode="K" horiz-adv-x="833" 
d="M75 0v720h236v-233l207 233h277l-263 -271l291 -449h-283l-173 287l-56 -59v-228h-236z" />
    <glyph glyph-name="L" unicode="L" 
d="M636 0h-560v720h236v-552h324v-168z" />
    <glyph glyph-name="M" unicode="M" horiz-adv-x="944" 
d="M272 0h-212v720h285l127 -449l127 449h285v-720h-212v220l3 112l12 130h-2l-131 -462h-164l-131 462h-2l10 -106l5 -112v-244z" />
    <glyph glyph-name="N" unicode="N" horiz-adv-x="833" 
d="M290 720l257 -393l-9 164v229h226v-720h-221l-257 392l9 -164v-228h-226v720h221z" />
    <glyph glyph-name="O" unicode="O" horiz-adv-x="833" 
d="M414 563q-50 0 -83 -32t-44.5 -74t-11.5 -93q0 -38 6.5 -71.5t21.5 -65.5t44 -51t69 -19q73 0 107.5 56t34.5 151q0 83 -36 142t-108 57zM416 739q93 0 167 -31.5t119 -85t68.5 -119.5t23.5 -139q0 -179 -106.5 -281t-271.5 -102q-172 0 -274.5 102t-102.5 283
q0 169 104 271t273 102z" />
    <glyph glyph-name="P" unicode="P" horiz-adv-x="722" 
d="M293 392h98q95 0 95 84q0 76 -126 76h-67v-160zM293 0h-236v720h347q152 0 229.5 -64.5t77.5 -178.5q0 -120 -74 -186.5t-225 -66.5h-119v-224z" />
    <glyph glyph-name="Q" unicode="Q" horiz-adv-x="833" 
d="M371 245l100 105l77 -78q10 36 10 92q0 92 -38.5 145.5t-105.5 53.5q-50 0 -83 -32t-44.5 -74t-11.5 -93q0 -38 6.5 -71.5t21.5 -65.5t44 -51t69 -19q17 0 36 7zM792 24l-99 -105l-98 99q-83 -37 -179 -37q-173 0 -275 102.5t-102 282.5q0 169 104 271t273 102
q173 0 275.5 -107t102.5 -268q0 -153 -84 -257z" />
    <glyph glyph-name="R" unicode="R" horiz-adv-x="778" 
d="M297 552v-143h93q57 0 84.5 16t27.5 52q0 37 -26 56t-69 19h-110zM369 251h-72v-251h-236v720h340q176 0 247.5 -48.5t71.5 -156.5q0 -65 -30 -112t-91 -64q24 -9 36 -14t29 -15.5t25 -22.5t16.5 -31t12 -45.5t3.5 -62.5q0 -98 5 -112t20 -14v-22h-239q-12 32 -12 126
q0 74 -23.5 99.5t-102.5 25.5z" />
    <glyph glyph-name="S" unicode="S" horiz-adv-x="722" 
d="M669 511h-224q-5 34 -34 49q-25 13 -61 13q-75 0 -75 -41q0 -22 23 -37t59.5 -25t80.5 -20t88 -26t80.5 -39t59.5 -63t23 -93q0 -121 -91.5 -184.5t-245.5 -63.5q-139 0 -227 70t-92 171h226q7 -38 39 -57q28 -18 67 -18q45 0 71.5 14t26.5 39q0 22 -23 37t-59.5 24.5
t-80.5 19t-88 26t-80.5 40t-59.5 65t-23 97.5q0 111 86 170.5t226 59.5q142 0 218 -63t90 -165z" />
    <glyph glyph-name="T" unicode="T" horiz-adv-x="722" 
d="M31 531v189h660v-189h-212v-531h-236v531h-212z" />
    <glyph glyph-name="U" unicode="U" horiz-adv-x="833" 
d="M70 314v406h236v-431q0 -63 22.5 -97.5t88.5 -34.5q60 0 85 34.5t25 97.5v431h236v-407q0 -173 -83 -252.5t-263 -79.5q-174 0 -260.5 76.5t-86.5 256.5z" />
    <glyph glyph-name="V" unicode="V" horiz-adv-x="778" 
d="M268 0l-246 720h238l126 -479l131 479h238l-250 -720h-237z" />
    <glyph glyph-name="W" unicode="W" horiz-adv-x="1000" 
d="M597 720l86 -445h2l81 445h228l-179 -720h-232l-83 418h-2l-82 -418h-232l-179 720h228l81 -445h2l86 445h195z" />
    <glyph glyph-name="X" unicode="X" horiz-adv-x="778" 
d="M389 202l-116 -202h-265l255 374l-230 346h265l102 -184l103 184h265l-243 -346l245 -374h-265z" />
    <glyph glyph-name="Y" unicode="Y" horiz-adv-x="778" 
d="M507 266v-266h-236v262l-268 458h264l124 -244l124 244h260z" />
    <glyph glyph-name="Z" unicode="Z" horiz-adv-x="722" 
d="M685 0h-649v171l345 381h-331v168h621v-167l-350 -385h364v-168z" />
    <glyph glyph-name="bracketleft" unicode="[" horiz-adv-x="389" 
d="M356 -178h-312v898h312v-148h-129v-602h129v-148z" />
    <glyph glyph-name="backslash" unicode="\" horiz-adv-x="278" 
d="M-32 720h126l216 -810h-126z" />
    <glyph glyph-name="bracketright" unicode="]" horiz-adv-x="389" 
d="M345 720v-898h-312v148h129v602h-129v148h312z" />
    <glyph glyph-name="asciicircum" unicode="^" horiz-adv-x="660" 
d="M194 291l-104 47l180 377h120l180 -377l-104 -47l-136 279z" />
    <glyph glyph-name="underscore" unicode="_" horiz-adv-x="500" 
d="M0 -75h500v-50h-500v50z" />
    <glyph glyph-name="grave" unicode="`" horiz-adv-x="333" 
d="M-36 738h208l100 -148h-137z" />
    <glyph glyph-name="a" unicode="a" 
d="M634 0h-215l-10 56q-76 -71 -197 -71q-80 0 -133.5 40.5t-53.5 117.5q0 56 27.5 92.5t69 50.5t90 23t90 12t69 15.5t27.5 34.5q0 43 -68 43q-67 0 -73 -51h-200q0 86 68 131t218 45q61 0 105.5 -7t73 -22t46 -32t25.5 -45t10.5 -51t2.5 -60v-245q0 -26 4.5 -39t23.5 -28
v-10zM306 103q52 0 74 35.5t18 93.5q-23 -11 -68 -20t-67.5 -22t-22.5 -43q0 -20 18 -32t48 -12z" />
    <glyph glyph-name="b" unicode="b" 
d="M256 720v-249q58 68 151 68q100 0 164 -77.5t64 -196.5q0 -125 -58 -202.5t-179 -77.5q-115 0 -161 89h-2v-74h-187v720h208zM339 135q47 0 67.5 36.5t20.5 86.5q0 49 -21 84.5t-67 35.5q-44 0 -66 -35t-22 -81q0 -51 21 -89t67 -38z" />
    <glyph glyph-name="c" unicode="c" 
d="M618 324h-211q-1 33 -22 54q-19 21 -54 21q-91 0 -91 -143q0 -61 23 -96t68 -35q70 0 81 78h210q-13 -113 -98 -169q-75 -49 -193 -49q-131 0 -215 71.5t-84 200.5q0 131 83 206.5t216 75.5q115 0 195.5 -53t91.5 -162z" />
    <glyph glyph-name="d" unicode="d" 
d="M619 0h-187v70q-36 -47 -73 -66t-88 -19q-114 0 -176 75.5t-62 191.5q0 128 63.5 207.5t158.5 79.5q51 0 87.5 -15t68.5 -53v249h208v-720zM323 135q50 0 72.5 35t22.5 87q0 51 -21 86t-68 35t-67.5 -36t-20.5 -88q0 -119 82 -119z" />
    <glyph glyph-name="e" unicode="e" 
d="M239 321h189q0 36 -27.5 63.5t-64.5 27.5q-46 0 -71.5 -24.5t-25.5 -66.5zM636 215h-397q0 -45 30 -74t73 -29q56 0 78 46h199q-25 -90 -106 -131.5t-184 -41.5q-131 0 -214.5 72t-83.5 200q0 127 84.5 204.5t212.5 77.5q144 0 227 -90t81 -234z" />
    <glyph glyph-name="f" unicode="f" horiz-adv-x="389" 
d="M286 524h87v-120h-87v-404h-208v404h-69v120h70q0 68 12.5 111.5t41 65.5t63 30t88.5 8h89v-131q-57 0 -73.5 -12.5t-13.5 -71.5z" />
    <glyph glyph-name="g" unicode="g" 
d="M324 390q-44 1 -63 -31t-19 -88q0 -42 21 -71.5t61 -30.5q45 -2 66.5 29.5t21.5 78.5q0 49 -21 81t-67 32zM61 -27h209q0 -11 13 -23q15 -13 45 -13q45 0 64.5 23t19.5 79v43q-57 -57 -150 -57q-105 0 -166.5 71.5t-61.5 176.5q0 51 13 96.5t39 84.5t73 62t109 23
q47 0 89 -22.5t70 -61.5v69h183v-422q0 -46 -2.5 -76t-11.5 -65.5t-27.5 -58t-48 -42.5t-76.5 -29t-110 -9q-129 0 -197 43.5t-76 107.5z" />
    <glyph glyph-name="h" unicode="h" 
d="M48 0v720h208v-262q64 81 159 81q203 0 203 -225v-314h-208v277q0 98 -73 98q-46 0 -63.5 -27t-17.5 -81v-267h-208z" />
    <glyph glyph-name="i" unicode="i" horiz-adv-x="333" 
d="M270 0h-208v524h208v-524zM62 591v148h208v-148h-208z" />
    <glyph glyph-name="j" unicode="j" horiz-adv-x="333" 
d="M74 524h208v-474q0 -46 -3 -74.5t-14.5 -61t-33 -50.5t-60.5 -30t-96 -12q-39 0 -95 3v148q63 0 78.5 12t15.5 65v474zM282 591h-208v148h208v-148z" />
    <glyph glyph-name="k" unicode="k" 
d="M300 186l-39 -39v-147h-208v720h208v-356l133 160h243l-194 -203l219 -321h-250z" />
    <glyph glyph-name="l" unicode="l" horiz-adv-x="333" 
d="M270 0h-208v720h208v-720z" />
    <glyph glyph-name="m" unicode="m" horiz-adv-x="1000" 
d="M45 0v524h191v-78q23 35 68.5 64t97.5 29q128 0 171 -96q69 96 181 96q110 0 155.5 -57.5t45.5 -171.5v-310h-208v267q0 59 -15 83.5t-55 24.5q-42 0 -57.5 -30.5t-15.5 -85.5v-259h-208v267q0 59 -15 83.5t-55 24.5q-42 0 -57.5 -30.5t-15.5 -85.5v-259h-208z" />
    <glyph glyph-name="n" unicode="n" 
d="M48 0v524h190v-82q72 97 177 97q203 0 203 -225v-314h-208v277q0 98 -73 98q-46 0 -63.5 -27t-17.5 -81v-267h-208z" />
    <glyph glyph-name="o" unicode="o" 
d="M335 399q-48 0 -70 -39.5t-22 -92.5q0 -72 24 -107t66 -35q90 0 90 142q0 59 -24 96.5t-64 35.5zM35 256q0 134 81 208.5t216 74.5q138 0 218.5 -74.5t80.5 -197.5q0 -138 -82.5 -210t-215.5 -72q-131 0 -214.5 70.5t-83.5 200.5z" />
    <glyph glyph-name="p" unicode="p" 
d="M44 524h187v-78h2q20 45 67 69t97 24q113 0 173.5 -78.5t60.5 -194.5q0 -74 -21.5 -130.5t-57.5 -88t-78 -47t-88 -15.5q-81 0 -134 67v-230h-208v702zM333 144q41 0 65.5 32.5t24.5 86.5q0 61 -24 91.5t-67 30.5q-37 0 -60.5 -32.5t-23.5 -85.5q0 -56 22.5 -89.5
t62.5 -33.5z" />
    <glyph glyph-name="q" unicode="q" 
d="M413 263q0 49 -20.5 85t-65.5 36q-47 0 -69.5 -34t-22.5 -83q0 -125 92 -125q42 0 64 38t22 83zM616 524v-702h-208v229q-31 -38 -66 -52t-88 -14q-94 0 -160.5 75.5t-66.5 208.5q0 110 62 190t169 80q122 0 169 -93h2v78h187z" />
    <glyph glyph-name="r" unicode="r" horiz-adv-x="444" 
d="M52 0v524h189v-106h2q43 121 161 121l27 -3v-208q-42 6 -43 6q-66 0 -97 -35t-31 -118v-181h-208z" />
    <glyph glyph-name="s" unicode="s" horiz-adv-x="611" 
d="M33 163h198q0 -31 22 -48q21 -16 51 -16q66 0 66 47q0 19 -24 31.5t-59.5 18t-77 16t-77 25.5t-59.5 48t-24 81t23 83.5t61 54t79 27t85 8.5q246 0 260 -165h-189q-3 24 -20 38q-16 13 -42 13q-59 0 -59 -37q0 -19 34 -31t82.5 -22t97.5 -25.5t83 -51t34 -90.5
q0 -85 -71 -134t-211 -49q-49 0 -91 8.5t-81 27.5t-63 55t-28 87z" />
    <glyph glyph-name="t" unicode="t" horiz-adv-x="444" 
d="M394 149v-149q-74 -4 -118 -4.5t-82 6t-56 17.5t-31 35t-16 53t-3 78v219h-74v120h77v163h205v-163h100v-120h-100v-190q0 -38 11.5 -51.5t53.5 -13.5h33z" />
    <glyph glyph-name="u" unicode="u" 
d="M618 524v-524h-193v77q-38 -53 -80 -72.5t-109 -19.5q-88 0 -138 55t-50 165v319h208v-283q0 -52 18 -73.5t57 -21.5q43 0 61 31t18 95v252h208z" />
    <glyph glyph-name="v" unicode="v" horiz-adv-x="611" 
d="M192 0l-182 524h208l92 -331l91 331h200l-177 -524h-232z" />
    <glyph glyph-name="w" unicode="w" horiz-adv-x="944" 
d="M563 524l80 -324h2l81 324h197l-167 -524h-203l-81 307h-2l-73 -307h-203l-173 524h203l80 -324h2l81 324h176z" />
    <glyph glyph-name="x" unicode="x" 
d="M27 0l188 274l-173 250h231l66 -131l70 131h228l-179 -249l181 -275h-232l-74 150l-76 -150h-230z" />
    <glyph glyph-name="y" unicode="y" horiz-adv-x="611" 
d="M215 524l92 -323l91 323h200l-168 -489q-16 -48 -25.5 -72.5t-25.5 -54t-31.5 -41.5t-41.5 -25t-58.5 -16.5t-79.5 -3.5q-22 0 -54.5 2t-37.5 2v145q8 0 22 -0.5t21 -0.5q49 0 62 17t-3 60l-172 477h209z" />
    <glyph glyph-name="z" unicode="z" horiz-adv-x="556" 
d="M530 0h-504v139l237 233h-216v152h472v-145l-229 -227h240v-152z" />
    <glyph glyph-name="braceleft" unicode="{" horiz-adv-x="389" 
d="M292 129v-186q0 -52 16.5 -79.5t58.5 -39.5v-2q-39 -3 -71.5 -3.5t-58 2.5t-45 6.5t-34 12t-24.5 14.5t-16.5 19.5t-10 22.5t-5 26.5t-2 28.5t-0.5 32v176q0 55 -15 80.5t-60 37.5v2q42 11 58.5 38t16.5 79v200q0 29 2 47.5t9 37t19 27.5t31.5 18.5t48 11t67.5 4t90 -2.5
v-2q-43 -14 -59 -40.5t-16 -80.5v-201q0 -61 -17 -93t-65 -43v-2q48 -13 65 -44t17 -104z" />
    <glyph glyph-name="bar" unicode="|" horiz-adv-x="278" 
d="M79 750h119v-1000h-119v1000z" />
    <glyph glyph-name="braceright" unicode="}" horiz-adv-x="389" 
d="M289 165v-200q0 -29 -2 -47.5t-9 -37t-19 -27.5t-31.5 -18.5t-48 -11t-67.5 -4t-90 2.5v2q43 14 59 40.5t16 80.5v201q0 61 17 93t65 43v2q-48 13 -65 44t-17 104v186q0 52 -16.5 79.5t-58.5 39.5v2q39 3 71.5 3.5t58 -2.5t45 -6.5t34 -12t24.5 -14.5t16.5 -19.5
t10 -22.5t5 -26.5t2 -28.5t0.5 -32v-176q0 -55 15 -80.5t60 -37.5v-2q-42 -11 -58.5 -38t-16.5 -79z" />
    <glyph glyph-name="asciitilde" unicode="~" horiz-adv-x="660" 
d="M518 359l64 -73q-20 -31 -28 -42.5t-27.5 -34t-41 -31.5t-47.5 -9q-51 0 -115 33t-94 33q-11 0 -21.5 -4.5t-17 -9t-15 -15.5t-12 -16t-11.5 -19.5t-10 -17.5l-64 74q67 124 149 124q41 0 115 -33q76 -33 95 -33q12 0 22 4t19 14t14.5 16.5t14 21t11.5 18.5z" />
    <glyph glyph-name="uni00A0" unicode="&#xa0;" horiz-adv-x="333" 
 />
    <glyph glyph-name="exclamdown" unicode="&#xa1;" horiz-adv-x="333" 
d="M273 -193h-213v169l51 284h112l50 -284v-169zM270 330h-207v194h207v-194z" />
    <glyph glyph-name="cent" unicode="&#xa2;" 
d="M266 152l110 243q-21 9 -43 9q-48 0 -72.5 -37.5t-24.5 -99.5q0 -73 30 -115zM302 -15l-55 -132h-135l69 162q-69 31 -107.5 97.5t-38.5 145.5q0 143 85 212t217 69q23 0 71 -6l51 122h133l-69 -160q82 -54 98 -167h-200l-93 -208h21q71 14 80 85h199
q-15 -118 -94.5 -170t-231.5 -50z" />
    <glyph glyph-name="sterling" unicode="&#xa3;" 
d="M116 -1l-81 159q51 34 73 69.5t14 91.5h-89v90h60q-34 59 -34 103q0 58 24.5 101t66 67t89.5 35.5t103 11.5q283 0 289 -253h-190q-2 48 -23 71q-23 25 -69 25q-36 0 -59.5 -23t-15.5 -58q7 -22 30 -64l8 -16h104v-90h-92q-10 -68 -63 -109l-9 -7q4 0 20 2.5t24 2.5
q31 0 80 -10q12 -2 30.5 -7.5t33.5 -9t29 -3.5q45 0 95 46l80 -167q-26 -26 -73.5 -47.5t-81.5 -21.5q-56 0 -125 26q-5 2 -15.5 6t-14.5 5t-12.5 4t-12.5 4.5t-11 3.5t-11 3t-10.5 2t-11 1.5t-10.5 1t-12 0.5q-12 0 -22 -1t-20.5 -4t-16 -4.5t-17.5 -7.5t-15 -8t-18 -10.5
t-18 -10.5z" />
    <glyph glyph-name="currency" unicode="&#xa4;" horiz-adv-x="660" 
d="M76 137l44 44q-37 66 -37 128q0 70 37 131l-44 43l79 80l44 -44q63 38 129 38q73 0 134 -38l44 44l77 -80l-44 -43q38 -61 38 -130q0 -75 -38 -129l44 -44l-77 -79l-44 44q-65 -39 -129 -39q-74 0 -134 39l-44 -44zM330 187q52 0 87.5 36.5t35.5 86.5t-35.5 86.5
t-87.5 36.5t-87.5 -36.5t-35.5 -86.5t35.5 -86.5t87.5 -36.5z" />
    <glyph glyph-name="yen" unicode="&#xa5;" 
d="M336 476l105 244h227l-122 -240h122v-95h-173l-49 -95h222v-95h-231v-195h-208v195h-230v95h222l-49 95h-173v95h123l-123 240h231z" />
    <glyph glyph-name="brokenbar" unicode="&#xa6;" horiz-adv-x="278" 
d="M79 675h119v-350h-119v350zM79 175h119v-350h-119v350z" />
    <glyph glyph-name="section" unicode="&#xa7;" 
d="M259 260l140 -61q20 3 37 18.5t17 33.5q0 31 -32 45l-154 69q-22 -7 -38 -21t-16 -33q0 -18 11 -29t35 -22zM557 548h-157q-3 75 -67 75q-26 0 -46.5 -11t-20.5 -34q0 -21 18 -36.5t47 -26.5t63.5 -22.5t69.5 -28.5t64 -39t47 -58.5t18 -84.5q0 -104 -98 -148
q70 -54 70 -134q0 -74 -66 -122.5t-159 -48.5q-101 0 -166.5 47.5t-69.5 145.5h155q3 -35 20 -55q19 -22 54 -22q74 0 74 48q0 20 -18.5 35t-48 25t-65 20.5t-71 26.5t-65 38t-48 60t-18.5 88q0 52 29.5 90t73.5 54q-68 56 -68 139q0 58 34.5 98t84.5 56t110 16
q88 0 147.5 -43.5t69.5 -127.5q3 -9 3 -20z" />
    <glyph glyph-name="dieresis" unicode="&#xa8;" horiz-adv-x="333" 
d="M199 596v130h169v-130h-169zM140 596h-169v130h169v-130z" />
    <glyph glyph-name="copyright" unicode="&#xa9;" horiz-adv-x="800" 
d="M400 -19q-158 0 -268.5 110.5t-110.5 268.5t110.5 268.5t268.5 110.5t268.5 -110.5t110.5 -268.5t-110.5 -268.5t-268.5 -110.5zM400 71q122 0 200.5 81t78.5 208t-78.5 208t-200.5 81q-123 0 -201 -81t-78 -208t78 -208t201 -81zM593 439h-86q-6 33 -31.5 51t-62.5 18
q-54 0 -83 -41t-29 -102q0 -58 31.5 -102.5t83.5 -44.5q35 0 62 20.5t29 53.5h86q-8 -67 -58.5 -107t-118.5 -40q-94 0 -152 62.5t-58 155.5q0 96 56.5 157.5t151.5 61.5q69 0 118 -38.5t61 -104.5z" />
    <glyph glyph-name="ordfeminine" unicode="&#xaa;" horiz-adv-x="400" 
d="M398 416h-139l-7 34q-50 -43 -128 -43q-52 0 -87 24t-35 71q0 40 25 63t60.5 30.5t71.5 10.5t61 10t25 23q0 25 -44 25t-48 -30h-130q0 51 43 77q47 28 143 28q47 0 79.5 -7t50.5 -17t27.5 -28.5t11.5 -35t2 -42.5v-147q0 -26 18 -37v-9zM185 478q65 0 60 77
q-9 -4 -39.5 -10t-49.5 -15.5t-19 -25.5q0 -11 14 -18.5t34 -7.5z" />
    <glyph glyph-name="guillemotleft" unicode="&#xab;" 
d="M303 64l-183 118v146l183 120v-131l-101 -65l101 -59v-129zM547 64l-183 118v146l183 120v-131l-101 -65l101 -59v-129z" />
    <glyph glyph-name="logicalnot" unicode="&#xac;" horiz-adv-x="660" 
d="M466 120v176h-388v116h504v-292h-116z" />
    <glyph glyph-name="uni00AD" unicode="&#xad;" horiz-adv-x="333" 
d="M300 165h-268v182h268v-182z" />
    <glyph glyph-name="registered" unicode="&#xae;" horiz-adv-x="800" 
d="M400 -19q-158 0 -268.5 111t-110.5 268t110.5 268t268.5 111q157 0 268 -111t111 -268t-111 -268t-268 -111zM400 71q122 0 200.5 81t78.5 208t-78.5 208t-200.5 81q-123 0 -201 -81t-78 -208t78 -208t201 -81zM489 327l99 -173h-99l-91 173h-68v-173h-86v409h198
q83 0 121 -27.5t38 -97.5q0 -55 -28 -81t-84 -30zM330 388h113q38 -1 58 12t20 49q0 18 -7.5 29.5t-24 15.5t-27.5 5t-32 1h-7h-93v-112z" />
    <glyph glyph-name="macron" unicode="&#xaf;" horiz-adv-x="333" 
d="M358 619h-377v90h377v-90z" />
    <glyph glyph-name="degree" unicode="&#xb0;" horiz-adv-x="400" 
d="M350 565q0 -62 -44 -106t-106 -44t-106 44t-44 106q-1 61 43.5 105.5t106.5 44.5t106 -44.5t44 -105.5zM271 562q0 30 -21.5 52t-51.5 22t-50 -22t-19 -52q1 -31 20 -49.5t50 -18.5t51.5 18.5t20.5 49.5z" />
    <glyph glyph-name="plusminus" unicode="&#xb1;" horiz-adv-x="660" 
d="M272 442v161h116v-161h194v-116h-194v-168h-116v168h-194v116h194zM78 0v116h504v-116h-504z" />
    <glyph glyph-name="twosuperior" unicode="&#xb2;" horiz-adv-x="400" 
d="M180 412h213v-102h-386q-3 65 55 120q29 28 82.5 59.5t84 57t30.5 56.5q0 19 -16.5 30.5t-38.5 11.5q-67 0 -67 -81h-121q3 175 194 175q79 0 131.5 -34t52.5 -103q0 -25 -8.5 -45t-27.5 -37t-34 -26.5t-43 -25.5l-3 -1.5l-3 -1.5t-3 -2q-12 -7 -45 -24.5t-47 -26.5z" />
    <glyph glyph-name="threesuperior" unicode="&#xb3;" horiz-adv-x="400" 
d="M6 457h128q-2 -28 16 -46q18 -16 49 -16q28 0 44 14.5t16 34.5q0 17 -7.5 27.5t-23.5 14t-25.5 4.5t-27.5 1v73q31 -2 55.5 7.5t24.5 36.5q0 37 -53 37t-59 -45h-122q3 69 55 104t130 35q81 0 128.5 -32t47.5 -86q0 -60 -53 -84q66 -24 66 -88q0 -72 -54.5 -110
t-148.5 -38q-84 0 -135.5 40t-50.5 116z" />
    <glyph glyph-name="acute" unicode="&#xb4;" horiz-adv-x="333" 
d="M66 590l100 148h209l-172 -148h-137z" />
    <glyph glyph-name="mu" unicode="&#xb5;" 
d="M618 0h-193v77q-38 -52 -77.5 -71.5t-91.5 -17.5v-166h-208v702h208v-283q0 -52 18 -73.5t57 -21.5q43 0 61 31t18 95v252h208v-524z" />
    <glyph glyph-name="paragraph" unicode="&#xb6;" horiz-adv-x="850" 
d="M410 556v-734h-164v549q-87 0 -139.5 46t-52.5 125q0 100 64 139t181 39h408v-164h-50v-734h-164v734h-83z" />
    <glyph glyph-name="periodcentered" unicode="&#xb7;" horiz-adv-x="333" 
d="M166 126q-53 0 -91.5 38.5t-38.5 91.5t38.5 91.5t91.5 38.5t91.5 -38.5t38.5 -91.5t-38.5 -91.5t-91.5 -38.5z" />
    <glyph glyph-name="cedilla" unicode="&#xb8;" horiz-adv-x="333" 
d="M28 -204l21 46q9 -2 26.5 -8t31.5 -9t27 -3q25 0 40 11q21 16 9 39q-15 28 -55 20q-11 -2 -24 -8l-25 24l55 92h58l-39 -64q14 6 60 2q34 -3 57.5 -30.5t13.5 -61.5q-11 -37 -47 -57.5t-78 -20.5q-54 0 -131 28z" />
    <glyph glyph-name="onesuperior" unicode="&#xb9;" horiz-adv-x="400" 
d="M321 739v-429h-135v247h-106v85q57 1 92 23t46 74h103z" />
    <glyph glyph-name="ordmasculine" unicode="&#xba;" horiz-adv-x="400" 
d="M201 655q-31 0 -45.5 -23.5t-14.5 -55.5q0 -42 16 -63.5t43 -21.5q59 0 59 85q0 35 -16 57.5t-42 21.5zM6 570q0 80 52.5 124.5t140.5 44.5q90 0 142.5 -44.5t52.5 -118.5q0 -83 -54 -126t-140 -43q-85 0 -139.5 42.5t-54.5 120.5z" />
    <glyph glyph-name="guillemotright" unicode="&#xbb;" 
d="M364 448l183 -118v-146l-183 -120v131l101 65l-101 59v129zM120 448l183 -118v-146l-183 -120v131l101 65l-101 59v129z" />
    <glyph glyph-name="onequarter" unicode="&#xbc;" horiz-adv-x="1000" 
d="M563 88v100l214 235h126v-242h57v-93h-57v-88h-129v88h-211zM774 310l-109 -129h109v129zM281 739v-429h-135v247h-106v85q57 1 92 23t46 74h103zM331 -15h-98l403 730h98z" />
    <glyph glyph-name="onehalf" unicode="&#xbd;" horiz-adv-x="1000" 
d="M281 739v-429h-135v247h-106v85q57 1 92 23t46 74h103zM746 102h213v-102h-386q-3 65 55 120q29 28 82.5 59.5t84 57t30.5 56.5q0 19 -16.5 30.5t-38.5 11.5q-67 0 -67 -81h-121q3 175 194 175q79 0 131.5 -34t52.5 -103q0 -25 -8.5 -45t-27.5 -37t-34 -26.5t-43 -25.5
q-6 -3 -9 -5q-12 -7 -45 -24.5t-47 -26.5zM291 -15h-98l403 730h98z" />
    <glyph glyph-name="threequarters" unicode="&#xbe;" horiz-adv-x="1000" 
d="M563 88v100l214 235h126v-242h57v-93h-57v-88h-129v88h-211zM774 310l-109 -129h109v129zM371 -15h-98l403 730h98zM40 433h128q-2 -29 16 -46q18 -16 49 -16q28 0 44 14.5t16 34.5q0 17 -7.5 27.5t-23.5 14t-25.5 4.5t-27.5 1v73q31 -2 55.5 7.5t24.5 36.5q0 37 -53 37
t-59 -45h-122q3 69 55 104t130 35q81 0 128.5 -32t47.5 -86q0 -60 -53 -84q66 -24 66 -88q0 -72 -54.5 -110t-148.5 -38q-84 0 -135.5 40t-50.5 116z" />
    <glyph glyph-name="questiondown" unicode="&#xbf;" horiz-adv-x="611" 
d="M224 254h184q4 -55 -7 -93.5t-29.5 -56t-41.5 -31t-43.5 -21t-34.5 -22.5t-14 -38q0 -29 21.5 -43.5t52.5 -14.5q67 0 65 83h207q-6 -114 -86 -173.5t-198 -59.5q-120 0 -195 53t-75 151q0 35 12 62.5t30 44t40.5 30.5t43.5 25.5t38 25t25.5 33t4.5 45.5zM418 329h-206
v195h206v-195z" />
    <glyph glyph-name="Agrave" unicode="&#xc0;" horiz-adv-x="778" 
d="M463 245l-76 258l-73 -258h149zM242 0h-231l258 720h240l258 -720h-235l-28 95h-235zM187 934h208l100 -148h-137z" />
    <glyph glyph-name="Aacute" unicode="&#xc1;" horiz-adv-x="778" 
d="M463 245l-76 258l-73 -258h149zM242 0h-231l258 720h240l258 -720h-235l-28 95h-235zM289 786l100 148h209l-172 -148h-137z" />
    <glyph glyph-name="Acircumflex" unicode="&#xc2;" horiz-adv-x="778" 
d="M463 245l-76 258l-73 -258h149zM242 0h-231l258 720h240l258 -720h-235l-28 95h-235zM189 786l121 148h164l122 -148h-148l-56 76l-56 -76h-147z" />
    <glyph glyph-name="Atilde" unicode="&#xc3;" horiz-adv-x="778" 
d="M463 245l-76 258l-73 -258h149zM242 0h-231l258 720h240l258 -720h-235l-28 95h-235zM508 925h80q-8 -59 -38.5 -96t-86.5 -37q-42 0 -97 24q-20 9 -35.5 11.5t-24 0.5t-15.5 -10t-9.5 -14t-6.5 -18h-79q7 56 38.5 98.5t84.5 42.5q22 0 41 -5t44.5 -15.5t39.5 -14.5
q26 -8 43.5 3.5t20.5 29.5z" />
    <glyph glyph-name="Adieresis" unicode="&#xc4;" horiz-adv-x="778" 
d="M463 245l-76 258l-73 -258h149zM242 0h-231l258 720h240l258 -720h-235l-28 95h-235zM422 792v130h169v-130h-169zM363 792h-169v130h169v-130z" />
    <glyph glyph-name="Aring" unicode="&#xc5;" horiz-adv-x="778" 
d="M463 245l-76 258l-73 -258h149zM242 0h-231l258 720h240l258 -720h-235l-28 95h-235zM390 789q-46 0 -79.5 33t-33.5 79t33.5 79t79.5 33t79 -33t33 -79t-33 -79t-79 -33zM390 953q-21 0 -37 -15.5t-16 -36.5t16 -36.5t37 -15.5t36.5 16t15.5 36t-15.5 36t-36.5 16z" />
    <glyph glyph-name="AE" unicode="&#xc6;" horiz-adv-x="1000" 
d="M395 552l-86 -298h150v298h-64zM459 0v104h-194l-31 -104h-231l240 720h724v-168h-292v-103h241v-168h-241v-113h306v-168h-522z" />
    <glyph glyph-name="Ccedilla" unicode="&#xc7;" horiz-adv-x="778" 
d="M743 445h-224q-5 56 -38.5 87t-89.5 31q-63 0 -98 -53.5t-35 -156.5q0 -57 9.5 -97t42.5 -69.5t90 -29.5q54 0 84 33t37 89h227q-16 -139 -108.5 -218.5t-235.5 -79.5h-1l-27 -45q14 6 60 2q34 -3 57.5 -30.5t13.5 -61.5q-11 -37 -47 -57.5t-78 -20.5q-54 0 -131 28
l21 46q9 -2 26.5 -8t31.5 -9t27 -3q25 0 40 11q21 16 9 39q-15 28 -55 20q-11 -2 -24 -8l-25 24l46 77q-153 15 -239.5 115t-86.5 261q0 171 102.5 274.5t256.5 103.5q163 0 255.5 -76.5t106.5 -217.5z" />
    <glyph glyph-name="Egrave" unicode="&#xc8;" horiz-adv-x="722" 
d="M677 0h-601v720h587v-168h-351v-103h297v-168h-297v-113h365v-168zM159 934h208l100 -148h-137z" />
    <glyph glyph-name="Eacute" unicode="&#xc9;" horiz-adv-x="722" 
d="M677 0h-601v720h587v-168h-351v-103h297v-168h-297v-113h365v-168zM261 786l100 148h209l-172 -148h-137z" />
    <glyph glyph-name="Ecircumflex" unicode="&#xca;" horiz-adv-x="722" 
d="M677 0h-601v720h587v-168h-351v-103h297v-168h-297v-113h365v-168zM161 786l121 148h164l122 -148h-148l-56 76l-56 -76h-147z" />
    <glyph glyph-name="Edieresis" unicode="&#xcb;" horiz-adv-x="722" 
d="M677 0h-601v720h587v-168h-351v-103h297v-168h-297v-113h365v-168zM394 792v130h169v-130h-169zM335 792h-169v130h169v-130z" />
    <glyph glyph-name="Igrave" unicode="&#xcc;" horiz-adv-x="389" 
d="M312 0h-236v720h236v-720zM-8 934h208l100 -148h-137z" />
    <glyph glyph-name="Iacute" unicode="&#xcd;" horiz-adv-x="389" 
d="M312 0h-236v720h236v-720zM94 786l100 148h209l-172 -148h-137z" />
    <glyph glyph-name="Icircumflex" unicode="&#xce;" horiz-adv-x="389" 
d="M312 0h-236v720h236v-720zM-6 786l121 148h164l122 -148h-148l-56 76l-56 -76h-147z" />
    <glyph glyph-name="Idieresis" unicode="&#xcf;" horiz-adv-x="389" 
d="M312 0h-236v720h236v-720zM227 792v130h169v-130h-169zM168 792h-169v130h169v-130z" />
    <glyph glyph-name="Eth" unicode="&#xd0;" horiz-adv-x="778" 
d="M301 552v-75h105v-198h-105v-111h50q170 0 170 194q0 110 -39 150t-136 40h-45zM65 477v243h316q179 0 277.5 -86t98.5 -259q0 -375 -382 -375h-310v279h-65v198h65z" />
    <glyph glyph-name="Ntilde" unicode="&#xd1;" horiz-adv-x="833" 
d="M290 720l257 -393l-9 164v229h226v-720h-221l-257 392l9 -164v-228h-226v720h221zM535 925h80q-8 -59 -38.5 -96t-86.5 -37q-42 0 -97 24q-20 9 -35.5 11.5t-24 0.5t-15.5 -10t-9.5 -14t-6.5 -18h-79q7 56 38.5 98.5t84.5 42.5q22 0 41 -5t44.5 -15.5t39.5 -14.5
q26 -8 43.5 3.5t20.5 29.5z" />
    <glyph glyph-name="Ograve" unicode="&#xd2;" horiz-adv-x="833" 
d="M414 563q-50 0 -83 -32t-44.5 -74t-11.5 -93q0 -38 6.5 -71.5t21.5 -65.5t44 -51t69 -19q73 0 107.5 56t34.5 151q0 83 -36 142t-108 57zM416 739q93 0 167 -31.5t119 -85t68.5 -119.5t23.5 -139q0 -179 -106.5 -281t-271.5 -102q-172 0 -274.5 102t-102.5 283
q0 169 104 271t273 102zM214 934h208l100 -148h-137z" />
    <glyph glyph-name="Oacute" unicode="&#xd3;" horiz-adv-x="833" 
d="M414 563q-50 0 -83 -32t-44.5 -74t-11.5 -93q0 -38 6.5 -71.5t21.5 -65.5t44 -51t69 -19q73 0 107.5 56t34.5 151q0 83 -36 142t-108 57zM416 739q93 0 167 -31.5t119 -85t68.5 -119.5t23.5 -139q0 -179 -106.5 -281t-271.5 -102q-172 0 -274.5 102t-102.5 283
q0 169 104 271t273 102zM316 786l100 148h209l-172 -148h-137z" />
    <glyph glyph-name="Ocircumflex" unicode="&#xd4;" horiz-adv-x="833" 
d="M414 563q-50 0 -83 -32t-44.5 -74t-11.5 -93q0 -38 6.5 -71.5t21.5 -65.5t44 -51t69 -19q73 0 107.5 56t34.5 151q0 83 -36 142t-108 57zM416 739q93 0 167 -31.5t119 -85t68.5 -119.5t23.5 -139q0 -179 -106.5 -281t-271.5 -102q-172 0 -274.5 102t-102.5 283
q0 169 104 271t273 102zM216 786l121 148h164l122 -148h-148l-56 76l-56 -76h-147z" />
    <glyph glyph-name="Otilde" unicode="&#xd5;" horiz-adv-x="833" 
d="M414 563q-50 0 -83 -32t-44.5 -74t-11.5 -93q0 -38 6.5 -71.5t21.5 -65.5t44 -51t69 -19q73 0 107.5 56t34.5 151q0 83 -36 142t-108 57zM416 739q93 0 167 -31.5t119 -85t68.5 -119.5t23.5 -139q0 -179 -106.5 -281t-271.5 -102q-172 0 -274.5 102t-102.5 283
q0 169 104 271t273 102zM535 925h80q-8 -59 -38.5 -96t-86.5 -37q-42 0 -97 24q-20 9 -35.5 11.5t-24 0.5t-15.5 -10t-9.5 -14t-6.5 -18h-79q7 56 38.5 98.5t84.5 42.5q22 0 41 -5t44.5 -15.5t39.5 -14.5q26 -8 43.5 3.5t20.5 29.5z" />
    <glyph glyph-name="Odieresis" unicode="&#xd6;" horiz-adv-x="833" 
d="M414 563q-50 0 -83 -32t-44.5 -74t-11.5 -93q0 -38 6.5 -71.5t21.5 -65.5t44 -51t69 -19q73 0 107.5 56t34.5 151q0 83 -36 142t-108 57zM416 739q93 0 167 -31.5t119 -85t68.5 -119.5t23.5 -139q0 -179 -106.5 -281t-271.5 -102q-172 0 -274.5 102t-102.5 283
q0 169 104 271t273 102zM449 792v130h169v-130h-169zM390 792h-169v130h169v-130z" />
    <glyph glyph-name="multiply" unicode="&#xd7;" horiz-adv-x="660" 
d="M330 172l-170 -169l-81 80l170 170l-170 170l81 82l170 -170l169 170l82 -82l-170 -169l170 -170l-82 -81z" />
    <glyph glyph-name="Oslash" unicode="&#xd8;" horiz-adv-x="833" 
d="M290 254l205 282q-32 27 -81 27q-50 0 -83 -32t-44.5 -74t-11.5 -93q0 -72 15 -110zM546 456l-203 -277q32 -22 73 -22q68 0 105 57t37 150q0 58 -12 92zM750 733l-68 -92q49 -42 80.5 -119t31.5 -158q0 -180 -106 -281.5t-272 -101.5q-113 0 -188 41l-71 -98l-73 48
l72 99q-117 102 -117 295q0 169 104 271t273 102q106 0 193 -46l66 91z" />
    <glyph glyph-name="Ugrave" unicode="&#xd9;" horiz-adv-x="833" 
d="M70 314v406h236v-431q0 -63 22.5 -97.5t88.5 -34.5q60 0 85 34.5t25 97.5v431h236v-407q0 -173 -83 -252.5t-263 -79.5q-174 0 -260.5 76.5t-86.5 256.5zM214 934h208l100 -148h-137z" />
    <glyph glyph-name="Uacute" unicode="&#xda;" horiz-adv-x="833" 
d="M70 314v406h236v-431q0 -63 22.5 -97.5t88.5 -34.5q60 0 85 34.5t25 97.5v431h236v-407q0 -173 -83 -252.5t-263 -79.5q-174 0 -260.5 76.5t-86.5 256.5zM316 786l100 148h209l-172 -148h-137z" />
    <glyph glyph-name="Ucircumflex" unicode="&#xdb;" horiz-adv-x="833" 
d="M70 314v406h236v-431q0 -63 22.5 -97.5t88.5 -34.5q60 0 85 34.5t25 97.5v431h236v-407q0 -173 -83 -252.5t-263 -79.5q-174 0 -260.5 76.5t-86.5 256.5zM216 786l121 148h164l122 -148h-148l-56 76l-56 -76h-147z" />
    <glyph glyph-name="Udieresis" unicode="&#xdc;" horiz-adv-x="833" 
d="M70 314v406h236v-431q0 -63 22.5 -97.5t88.5 -34.5q60 0 85 34.5t25 97.5v431h236v-407q0 -173 -83 -252.5t-263 -79.5q-174 0 -260.5 76.5t-86.5 256.5zM449 792v130h169v-130h-169zM390 792h-169v130h169v-130z" />
    <glyph glyph-name="Yacute" unicode="&#xdd;" horiz-adv-x="778" 
d="M507 266v-266h-236v262l-268 458h264l124 -244l124 244h260zM289 786l100 148h209l-172 -148h-137z" />
    <glyph glyph-name="Thorn" unicode="&#xde;" horiz-adv-x="722" 
d="M293 292h98q95 0 95 84q0 76 -126 76h-67v-160zM293 0h-236v720h236v-100h111q152 0 229.5 -64.5t77.5 -178.5q0 -120 -74 -186.5t-225 -66.5h-119v-124z" />
    <glyph glyph-name="germandbls" unicode="&#xdf;" 
d="M311 338v114q79 -2 79 72q0 33 -17 54t-51 21q-19 0 -32.5 -6.5t-20 -14t-9.5 -24t-3.5 -26.5t-0.5 -32v-496h-208v489q0 250 276 250q117 0 189 -48.5t72 -138.5q0 -100 -89 -142q71 -27 101 -72.5t30 -121.5q0 -109 -67 -170t-165 -61q-43 0 -86 9v129q60 -10 85 16
t25 87q0 58 -25 85.5t-83 26.5z" />
    <glyph glyph-name="agrave" unicode="&#xe0;" 
d="M634 0h-215l-10 56q-76 -71 -197 -71q-80 0 -133.5 40.5t-53.5 117.5q0 56 27.5 92.5t69 50.5t90 23t90 12t69 15.5t27.5 34.5q0 43 -68 43q-67 0 -73 -51h-200q0 86 68 131t218 45q61 0 105.5 -7t73 -22t46 -32t25.5 -45t10.5 -51t2.5 -60v-245q0 -26 4.5 -39t23.5 -28
v-10zM306 103q52 0 74 35.5t18 93.5q-23 -11 -68 -20t-67.5 -22t-22.5 -43q0 -20 18 -32t48 -12zM131 738h208l100 -148h-137z" />
    <glyph glyph-name="aacute" unicode="&#xe1;" 
d="M634 0h-215l-10 56q-76 -71 -197 -71q-80 0 -133.5 40.5t-53.5 117.5q0 56 27.5 92.5t69 50.5t90 23t90 12t69 15.5t27.5 34.5q0 43 -68 43q-67 0 -73 -51h-200q0 86 68 131t218 45q61 0 105.5 -7t73 -22t46 -32t25.5 -45t10.5 -51t2.5 -60v-245q0 -26 4.5 -39t23.5 -28
v-10zM306 103q52 0 74 35.5t18 93.5q-23 -11 -68 -20t-67.5 -22t-22.5 -43q0 -20 18 -32t48 -12zM233 590l100 148h209l-172 -148h-137z" />
    <glyph glyph-name="acircumflex" unicode="&#xe2;" 
d="M634 0h-215l-10 56q-76 -71 -197 -71q-80 0 -133.5 40.5t-53.5 117.5q0 56 27.5 92.5t69 50.5t90 23t90 12t69 15.5t27.5 34.5q0 43 -68 43q-67 0 -73 -51h-200q0 86 68 131t218 45q61 0 105.5 -7t73 -22t46 -32t25.5 -45t10.5 -51t2.5 -60v-245q0 -26 4.5 -39t23.5 -28
v-10zM306 103q52 0 74 35.5t18 93.5q-23 -11 -68 -20t-67.5 -22t-22.5 -43q0 -20 18 -32t48 -12zM133 590l121 148h164l122 -148h-148l-56 76l-56 -76h-147z" />
    <glyph glyph-name="atilde" unicode="&#xe3;" 
d="M634 0h-215l-10 56q-76 -71 -197 -71q-80 0 -133.5 40.5t-53.5 117.5q0 56 27.5 92.5t69 50.5t90 23t90 12t69 15.5t27.5 34.5q0 43 -68 43q-67 0 -73 -51h-200q0 86 68 131t218 45q61 0 105.5 -7t73 -22t46 -32t25.5 -45t10.5 -51t2.5 -60v-245q0 -26 4.5 -39t23.5 -28
v-10zM306 103q52 0 74 35.5t18 93.5q-23 -11 -68 -20t-67.5 -22t-22.5 -43q0 -20 18 -32t48 -12zM452 729h80q-8 -59 -38.5 -96t-86.5 -37q-42 0 -97 24q-20 9 -35.5 11.5t-24 0.5t-15.5 -10t-9.5 -14t-6.5 -18h-79q7 56 38.5 98.5t84.5 42.5q22 0 41 -5t44.5 -15.5
t39.5 -14.5q26 -8 43.5 3.5t20.5 29.5z" />
    <glyph glyph-name="adieresis" unicode="&#xe4;" 
d="M634 0h-215l-10 56q-76 -71 -197 -71q-80 0 -133.5 40.5t-53.5 117.5q0 56 27.5 92.5t69 50.5t90 23t90 12t69 15.5t27.5 34.5q0 43 -68 43q-67 0 -73 -51h-200q0 86 68 131t218 45q61 0 105.5 -7t73 -22t46 -32t25.5 -45t10.5 -51t2.5 -60v-245q0 -26 4.5 -39t23.5 -28
v-10zM306 103q52 0 74 35.5t18 93.5q-23 -11 -68 -20t-67.5 -22t-22.5 -43q0 -20 18 -32t48 -12zM366 596v130h169v-130h-169zM307 596h-169v130h169v-130z" />
    <glyph glyph-name="aring" unicode="&#xe5;" 
d="M634 0h-215l-10 56q-76 -71 -197 -71q-80 0 -133.5 40.5t-53.5 117.5q0 56 27.5 92.5t69 50.5t90 23t90 12t69 15.5t27.5 34.5q0 43 -68 43q-67 0 -73 -51h-200q0 86 68 131t218 45q61 0 105.5 -7t73 -22t46 -32t25.5 -45t10.5 -51t2.5 -60v-245q0 -26 4.5 -39t23.5 -28
v-10zM306 103q52 0 74 35.5t18 93.5q-23 -11 -68 -20t-67.5 -22t-22.5 -43q0 -20 18 -32t48 -12zM334 593q-46 0 -79.5 33t-33.5 79t33.5 79t79.5 33t79 -33t33 -79t-33 -79t-79 -33zM334 757q-21 0 -37 -15.5t-16 -36.5t16 -36.5t37 -15.5t36.5 16t15.5 36t-15.5 36
t-36.5 16z" />
    <glyph glyph-name="ae" unicode="&#xe6;" horiz-adv-x="1000" 
d="M314 206q-68 -14 -68 -54q0 -23 17 -36t41 -13q59 0 83 33t19 98q-26 -14 -92 -28zM578 321h180q-1 39 -24.5 65t-64.5 26q-42 0 -64.5 -25.5t-26.5 -65.5zM284 317l51 6q73 11 73 45q0 28 -19 36t-59 8q-64 0 -70 -50h-195q4 86 77 131.5t177 45.5q131 0 197 -57
q63 57 168 57q91 0 156.5 -47.5t93 -120t22.5 -156.5h-377q-2 -45 21.5 -74t69.5 -29q65 0 82 44h189q-29 -93 -102 -134q-68 -37 -183 -37q-59 0 -103.5 20.5t-69.5 51.5q-98 -72 -226 -72q-103 0 -161 39.5t-58 121.5q0 33 10 59t29.5 43t40.5 29t53 20t55.5 12t57.5 8z
" />
    <glyph glyph-name="ccedilla" unicode="&#xe7;" 
d="M618 324h-211q-1 33 -22 54q-19 21 -54 21q-91 0 -91 -143q0 -61 23 -96t68 -35q70 0 81 78h210q-12 -108 -86 -160.5t-185 -56.5l-31 -50q14 6 60 2q34 -3 57.5 -30.5t13.5 -61.5q-11 -37 -47 -57.5t-78 -20.5q-54 0 -131 28l21 46q9 -2 26.5 -8t31.5 -9t27 -3
q25 0 40 11q21 16 9 39q-15 28 -55 20q-11 -2 -24 -8l-25 24l48 80q-117 9 -189.5 79.5t-72.5 189.5q0 131 83 206.5t216 75.5q115 0 195.5 -53t91.5 -162z" />
    <glyph glyph-name="egrave" unicode="&#xe8;" 
d="M239 321h189q0 36 -27.5 63.5t-64.5 27.5q-46 0 -71.5 -24.5t-25.5 -66.5zM636 215h-397q0 -45 30 -74t73 -29q56 0 78 46h199q-25 -90 -106 -131.5t-184 -41.5q-131 0 -214.5 72t-83.5 200q0 127 84.5 204.5t212.5 77.5q144 0 227 -90t81 -234zM131 738h208l100 -148
h-137z" />
    <glyph glyph-name="eacute" unicode="&#xe9;" 
d="M239 321h189q0 36 -27.5 63.5t-64.5 27.5q-46 0 -71.5 -24.5t-25.5 -66.5zM636 215h-397q0 -45 30 -74t73 -29q56 0 78 46h199q-25 -90 -106 -131.5t-184 -41.5q-131 0 -214.5 72t-83.5 200q0 127 84.5 204.5t212.5 77.5q144 0 227 -90t81 -234zM233 590l100 148h209
l-172 -148h-137z" />
    <glyph glyph-name="ecircumflex" unicode="&#xea;" 
d="M239 321h189q0 36 -27.5 63.5t-64.5 27.5q-46 0 -71.5 -24.5t-25.5 -66.5zM636 215h-397q0 -45 30 -74t73 -29q56 0 78 46h199q-25 -90 -106 -131.5t-184 -41.5q-131 0 -214.5 72t-83.5 200q0 127 84.5 204.5t212.5 77.5q144 0 227 -90t81 -234zM133 590l121 148h164
l122 -148h-148l-56 76l-56 -76h-147z" />
    <glyph glyph-name="edieresis" unicode="&#xeb;" 
d="M239 321h189q0 36 -27.5 63.5t-64.5 27.5q-46 0 -71.5 -24.5t-25.5 -66.5zM636 215h-397q0 -45 30 -74t73 -29q56 0 78 46h199q-25 -90 -106 -131.5t-184 -41.5q-131 0 -214.5 72t-83.5 200q0 127 84.5 204.5t212.5 77.5q144 0 227 -90t81 -234zM366 596v130h169v-130
h-169zM307 596h-169v130h169v-130z" />
    <glyph glyph-name="igrave" unicode="&#xec;" horiz-adv-x="333" 
d="M270 0h-208v524h208v-524zM-36 738h208l100 -148h-137z" />
    <glyph glyph-name="iacute" unicode="&#xed;" horiz-adv-x="333" 
d="M270 0h-208v524h208v-524zM66 590l100 148h209l-172 -148h-137z" />
    <glyph glyph-name="icircumflex" unicode="&#xee;" horiz-adv-x="333" 
d="M270 0h-208v524h208v-524zM-34 590l121 148h164l122 -148h-148l-56 76l-56 -76h-147z" />
    <glyph glyph-name="idieresis" unicode="&#xef;" horiz-adv-x="333" 
d="M270 0h-208v524h208v-524zM199 596v130h169v-130h-169zM140 596h-169v130h169v-130z" />
    <glyph glyph-name="eth" unicode="&#xf0;" 
d="M335 399q-48 0 -70 -39.5t-22 -92.5q0 -72 24 -107t66 -35q90 0 90 142q0 59 -24 96.5t-64 35.5zM367 591l-73 -31l-43 56l71 30q-21 19 -53 41l123 52q26 -18 50 -42l68 29l48 -54l-67 -28q62 -75 101 -172.5t39 -204.5q0 -138 -82.5 -210t-215.5 -72
q-131 0 -214.5 70.5t-83.5 200.5q0 123 70.5 198.5t175.5 75.5q63 0 121 -32q-9 52 -35 93z" />
    <glyph glyph-name="ntilde" unicode="&#xf1;" 
d="M48 0v524h190v-82q72 97 177 97q203 0 203 -225v-314h-208v277q0 98 -73 98q-46 0 -63.5 -27t-17.5 -81v-267h-208zM452 729h80q-8 -59 -38.5 -96t-86.5 -37q-42 0 -97 24q-20 9 -35.5 11.5t-24 0.5t-15.5 -10t-9.5 -14t-6.5 -18h-79q7 56 38.5 98.5t84.5 42.5
q22 0 41 -5t44.5 -15.5t39.5 -14.5q26 -8 43.5 3.5t20.5 29.5z" />
    <glyph glyph-name="ograve" unicode="&#xf2;" 
d="M335 399q-48 0 -70 -39.5t-22 -92.5q0 -72 24 -107t66 -35q90 0 90 142q0 59 -24 96.5t-64 35.5zM35 256q0 134 81 208.5t216 74.5q138 0 218.5 -74.5t80.5 -197.5q0 -138 -82.5 -210t-215.5 -72q-131 0 -214.5 70.5t-83.5 200.5zM131 738h208l100 -148h-137z" />
    <glyph glyph-name="oacute" unicode="&#xf3;" 
d="M335 399q-48 0 -70 -39.5t-22 -92.5q0 -72 24 -107t66 -35q90 0 90 142q0 59 -24 96.5t-64 35.5zM35 256q0 134 81 208.5t216 74.5q138 0 218.5 -74.5t80.5 -197.5q0 -138 -82.5 -210t-215.5 -72q-131 0 -214.5 70.5t-83.5 200.5zM233 590l100 148h209l-172 -148h-137z
" />
    <glyph glyph-name="ocircumflex" unicode="&#xf4;" 
d="M335 399q-48 0 -70 -39.5t-22 -92.5q0 -72 24 -107t66 -35q90 0 90 142q0 59 -24 96.5t-64 35.5zM35 256q0 134 81 208.5t216 74.5q138 0 218.5 -74.5t80.5 -197.5q0 -138 -82.5 -210t-215.5 -72q-131 0 -214.5 70.5t-83.5 200.5zM133 590l121 148h164l122 -148h-148
l-56 76l-56 -76h-147z" />
    <glyph glyph-name="otilde" unicode="&#xf5;" 
d="M335 399q-48 0 -70 -39.5t-22 -92.5q0 -72 24 -107t66 -35q90 0 90 142q0 59 -24 96.5t-64 35.5zM35 256q0 134 81 208.5t216 74.5q138 0 218.5 -74.5t80.5 -197.5q0 -138 -82.5 -210t-215.5 -72q-131 0 -214.5 70.5t-83.5 200.5zM452 729h80q-8 -59 -38.5 -96t-86.5 -37
q-42 0 -97 24q-20 9 -35.5 11.5t-24 0.5t-15.5 -10t-9.5 -14t-6.5 -18h-79q7 56 38.5 98.5t84.5 42.5q22 0 41 -5t44.5 -15.5t39.5 -14.5q26 -8 43.5 3.5t20.5 29.5z" />
    <glyph glyph-name="odieresis" unicode="&#xf6;" 
d="M335 399q-48 0 -70 -39.5t-22 -92.5q0 -72 24 -107t66 -35q90 0 90 142q0 59 -24 96.5t-64 35.5zM35 256q0 134 81 208.5t216 74.5q138 0 218.5 -74.5t80.5 -197.5q0 -138 -82.5 -210t-215.5 -72q-131 0 -214.5 70.5t-83.5 200.5zM366 596v130h169v-130h-169zM307 596
h-169v130h169v-130z" />
    <glyph glyph-name="divide" unicode="&#xf7;" horiz-adv-x="660" 
d="M582 198h-504v116h504v-116zM388 7h-116v116h116v-116zM388 389h-116v116h116v-116z" />
    <glyph glyph-name="oslash" unicode="&#xf8;" 
d="M254 187l125 198q-18 14 -46 14q-33 0 -54 -22t-28.5 -50t-7.5 -60q0 -44 11 -80zM413 328l-120 -191q19 -12 40 -12q90 0 90 142q0 25 -10 61zM553 548l-37 -58q115 -71 115 -223q0 -138 -83 -210t-215 -72q-70 0 -124 20l-49 -77l-51 28l47 74q-121 67 -121 226
q0 134 81 208.5t216 74.5q70 0 130 -22l41 64z" />
    <glyph glyph-name="ugrave" unicode="&#xf9;" 
d="M618 524v-524h-193v77q-38 -53 -80 -72.5t-109 -19.5q-88 0 -138 55t-50 165v319h208v-283q0 -52 18 -73.5t57 -21.5q43 0 61 31t18 95v252h208zM131 738h208l100 -148h-137z" />
    <glyph glyph-name="uacute" unicode="&#xfa;" 
d="M618 524v-524h-193v77q-38 -53 -80 -72.5t-109 -19.5q-88 0 -138 55t-50 165v319h208v-283q0 -52 18 -73.5t57 -21.5q43 0 61 31t18 95v252h208zM233 590l100 148h209l-172 -148h-137z" />
    <glyph glyph-name="ucircumflex" unicode="&#xfb;" 
d="M618 524v-524h-193v77q-38 -53 -80 -72.5t-109 -19.5q-88 0 -138 55t-50 165v319h208v-283q0 -52 18 -73.5t57 -21.5q43 0 61 31t18 95v252h208zM133 590l121 148h164l122 -148h-148l-56 76l-56 -76h-147z" />
    <glyph glyph-name="udieresis" unicode="&#xfc;" 
d="M618 524v-524h-193v77q-38 -53 -80 -72.5t-109 -19.5q-88 0 -138 55t-50 165v319h208v-283q0 -52 18 -73.5t57 -21.5q43 0 61 31t18 95v252h208zM366 596v130h169v-130h-169zM307 596h-169v130h169v-130z" />
    <glyph glyph-name="yacute" unicode="&#xfd;" horiz-adv-x="611" 
d="M215 524l92 -323l91 323h200l-168 -489q-16 -48 -25.5 -72.5t-25.5 -54t-31.5 -41.5t-41.5 -25t-58.5 -16.5t-79.5 -3.5q-22 0 -54.5 2t-37.5 2v145q8 0 22 -0.5t21 -0.5q49 0 62 17t-3 60l-172 477h209zM205 590l100 148h209l-172 -148h-137z" />
    <glyph glyph-name="thorn" unicode="&#xfe;" 
d="M44 739h187v-293h2q20 45 67 69t97 24q113 0 173.5 -78.5t60.5 -194.5q0 -74 -21.5 -130.5t-57.5 -88t-78 -47t-88 -15.5q-81 0 -134 67v-230h-208v917zM333 144q41 0 65.5 32.5t24.5 86.5q0 61 -24 91.5t-67 30.5q-37 0 -60.5 -32.5t-23.5 -85.5q0 -56 22.5 -89.5
t62.5 -33.5z" />
    <glyph glyph-name="ydieresis" unicode="&#xff;" horiz-adv-x="611" 
d="M215 524l92 -323l91 323h200l-168 -489q-16 -48 -25.5 -72.5t-25.5 -54t-31.5 -41.5t-41.5 -25t-58.5 -16.5t-79.5 -3.5q-22 0 -54.5 2t-37.5 2v145q8 0 22 -0.5t21 -0.5q49 0 62 17t-3 60l-172 477h209zM338 596v130h169v-130h-169zM279 596h-169v130h169v-130z" />
    <glyph glyph-name="dotlessi" unicode="&#x131;" horiz-adv-x="333" 
d="M270 0h-208v524h208v-524z" />
    <glyph glyph-name="Lslash" unicode="&#x141;" 
d="M627 0h-551v315l-96 -50v135l96 50v270h236v-200l96 50v-135l-96 -50v-217h315v-168z" />
    <glyph glyph-name="lslash" unicode="&#x142;" horiz-adv-x="333" 
d="M270 370v-370h-208v290l-63 -60v130l63 60v300h208v-220l63 60v-130z" />
    <glyph glyph-name="OE" unicode="&#x152;" horiz-adv-x="1000" 
d="M487 0v64q-30 -41 -79 -62t-103 -21q-141 0 -220 98t-79 289q0 178 88 274.5t214 96.5t180 -85v66h480v-168h-292v-103h241v-168h-242v-113h306v-168h-494zM349 563q-123 0 -123 -222q0 -87 30 -135.5t89 -48.5q33 0 56.5 15t36 36.5t20 54t9 57t1.5 56.5q0 187 -119 187
z" />
    <glyph glyph-name="oe" unicode="&#x153;" horiz-adv-x="1000" 
d="M581 321h210q-1 41 -29 66t-74 25q-51 0 -78 -24.5t-29 -66.5zM960 215h-379q0 -46 24 -74.5t69 -28.5q33 0 55.5 11.5t26.5 32.5h189q-22 -88 -104 -133q-68 -38 -160 -38q-54 0 -95 18.5t-87 53.5q-59 -72 -189 -72q-129 0 -202 74t-73 198q0 139 79 210.5t197 71.5
q109 0 190 -57q89 57 187 57q91 0 156.5 -47.5t93 -120t22.5 -156.5zM332 399q-89 0 -89 -142q0 -29 3 -49t11.5 -40.5t27.5 -31.5t48 -11q27 0 45 12t26 34.5t10.5 42.5t2.5 47q0 67 -19 102.5t-66 35.5z" />
    <glyph glyph-name="Scaron" unicode="&#x160;" horiz-adv-x="722" 
d="M669 511h-224q-5 34 -34 49q-25 13 -61 13q-75 0 -75 -41q0 -22 23 -37t59.5 -25t80.5 -20t88 -26t80.5 -39t59.5 -63t23 -93q0 -121 -91.5 -184.5t-245.5 -63.5q-139 0 -227 70t-92 171h226q7 -38 39 -57q28 -18 67 -18q45 0 71.5 14t26.5 39q0 22 -23 37t-59.5 24.5
t-80.5 19t-88 26t-80.5 40t-59.5 65t-23 97.5q0 111 86 170.5t226 59.5q142 0 218 -63t90 -165zM420 934h148l-122 -148h-164l-121 148h147l56 -75z" />
    <glyph glyph-name="scaron" unicode="&#x161;" horiz-adv-x="611" 
d="M33 163h198q0 -31 22 -48q21 -16 51 -16q66 0 66 47q0 19 -24 31.5t-59.5 18t-77 16t-77 25.5t-59.5 48t-24 81t23 83.5t61 54t79 27t85 8.5q246 0 260 -165h-189q-3 24 -20 38q-16 13 -42 13q-59 0 -59 -37q0 -19 34 -31t82.5 -22t97.5 -25.5t83 -51t34 -90.5
q0 -85 -71 -134t-211 -49q-49 0 -91 8.5t-81 27.5t-63 55t-28 87zM364 738h148l-122 -148h-164l-121 148h147l56 -75z" />
    <glyph glyph-name="Ydieresis" unicode="&#x178;" horiz-adv-x="778" 
d="M507 266v-266h-236v262l-268 458h264l124 -244l124 244h260zM422 792v130h169v-130h-169zM363 792h-169v130h169v-130z" />
    <glyph glyph-name="Zcaron" unicode="&#x17d;" horiz-adv-x="722" 
d="M685 0h-649v171l345 381h-331v168h621v-167l-350 -385h364v-168zM420 934h148l-122 -148h-164l-121 148h147l56 -75z" />
    <glyph glyph-name="zcaron" unicode="&#x17e;" horiz-adv-x="556" 
d="M530 0h-504v139l237 233h-216v152h472v-145l-229 -227h240v-152zM337 738h148l-122 -148h-164l-121 148h147l56 -75z" />
    <glyph glyph-name="florin" unicode="&#x192;" 
d="M622 730l-21 -127q-38 10 -57 10q-31 0 -43.5 -10.5t-17.5 -41.5l-18 -95h110v-116h-129l-44 -254q-9 -58 -29 -128q-17 -58 -67 -102q-32 -27 -70 -40q-30 -10 -69 -10q-26 0 -119 19l22 127q5 -3 46 -13q35 -1 56 20.5t27 58.5l55 322h-107v116h126q21 115 36 152
q35 89 118 119q30 10 80 10q34 0 115 -17z" />
    <glyph glyph-name="circumflex" unicode="&#x2c6;" horiz-adv-x="333" 
d="M-34 590l121 148h164l122 -148h-148l-56 76l-56 -76h-147z" />
    <glyph glyph-name="caron" unicode="&#x2c7;" horiz-adv-x="333" 
d="M225 738h148l-122 -148h-164l-121 148h147l56 -75z" />
    <glyph glyph-name="uni02C9" unicode="&#x2c9;" horiz-adv-x="333" 
d="M358 619h-377v90h377v-90z" />
    <glyph glyph-name="breve" unicode="&#x2d8;" horiz-adv-x="333" 
d="M-12 743h79q5 -38 34 -50t73 -12q89 0 99 62h78q-3 -74 -55 -113.5t-128 -39.5q-169 0 -180 153z" />
    <glyph glyph-name="dotaccent" unicode="&#x2d9;" horiz-adv-x="333" 
d="M251 596h-169v130h169v-130z" />
    <glyph glyph-name="ring" unicode="&#x2da;" horiz-adv-x="333" 
d="M167 593q-46 0 -79.5 33t-33.5 79t33.5 79t79.5 33t79 -33t33 -79t-33 -79t-79 -33zM167 757q-21 0 -37 -15.5t-16 -36.5t16 -36.5t37 -15.5t36.5 16t15.5 36t-15.5 36t-36.5 16z" />
    <glyph glyph-name="ogonek" unicode="&#x2db;" horiz-adv-x="333" 
d="M156 0h83v-2q-56 -26 -56 -65q0 -19 14 -34t33 -15q14 0 48 12v-86q-43 -15 -89 -15q-49 0 -82.5 25.5t-33.5 73.5q0 22 15 44t29 33.5t39 28.5z" />
    <glyph glyph-name="tilde" unicode="&#x2dc;" horiz-adv-x="333" 
d="M285 729h80q-8 -59 -38.5 -96t-86.5 -37q-42 0 -97 24q-20 9 -35.5 11.5t-24 0.5t-15.5 -10t-9.5 -14t-6.5 -18h-79q7 56 38.5 98.5t84.5 42.5q22 0 41 -5t44.5 -15.5t39.5 -14.5q26 -8 43.5 3.5t20.5 29.5z" />
    <glyph glyph-name="hungarumlaut" unicode="&#x2dd;" horiz-adv-x="333" 
d="M66 590l100 148h209l-172 -148h-137zM318 590l100 148h209l-172 -148h-137z" />
    <glyph glyph-name="uni03A9" unicode="&#x3a9;" horiz-adv-x="850" 
d="M197 132v4q-59 42 -100.5 108t-41.5 153q0 132 103 224.5t268 92.5q167 0 267 -94t100 -220q0 -160 -145 -264v-4h159v-132h-338v101q144 86 144 265q0 91 -50.5 153t-135.5 62q-83 0 -136.5 -60.5t-53.5 -159.5q0 -92 40 -160.5t104 -99.5v-101h-340v132h156z" />
    <glyph glyph-name="uni03BC" unicode="&#x3bc;" 
d="M618 0h-193v77q-38 -52 -77.5 -71.5t-91.5 -17.5v-166h-208v702h208v-283q0 -52 18 -73.5t57 -21.5q43 0 61 31t18 95v252h208v-524z" />
    <glyph glyph-name="pi" unicode="&#x3c0;" horiz-adv-x="719" 
d="M692 393h-75v-225q0 -108 14 -168h-175q-20 28 -20 156v237h-132q-2 -93 -21 -212.5t-44 -180.5h-176q26 82 45 199t19 194q-76 0 -109 -9l-17 107q41 39 202 39h503z" />
    <glyph glyph-name="endash" unicode="&#x2013;" horiz-adv-x="500" 
d="M500 187h-500v138h500v-138z" />
    <glyph glyph-name="emdash" unicode="&#x2014;" horiz-adv-x="1000" 
d="M1000 187h-1000v138h1000v-138z" />
    <glyph glyph-name="quoteleft" unicode="&#x2018;" horiz-adv-x="278" 
d="M236 739v-81q-41 -6 -61 -30q-19 -23 -19 -67h80v-183h-183v158q-3 89 52 147t131 56z" />
    <glyph glyph-name="quoteright" unicode="&#x2019;" horiz-adv-x="278" 
d="M42 359v81q43 7 61 31q19 25 19 66h-80v183h183v-158q4 -89 -51.5 -146.5t-131.5 -56.5z" />
    <glyph glyph-name="quotesinglbase" unicode="&#x201a;" horiz-adv-x="278" 
d="M42 -178v81q43 7 61 31q19 25 19 66h-80v183h183v-158q4 -89 -51.5 -147t-131.5 -56z" />
    <glyph glyph-name="quotedblleft" unicode="&#x201c;" horiz-adv-x="500" 
d="M471 739v-81q-41 -6 -61 -30q-19 -23 -19 -67h80v-183h-183v158q-3 89 52 147t131 56zM224 739v-81q-41 -6 -61 -30q-19 -23 -19 -67h80v-183h-183v158q-3 89 52 147t131 56z" />
    <glyph glyph-name="quotedblright" unicode="&#x201d;" horiz-adv-x="500" 
d="M276 359v81q43 7 61 31q19 25 19 66h-80v183h183v-158q4 -89 -51.5 -146.5t-131.5 -56.5zM29 359v81q43 7 61 31q19 25 19 66h-80v183h183v-158q4 -89 -51.5 -146.5t-131.5 -56.5z" />
    <glyph glyph-name="quotedblbase" unicode="&#x201e;" horiz-adv-x="500" 
d="M276 -178v81q43 7 61 31q19 25 19 66h-80v183h183v-158q4 -89 -51.5 -147t-131.5 -56zM29 -178v81q43 7 61 31q19 25 19 66h-80v183h183v-158q4 -89 -51.5 -147t-131.5 -56z" />
    <glyph glyph-name="dagger" unicode="&#x2020;" 
d="M232 514v206h202v-206h150v-158h-150v-534h-202v534h-150v158h150z" />
    <glyph glyph-name="daggerdbl" unicode="&#x2021;" 
d="M82 540h150v180h192v-180h160v-158h-160v-218h160v-158h-160v-184h-192v184h-150v158h150v218h-150v158z" />
    <glyph glyph-name="bullet" unicode="&#x2022;" horiz-adv-x="500" 
d="M418 361q0 -70 -49.5 -119.5t-119.5 -49.5t-119 49.5t-49 119.5t49 119t119 49t119.5 -49t49.5 -119z" />
    <glyph glyph-name="ellipsis" unicode="&#x2026;" horiz-adv-x="1000" 
d="M273 0h-212v206h212v-206zM939 0h-212v206h212v-206zM606 0h-212v206h212v-206z" />
    <glyph glyph-name="perthousand" unicode="&#x2030;" horiz-adv-x="1000" 
d="M469 182q-18 0 -33 -14t-15 -33t15 -33t33 -14q19 0 33 14.5t14 32.5t-14 32.5t-33 14.5zM469 302q68 0 117.5 -49.5t49.5 -117.5q0 -70 -49.5 -118.5t-120.5 -48.5q-67 0 -116 50t-49 117q0 68 50.5 117.5t117.5 49.5zM840 302q68 0 117.5 -49.5t49.5 -117.5
q0 -70 -49.5 -118.5t-120.5 -48.5q-67 0 -116 50t-49 117q0 68 50.5 117.5t117.5 49.5zM840 182q-18 0 -33 -14t-15 -33t15 -33t33 -14q19 0 33 14.5t14 32.5t-14 32.5t-33 14.5zM161 751q68 0 117.5 -49.5t49.5 -117.5q0 -70 -49.5 -118.5t-120.5 -48.5q-67 0 -116 50
t-49 117q0 68 50.5 117.5t117.5 49.5zM161 631q-18 0 -33 -14.5t-15 -32.5t15 -32.5t33 -14.5q19 0 33 14.5t14 32.5t-14 32.5t-33 14.5zM481 738h85l-420 -758h-85z" />
    <glyph glyph-name="guilsinglleft" unicode="&#x2039;" horiz-adv-x="333" 
d="M258 64l-183 118v146l183 120v-131l-101 -65l101 -59v-129z" />
    <glyph glyph-name="guilsinglright" unicode="&#x203a;" horiz-adv-x="333" 
d="M75 448l183 -118v-146l-183 -120v131l101 65l-101 59v129z" />
    <glyph glyph-name="fraction" unicode="&#x2044;" horiz-adv-x="167" 
d="M-69 -15h-98l403 730h98z" />
    <glyph glyph-name="Euro" unicode="&#x20ac;" 
d="M496 222h-158q31 -81 126 -81q112 0 161 70v-171q-66 -55 -192 -55q-121 0 -198 64t-108 173h-123l37 88h75q-2 19 -2 57h-98l37 88h69q13 68 45 119.5t76 81.5t94 44.5t104 14.5q142 0 223 -88l-57 -141q-49 73 -148 73q-100 0 -125 -104h258l-36 -88h-233q-2 -38 0 -57
h209z" />
    <glyph glyph-name="afii61289" unicode="&#x2113;" horiz-adv-x="632" 
d="M535 217l73 -74q-90 -155 -267 -155q-174 0 -213 150q-1 3 -1 9q-48 -33 -53 -36l-47 87q15 11 47.5 33t48.5 34v220q0 142 59 213t163 71q90 0 136 -54t46 -135q0 -88 -57.5 -169t-175.5 -177l1 -27q3 -37 27.5 -59t62.5 -22q82 0 150 91zM294 518v-138q111 113 111 203
q0 73 -51 73q-25 0 -42.5 -32.5t-17.5 -105.5z" />
    <glyph glyph-name="trademark" unicode="&#x2122;" horiz-adv-x="950" 
d="M886 720v-404h-88v326h-2l-117 -326h-52l-117 326h-2v-326h-88v404h142l91 -239l91 239h142zM371 720v-78h-123v-326h-97v326h-123v78h343z" />
    <glyph glyph-name="Omega" unicode="&#x2126;" horiz-adv-x="850" 
d="M197 132v4q-59 42 -100.5 108t-41.5 153q0 132 103 224.5t268 92.5q167 0 267 -94t100 -220q0 -160 -145 -264v-4h159v-132h-338v101q144 86 144 265q0 91 -50.5 153t-135.5 62q-83 0 -136.5 -60.5t-53.5 -159.5q0 -92 40 -160.5t104 -99.5v-101h-340v132h156z" />
    <glyph glyph-name="estimated" unicode="&#x212e;" horiz-adv-x="880" 
d="M845 340h-657q-5 0 -5 -5v-198q0 -13 9 -23q103 -108 248 -108q77 0 144.5 32.5t116.5 88.5h59q-56 -65 -140.5 -103t-180.5 -38q-168 0 -286.5 106.5t-118.5 257.5t118.5 258t286.5 107q169 0 287.5 -107t118.5 -258v-10zM696 366v199q0 15 -10 24q-104 104 -246 104
t-247 -107q-10 -9 -10 -25v-195q0 -7 5 -7h504q4 0 4 7z" />
    <glyph glyph-name="partialdiff" unicode="&#x2202;" horiz-adv-x="680" 
d="M113 611l-50 117q96 64 230 64q147 0 244 -106.5t97 -284.5q0 -187 -95.5 -300t-249.5 -113q-63 0 -113.5 24t-80.5 61.5t-45.5 79t-15.5 81.5q0 115 70.5 190t182.5 75q63 0 107.5 -28t64.5 -58h1q1 5 1 24q0 89 -51.5 154.5t-139.5 65.5q-84 0 -157 -46zM308 122h1
q52 0 89 51t45 113q-8 28 -39.5 55.5t-75.5 27.5q-51 0 -84.5 -40.5t-33.5 -97.5q0 -46 28 -77.5t70 -31.5z" />
    <glyph glyph-name="Delta" unicode="&#x2206;" horiz-adv-x="773" 
d="M25 0v89l257 629h215l250 -628v-90h-722zM215 133h331l-110 275q-2 6 -24.5 70t-29.5 90h-5q-5 -18 -24 -74t-25 -73z" />
    <glyph glyph-name="product" unicode="&#x220f;" horiz-adv-x="838" 
d="M816 556h-117v-653h-173v653h-215v-653h-173v653h-117v146h795v-146z" />
    <glyph glyph-name="summation" unicode="&#x2211;" horiz-adv-x="655" 
d="M639 -97h-616v97l263 300l-251 290v112h581v-142h-340v-4l209 -235l-232 -266v-4h386v-148z" />
    <glyph glyph-name="minus" unicode="&#x2212;" horiz-adv-x="660" 
d="M78 198v116h504v-116h-504z" />
    <glyph glyph-name="uni2215" unicode="&#x2215;" horiz-adv-x="167" 
d="M-69 -15h-98l403 730h98z" />
    <glyph glyph-name="uni2219" unicode="&#x2219;" horiz-adv-x="333" 
d="M166 126q-53 0 -91.5 38.5t-38.5 91.5t38.5 91.5t91.5 38.5t91.5 -38.5t38.5 -91.5t-38.5 -91.5t-91.5 -38.5z" />
    <glyph glyph-name="radical" unicode="&#x221a;" horiz-adv-x="695" 
d="M719 842l-268 -988h-136l-174 431l-83 -33l-28 85l212 87l116 -313q18 -62 26 -88l2 -1q15 75 20 95l190 725h123z" />
    <glyph glyph-name="infinity" unicode="&#x221e;" horiz-adv-x="836" 
d="M786 291v-1q0 -87 -53 -139.5t-125 -52.5q-106 0 -191 118q-46 -58 -90.5 -88t-104.5 -30q-70 0 -122 52.5t-52 133.5q0 84 52.5 137t132.5 53q58 0 103 -28.5t88 -85.5q49 57 75 76q52 39 115 38q73 -1 122.5 -51.5t49.5 -131.5zM233 186h1q38 0 69 25t66 69
q-23 32 -31.5 43t-27.5 31t-37.5 27t-42.5 7q-40 0 -66 -28.5t-26 -75.5q0 -40 27.5 -69t67.5 -29zM605 388h-1q-10 0 -19.5 -2t-18.5 -6.5t-16.5 -8.5t-16.5 -12t-14.5 -12.5t-14.5 -15.5t-12.5 -14.5t-12.5 -15t-11 -13.5q45 -59 75.5 -80.5t66.5 -21.5q38 0 62 31t24 66
q0 46 -25 75.5t-66 29.5z" />
    <glyph glyph-name="integral" unicode="&#x222b;" horiz-adv-x="442" 
d="M429 862l-16 -107q-24 8 -42 8q-40 0 -58 -29q-26 -35 -26 -161q0 -80 9 -226.5t9 -242.5q0 -130 -38 -198q-47 -87 -158 -87q-62 0 -96 17l20 112q24 -10 49 -10q34 0 52 21q29 36 29 146q0 97 -9.5 248t-9.5 237q0 88 17 143t55 92q49 50 141 50q42 0 72 -13z" />
    <glyph glyph-name="approxequal" unicode="&#x2248;" horiz-adv-x="620" 
d="M522 478l60 -60q-34 -52 -76 -80.5t-84 -28.5q-34 0 -60 9t-66 32q-1 1 -10.5 6.5t-11.5 6.5t-10.5 5t-12 5.5t-10.5 4t-12 3.5t-12 2t-14 1q-22 0 -43.5 -12t-34 -25t-32.5 -37l-59 60q27 46 75 77.5t98 31.5q51 0 115 -36q28 -17 38.5 -22.5t26 -11t31.5 -5.5
q50 0 104 74zM522 271l60 -60q-72 -110 -162 -110q-51 0 -124 42q-59 33 -93 33q-33 0 -57 -18.5t-53 -55.5l-59 60q27 46 74.5 77.5t98.5 31.5q53 0 115 -35q6 -3 22.5 -13.5t24 -14.5t21.5 -8t27 -4q30 0 53 18t52 57z" />
    <glyph glyph-name="notequal" unicode="&#x2260;" horiz-adv-x="620" 
d="M463 532l-39 -86h144v-94h-183l-60 -133h243v-94h-283l-54 -122l-76 33l40 89h-143v94h183l59 133h-242v94h281l54 119z" />
    <glyph glyph-name="lessequal" unicode="&#x2264;" horiz-adv-x="620" 
d="M566 118l-511 230v101l510 230v-105l-411 -174v-2l412 -175v-105zM568 -15h-515v96h515v-96z" />
    <glyph glyph-name="greaterequal" unicode="&#x2265;" horiz-adv-x="620" 
d="M56 679l511 -230v-102l-510 -229v105l411 175v2l-412 174v105zM564 -15h-510v96h510v-96z" />
    <glyph glyph-name="lozenge" unicode="&#x25ca;" horiz-adv-x="694" 
d="M644 350l-232 -401h-134l-227 401l230 402h134zM493 347l-126 230q-15 33 -20 49h-2q-10 -29 -21 -49l-123 -224l126 -232q14 -31 18 -47h4q12 33 19 46z" />
    </font>
</defs>
</svg>
