<?xml version="1.0" encoding="UTF-8"?>
<svg xmlns="http://www.w3.org/2000/svg" xmlns:xlink="http://www.w3.org/1999/xlink" version="1.2" >
<font id="Maxwell SmCaps Light Italic">
<font-face  font-family="Maxwell SmCaps" units-per-em="1000" ascent="750" descent="-250" font-style="normal" font-weight="300" font-stretch="normal" cap-height="621" x-height="743" underline-position="-75" underline-thickness="50" />
<missing-glyph  horiz-adv-x="173" d="" />
<glyph glyph-name="space" unicode="&#x20;" horiz-adv-x="173" d="" />
<glyph glyph-name="exclam" unicode="&#x21;" horiz-adv-x="138" d="M39 -1 L81 -1 L90 46 L48 46 L39 -1 L39 -1 Z M214 814 L183 814 L67 156 L98 156 L214 814 L214 814 Z " />
<glyph glyph-name="quotedbl" unicode="&#x22;" horiz-adv-x="197" d="M224 725 L253 725 L272 810 L236 810 L224 725 L224 725 Z M179 725 L206 725 L226 810 L190 810 L179 725 L179 725 Z " />
<glyph glyph-name="numbersign" unicode="&#x23;" horiz-adv-x="574" d="M569 811 L537 811 L495 578 L292 578 L334 811 L303 811 L261 578 L141 578 L136 547 L256 547 L213 301 L93 301 L87 270 L207 270 L161 6 L192 6 L238 270 L441 270 L395 6 L427 6 L473 270 L573 270 L579 301 L479 301 L522 547 L622 547 L627 578 L527 578 L569 811 L569 811 Z M447 301 L244 301 L287 547 L490 547 L447 301 L447 301 Z " />
<glyph glyph-name="dollar" unicode="&#x24;" horiz-adv-x="414" d="M276 382 L334 712 C392 704 428 653 417 592 L450 592 C464 671 415 736 340 743 L359 851 L326 851 L307 743 C229 736 160 676 145 601 C124 493 183 428 240 367 L181 31 C124 38 88 89 99 150 L67 150 C53 72 102 7 175 -1 L157 -104 L190 -104 L208 -1 C292 5 353 59 371 143 C392 253 334 319 276 382 L276 382 Z M248 410 C200 463 162 517 176 601 C188 658 242 704 301 712 L248 410 L248 410 Z M338 144 C325 76 280 35 214 30 L268 340 C316 286 356 230 338 144 L338 144 Z " />
<glyph glyph-name="percent" unicode="&#x25;" horiz-adv-x="840" d="M425 564 L442 660 C457 743 410 810 336 810 C264 810 195 743 180 660 L163 564 C148 481 194 414 266 414 C340 414 410 481 425 564 L425 564 Z M272 445 C218 445 182 498 194 564 L211 660 C223 726 277 779 331 779 C387 779 422 726 410 660 L393 564 C381 498 328 445 272 445 L272 445 Z M565 403 C492 403 421 335 406 252 L389 157 C374 73 422 6 495 6 C567 6 637 73 652 157 L669 252 C684 335 637 403 565 403 L565 403 Z M621 157 C610 91 554 37 500 37 C445 37 411 91 422 157 L439 252 C451 318 504 371 559 371 C613 371 650 318 638 252 L621 157 L621 157 Z M604 805 L179 0 L210 0 L635 805 L604 805 L604 805 Z " />
<glyph glyph-name="ampersand" unicode="&#x26;" horiz-adv-x="527" d="M430 160 C460 238 494 359 511 455 L480 455 C464 366 433 251 404 176 C361 283 321 398 292 493 C321 523 344 548 362 565 C372 577 380 584 385 589 C452 666 450 724 443 750 C434 784 410 808 377 812 C352 816 326 808 300 788 C265 762 239 719 232 676 C225 640 237 575 257 497 C182 412 91 293 73 191 C64 137 72 91 96 58 C118 26 153 7 194 2 C239 -2 285 10 328 35 C355 52 379 74 397 101 C435 6 464 -64 469 -72 L499 -56 C475 -2 448 65 420 137 C423 144 427 152 430 160 L430 160 Z M263 676 C269 709 289 744 316 764 C327 773 342 781 359 781 C361 781 364 781 366 781 C389 778 406 761 412 738 C418 716 418 672 363 607 C359 604 350 595 341 586 C326 570 306 550 284 526 C266 593 258 647 263 676 L263 676 Z M204 35 C146 41 85 85 104 191 C120 280 198 384 267 464 C299 359 345 235 384 133 C339 56 262 28 204 35 L204 35 Z " />
<glyph glyph-name="quotesingle" unicode="&#x27;" horiz-adv-x="120" d="M171 727 L199 727 L219 812 L183 812 L171 727 L171 727 Z " />
<glyph glyph-name="parenleft" unicode="&#x28;" horiz-adv-x="268" d="M359 869 C328 869 353 869 321 869 C142 580 81 238 158 -52 C190 -52 165 -52 196 -52 C118 238 179 580 359 869 L359 869 Z " />
<glyph glyph-name="parenright" unicode="&#x29;" horiz-adv-x="241" d="M193 869 C271 580 210 238 30 -52 C61 -52 36 -52 68 -52 C247 238 308 580 231 869 C199 869 224 869 193 869 L193 869 Z " />
<glyph glyph-name="asterisk" unicode="&#x2a;" horiz-adv-x="306" d="M322 778 L268 749 L277 805 L245 805 L236 749 L192 778 L172 750 L216 722 L163 694 L173 666 L226 695 L216 638 L248 638 L258 695 L301 667 L321 695 L279 722 L332 750 L322 778 L322 778 Z " />
<glyph glyph-name="plus" unicode="&#x2b;" horiz-adv-x="372" d="M316 564 L285 564 L259 419 L113 419 L108 387 L254 387 L228 242 L259 242 L285 387 L432 387 L437 419 L290 419 L316 564 L316 564 Z " />
<glyph glyph-name="comma" unicode="&#x2c;" horiz-adv-x="132" d="M98 113 L59 113 L52 69 L70 69 L70 69 C66 48 54 51 54 51 L51 34 C84 34 91 69 91 69 L98 113 L98 113 Z " />
<glyph glyph-name="hyphen" unicode="&#x2d;" horiz-adv-x="356" d="M109 392 L413 392 L418 425 L114 425 L109 392 L109 392 Z " />
<glyph glyph-name="period" unicode="&#x2e;" horiz-adv-x="118" d="M52 71 L91 71 L99 118 L60 118 L52 71 L52 71 Z " />
<glyph glyph-name="slash" unicode="&#x2f;" horiz-adv-x="422" d="M502 804 L464 804 L39 -1 L76 -1 L502 804 L502 804 Z " />
<glyph glyph-name="zero" unicode="0" horiz-adv-x="484" d="M404 809 L347 809 C263 809 184 742 170 658 L80 151 C65 68 121 1 205 1 L262 1 C344 1 423 68 438 151 L528 658 C542 742 486 809 404 809 L404 809 Z M406 151 C394 85 331 32 267 32 L210 32 C144 32 99 85 111 151 L201 658 C212 724 276 778 342 778 L399 778 C463 778 507 724 496 658 L406 151 Z " />
<glyph glyph-name="one" unicode="1" horiz-adv-x="257" d="M273 809 L270 809 L183 732 L202 710 L266 766 L131 1 L162 1 L302 799 L304 809 L304 810 L273 810 L273 809 L273 809 Z " />
<glyph glyph-name="two" unicode="2" horiz-adv-x="432" d="M278 316 C364 398 453 485 477 628 C495 732 439 814 353 814 C267 814 181 725 162 616 L193 616 C209 707 279 782 347 782 C417 782 460 714 445 628 C423 496 343 419 258 336 C170 252 80 164 56 16 L54 1 L382 1 L387 32 L90 32 C117 160 195 235 278 316 L278 316 Z " />
<glyph glyph-name="three" unicode="3" horiz-adv-x="432" d="M285 569 L504 810 L196 810 L191 779 L437 779 L219 540 L250 540 C376 540 428 446 398 277 C385 202 360 138 327 94 C297 54 262 32 229 32 C161 32 119 107 135 198 L104 198 C85 89 139 1 224 1 C317 1 402 114 430 277 C461 451 409 556 285 569 L285 569 Z " />
<glyph glyph-name="four" unicode="4" horiz-adv-x="493" d="M474 810 L438 810 L107 302 L354 302 L299 -11 L330 -11 L385 302 L505 302 L511 335 L391 335 L474 810 L474 810 Z M360 335 L163 335 L433 751 L360 335 L360 335 Z " />
<glyph glyph-name="five" unicode="5" horiz-adv-x="430" d="M374 554 C337 586 280 592 207 571 L244 779 L493 779 L498 810 L218 810 L169 528 L190 535 C264 559 318 557 352 529 C396 493 409 409 387 287 C366 170 319 32 215 32 C174 32 141 59 126 103 C117 132 113 164 119 198 L88 198 C82 160 83 121 94 89 C113 34 157 1 210 1 C257 1 300 23 335 66 C373 114 401 188 418 287 C442 421 427 511 374 554 L374 554 Z " />
<glyph glyph-name="six" unicode="6" horiz-adv-x="383" d="M330 782 C390 782 428 722 415 648 L446 648 C462 739 413 814 336 814 C259 814 184 739 168 648 L120 376 L82 160 L81 155 C78 139 77 124 80 108 C86 42 130 -6 191 -6 C254 -6 314 42 344 108 C351 124 356 139 359 155 L398 376 C412 458 362 526 285 526 C242 526 200 504 167 470 L199 648 C212 722 271 782 330 782 L330 782 Z M280 494 C340 494 378 440 367 376 L329 160 C326 145 322 131 315 119 C294 71 247 36 199 36 C151 36 116 71 111 119 C111 131 110 145 113 160 L151 376 C162 440 221 494 280 494 L280 494 Z " />
<glyph glyph-name="seven" unicode="7" horiz-adv-x="437" d="M550 812 L197 812 L191 780 L510 780 C483 745 431 677 373 577 C298 446 201 254 157 1 L188 1 C231 248 326 436 400 564 C464 673 520 748 543 775 L550 812 L550 812 Z " />
<glyph glyph-name="eight" unicode="8" horiz-adv-x="424" d="M358 528 C410 551 453 602 463 662 C478 744 428 810 352 810 C275 810 203 744 188 662 C178 602 203 551 247 528 C185 508 133 451 122 386 L80 151 C65 68 121 1 205 1 L214 1 C298 1 376 68 391 151 L433 386 C444 451 412 508 358 528 L358 528 Z M219 662 C231 726 288 778 347 778 C405 778 444 726 432 662 C421 599 364 547 306 547 C247 547 208 599 219 662 L219 662 Z M360 151 C348 85 285 32 219 32 L210 32 C144 32 99 85 111 151 L153 386 C164 452 228 505 294 505 L303 505 C369 505 413 452 402 386 L360 151 L360 151 Z " />
<glyph glyph-name="nine" unicode="9" horiz-adv-x="388" d="M336 811 C336 811 336 811 336 811 L336 811 L336 811 C259 811 185 744 170 661 L133 450 C118 367 168 299 245 299 C288 299 331 320 363 354 L329 164 C317 91 258 32 198 32 C139 32 101 91 113 164 L82 164 C67 74 116 1 193 1 C270 1 345 74 360 164 L411 450 L446 648 L448 661 C463 744 413 811 336 811 L336 811 Z M380 450 C368 384 311 331 251 331 C192 331 152 384 164 450 L199 648 C212 721 271 780 330 780 C330 780 330 780 330 780 C390 780 428 721 415 648 L380 450 L380 450 Z " />
<glyph glyph-name="colon" unicode="&#x3a;" horiz-adv-x="138" d="M52 69 L91 69 L99 117 L60 117 L52 69 L52 69 Z M104 364 L143 364 L151 412 L112 412 L104 364 L104 364 Z " />
<glyph glyph-name="semicolon" unicode="&#x3b;" horiz-adv-x="139" d="M151 413 L112 413 L104 366 L143 366 L151 413 L151 413 Z M99 118 L60 118 L52 72 L70 72 L70 72 C67 53 55 54 55 54 L52 39 C85 39 91 72 91 72 L99 118 L99 118 Z " />
<glyph glyph-name="less" unicode="&#x3c;" horiz-adv-x="349" d="M273 88 L301 108 L172 394 L414 683 L392 702 L131 394 L273 88 Z " />
<glyph glyph-name="equal" unicode="&#x3d;" horiz-adv-x="356" d="M121 460 L425 460 L430 491 L126 491 L121 460 L121 460 Z M94 308 L398 308 L403 340 L99 340 L94 308 L94 308 Z " />
<glyph glyph-name="greater" unicode="&#x3e;" horiz-adv-x="349" d="M363 394 L211 702 L182 683 L322 394 L93 108 L113 88 L363 394 Z " />
<glyph glyph-name="question" unicode="&#x3f;" horiz-adv-x="398" d="M143 2 L175 2 L180 32 L148 32 L143 2 L143 2 Z M335 790 C248 790 164 707 147 607 L178 607 C192 690 260 757 329 757 C398 757 442 696 428 618 C409 498 359 451 304 401 C247 348 188 293 166 157 L199 157 C218 282 270 329 325 380 C381 432 439 486 461 618 C477 714 421 790 335 790 L335 790 Z " />
<glyph glyph-name="at" unicode="&#x40;" horiz-adv-x="649" d="M646 400 C672 547 573 667 424 667 C277 667 136 547 110 400 L74 194 C48 47 147 -73 294 -73 L299 -42 C170 -42 82 65 105 194 L141 400 C164 529 290 636 419 636 C550 636 637 529 614 400 L578 194 L579 194 L572 156 C566 122 529 88 490 80 C474 78 462 80 452 90 C439 102 435 121 439 144 L454 227 L479 371 L509 539 L478 539 L466 474 C450 503 423 521 392 521 C329 521 267 454 252 371 L227 227 C212 144 251 77 314 77 C347 77 380 95 406 125 C405 101 413 79 427 66 C440 54 456 48 474 48 C480 48 484 48 490 49 C544 60 595 108 603 156 L616 232 L616 232 L646 400 L646 400 Z M423 227 C411 163 365 108 320 108 C276 108 246 163 258 227 L283 371 C294 434 343 490 387 490 C432 490 459 434 448 371 L423 227 L423 227 Z " />
<glyph glyph-name="A" unicode="A" horiz-adv-x="462" d="M352 810 L54 0 L86 0 L176 247 L362 247 L366 0 L397 0 L388 810 L352 810 L352 810 Z M189 280 L357 734 L362 280 L189 280 L189 280 Z " />
<glyph glyph-name="B" unicode="B" horiz-adv-x="396" d="M329 505 C374 532 410 584 421 644 L421 646 L422 655 C436 742 392 810 323 810 L196 810 L54 0 L54 0 L194 0 C271 0 346 72 362 161 L396 354 C408 425 380 484 329 505 L329 505 Z M222 779 L318 779 C370 779 403 722 391 654 L391 653 L390 643 C378 575 325 520 273 520 L176 520 L222 779 L222 779 Z M330 161 C317 90 258 32 199 32 L90 32 L170 484 L279 484 C338 484 377 426 364 354 L330 161 L330 161 Z " />
<glyph glyph-name="C" unicode="C" horiz-adv-x="421" d="M342 778 L351 778 C382 778 409 764 428 740 C439 725 447 704 449 683 L480 691 C478 718 469 743 454 762 C431 792 396 810 356 810 L347 810 C263 810 183 737 168 647 L82 162 C66 72 121 0 205 0 L214 0 C277 0 342 43 374 107 L346 118 C319 66 269 31 219 31 L210 31 C144 31 100 90 113 162 L199 647 C211 719 276 778 342 778 L342 778 Z " />
<glyph glyph-name="D" unicode="D" horiz-adv-x="424" d="M346 810 L196 810 L54 0 L206 0 C284 0 358 67 373 150 L463 662 C478 744 425 810 346 810 L346 810 Z M342 150 C330 84 271 31 211 31 L90 31 L222 779 L341 779 C402 779 444 726 432 662 L342 150 L342 150 Z " />
<glyph glyph-name="E" unicode="E" horiz-adv-x="355" d="M54 0 L280 0 L285 31 L90 31 L147 353 L292 353 L297 385 L152 385 L222 780 L417 780 L423 811 L197 811 L54 0 L54 0 Z " />
<glyph glyph-name="F" unicode="F" horiz-adv-x="344" d="M54 0 L85 0 L147 355 L292 355 L298 386 L153 386 L222 779 L415 779 L420 810 L196 810 L54 0 L54 0 Z " />
<glyph glyph-name="G" unicode="G" horiz-adv-x="424" d="M254 353 L396 353 L362 162 C349 90 285 31 219 31 L210 31 C144 31 100 90 113 162 L199 648 C211 720 276 779 342 779 L351 779 C382 779 410 766 428 742 C440 726 447 706 449 685 L481 692 C478 719 469 744 454 763 C431 793 396 810 356 810 L347 810 C263 810 184 738 168 648 L82 162 C66 72 121 0 205 0 L214 0 C298 0 377 72 393 162 L432 384 L259 384 L254 353 L254 353 Z " />
<glyph glyph-name="H" unicode="H" horiz-adv-x="428" d="M388 388 L153 388 L227 809 L196 809 L54 0 L85 0 L147 356 L382 356 L320 1 L352 1 L494 809 L462 809 L388 388 L388 388 Z " />
<glyph glyph-name="I" unicode="I" horiz-adv-x="175" d="M54 0 L85 0 L227 810 L196 810 L54 0 L54 0 Z " />
<glyph glyph-name="J" unicode="J" horiz-adv-x="426" d="M352 156 C340 88 276 31 210 31 C144 31 100 88 112 156 L146 350 L115 350 L81 156 C66 70 122 0 205 0 C288 0 368 70 383 156 L498 810 L467 810 L352 156 L352 156 Z " />
<glyph glyph-name="K" unicode="K" horiz-adv-x="456" d="M539 811 L502 811 L152 383 L228 811 L197 811 L54 0 L85 0 L142 324 L270 482 L367 0 L401 0 L298 515 L539 811 L539 811 Z " />
<glyph glyph-name="L" unicode="L" horiz-adv-x="355" d="M228 811 L197 811 L54 0 L278 0 L283 31 L90 31 L228 811 L228 811 Z " />
<glyph glyph-name="M" unicode="M" horiz-adv-x="516" d="M525 811 L288 311 L231 811 L197 811 L197 811 L54 0 L85 0 L209 707 L264 242 L289 242 L507 704 L383 0 L414 0 L557 811 L557 811 L557 811 L525 811 Z " />
<glyph glyph-name="N" unicode="N" horiz-adv-x="464" d="M232 812 L199 812 L199 812 L56 0 L88 0 L214 719 L329 0 L364 0 L364 0 L507 811 L474 811 L346 90 L232 812 Z " />
<glyph glyph-name="O" unicode="O" horiz-adv-x="428" d="M357 811 L348 811 C264 811 185 744 170 661 L81 150 C66 67 122 0 206 0 L216 0 C299 0 377 67 392 150 L481 661 C496 744 441 811 357 811 L357 811 Z M221 31 L211 31 C145 31 100 84 112 150 L201 661 C213 726 276 780 342 780 L351 780 C417 780 462 726 450 661 L361 150 C349 84 286 31 221 31 L221 31 Z " />
<glyph glyph-name="P" unicode="P" horiz-adv-x="421" d="M349 811 L197 811 L53 0 L84 0 L139 311 L260 311 C337 311 413 380 428 466 L461 656 C476 742 426 811 349 811 L349 811 Z M396 466 C384 397 326 342 266 342 L145 342 L222 780 L343 780 C403 780 441 725 429 656 L396 466 L396 466 Z " />
<glyph glyph-name="Q" unicode="Q" horiz-adv-x="445" d="M391 151 L481 660 C496 743 441 811 357 811 L348 811 C264 811 185 743 170 660 L80 151 C65 68 121 0 205 0 L214 0 C250 0 284 12 312 34 L350 -16 L378 6 L339 55 C366 82 385 115 391 151 L391 151 Z M276 139 L248 118 L295 56 C273 41 246 32 219 32 L210 32 C144 32 99 85 111 151 L201 660 C213 726 276 779 342 779 L351 779 C417 779 462 726 450 660 L360 151 C355 124 341 98 321 78 L276 139 L276 139 Z " />
<glyph glyph-name="R" unicode="R" horiz-adv-x="424" d="M323 328 C376 353 418 406 429 468 L462 656 C477 742 427 811 349 811 L197 811 L54 0 L86 0 L141 313 L253 313 C319 313 363 259 352 193 L318 0 L349 0 L383 193 C393 252 369 302 323 328 L323 328 Z M146 344 L223 780 L343 780 C403 780 443 725 431 656 L398 468 C386 400 326 344 266 344 L146 344 L146 344 Z " />
<glyph glyph-name="S" unicode="S" horiz-adv-x="428" d="M291 421 C234 487 181 551 200 656 C213 725 277 779 345 779 C411 779 454 720 442 647 L474 647 C489 737 435 811 351 811 C265 811 186 743 169 656 C147 538 207 467 266 398 C323 331 376 265 355 156 C339 77 287 31 213 31 C147 31 103 90 116 163 L83 163 C67 73 124 0 208 0 C299 0 368 59 387 156 C411 278 351 352 291 421 L291 421 Z " />
<glyph glyph-name="T" unicode="T" horiz-adv-x="402" d="M191 780 L312 780 L175 0 L206 0 L343 780 L463 780 L469 811 L197 811 L191 780 Z " />
<glyph glyph-name="U" unicode="U" horiz-adv-x="432" d="M360 150 C348 84 285 31 219 31 L210 31 C144 31 99 84 111 150 L228 811 L197 811 L80 150 C65 67 121 0 205 0 L214 0 C298 0 376 67 391 150 L508 811 L477 811 L360 150 L360 150 Z " />
<glyph glyph-name="V" unicode="V" horiz-adv-x="432" d="M229 811 L197 811 L200 0 L228 0 L517 811 L485 811 L231 101 L229 811 Z " />
<glyph glyph-name="W" unicode="W" horiz-adv-x="674" d="M477 116 L457 48 L460 116 L467 684 L437 684 L242 114 L222 48 L225 114 L229 811 L197 811 L204 0 L224 0 L434 587 L438 0 L458 0 L751 811 L719 811 L477 116 L477 116 Z " />
<glyph glyph-name="X" unicode="X" horiz-adv-x="456" d="M489 811 L293 432 L231 811 L197 811 L267 384 L68 0 L102 0 L276 335 L331 0 L365 0 L300 384 L522 811 L489 811 L489 811 Z " />
<glyph glyph-name="Y" unicode="Y" horiz-adv-x="440" d="M229 811 L197 811 L257 305 L204 0 L235 0 L289 307 L522 811 L490 811 L282 365 L229 811 Z " />
<glyph glyph-name="Z" unicode="Z" horiz-adv-x="445" d="M216 811 L210 779 L449 779 L54 0 L343 0 L343 0 L348 31 L102 31 L498 811 L216 811 Z " />
<glyph glyph-name="bracketleft" unicode="&#x5b;" horiz-adv-x="293" d="M339 796 L344 828 L185 828 L38 -10 L197 -10 L202 22 L74 22 L211 796 L339 796 L339 796 Z " />
<glyph glyph-name="backslash" unicode="&#x5c;" horiz-adv-x="438" d="M182 809 L324 4 L361 4 L220 809 L182 809 L182 809 Z " />
<glyph glyph-name="bracketright" unicode="&#x5d;" horiz-adv-x="296" d="M240 796 L368 796 L231 22 L103 22 L98 -10 L257 -10 L404 828 L245 828 L240 796 L240 796 Z " />
<glyph glyph-name="asciicircum" unicode="&#x5e;" horiz-adv-x="509" d="M168 688 L200 640 L400 787 L554 640 L602 688 L415 869 L168 688 L168 688 Z " />
<glyph glyph-name="underscore" unicode="&#x5f;" horiz-adv-x="527" d="M41 9 L516 9 L522 40 L47 40 L41 9 L41 9 Z " />
<glyph glyph-name="grave" unicode="&#x60;" horiz-adv-x="145" d="M176 776 L179 688 L206 688 L212 776 L176 776 L176 776 Z " />
<glyph glyph-name="a" unicode="a" horiz-adv-x="396" d="M315 743 L66 71 L98 71 L174 279 L320 279 L322 71 L353 71 L347 743 L315 743 Z M319 310 L185 310 L311 637 L319 310 L319 310 Z " />
<glyph glyph-name="b" unicode="b" horiz-adv-x="337" d="M294 478 C305 485 315 494 323 504 C346 532 364 569 370 605 C384 681 347 742 290 742 L185 742 L185 742 L184 742 L140 490 L139 486 L134 459 L134 455 L72 104 L66 72 L66 71 L181 71 C245 71 307 131 319 203 L346 356 C356 412 333 459 294 478 L294 478 Z M210 711 L285 711 C324 711 349 661 339 605 C329 545 283 490 244 490 L171 490 L210 711 L210 711 Z M288 203 C279 148 233 104 187 104 L103 104 L165 455 L249 455 C295 455 325 411 315 356 L288 203 L288 203 Z " />
<glyph glyph-name="c" unicode="c" horiz-adv-x="359" d="M303 711 L310 711 C334 711 355 700 368 681 C377 667 383 652 383 635 L417 642 C415 665 407 685 394 702 C376 727 347 742 315 742 L308 742 C239 742 174 681 160 605 L90 207 C77 131 121 71 190 71 L197 71 C248 71 301 107 329 161 L301 171 C280 130 240 102 202 102 L195 102 C144 102 111 149 121 207 L191 605 C201 663 252 711 303 711 L303 711 Z " />
<glyph glyph-name="d" unicode="d" horiz-adv-x="347" d="M306 742 L184 742 L66 71 L191 71 C254 71 316 130 329 202 L401 612 C414 684 371 742 306 742 L306 742 Z M298 202 C288 147 241 102 196 102 L102 102 L210 709 L301 709 C349 709 380 666 370 612 L298 202 L298 202 Z " />
<glyph glyph-name="e" unicode="e" horiz-adv-x="295" d="M67 76 L253 76 L258 107 L103 107 L149 364 L263 364 L268 396 L154 396 L210 712 L365 712 L371 743 L185 743 L67 76 L67 76 Z " />
<glyph glyph-name="f" unicode="f" horiz-adv-x="290" d="M66 71 L97 71 L147 354 L261 354 L267 386 L153 386 L210 711 L364 711 L370 743 L185 743 L66 71 L66 71 Z " />
<glyph glyph-name="g" unicode="g" horiz-adv-x="364" d="M230 359 L339 359 L312 207 C302 149 252 102 202 102 L193 102 C143 102 111 149 121 207 L191 606 C202 664 251 710 301 710 L310 710 C333 710 353 700 366 680 C376 668 382 652 383 635 L415 642 C413 665 406 685 394 702 C376 727 347 742 315 742 L306 742 C239 742 173 680 160 606 L90 207 C77 131 121 71 188 71 L197 71 C264 71 330 131 343 207 L375 390 L235 390 L230 359 L230 359 Z " />
<glyph glyph-name="h" unicode="h" horiz-adv-x="352" d="M336 390 L153 390 L215 742 L184 742 L66 71 L97 71 L148 359 L331 359 L280 71 L311 71 L429 742 L398 742 L336 390 L336 390 Z " />
<glyph glyph-name="i" unicode="i" horiz-adv-x="132" d="M66 71 L97 71 L216 743 L185 743 L66 71 L66 71 Z " />
<glyph glyph-name="j" unicode="j" horiz-adv-x="367" d="M315 227 C303 159 250 102 197 102 C145 102 112 158 125 227 L149 368 L118 368 L94 227 C78 141 122 71 192 71 C262 71 331 141 347 227 L437 742 L405 742 L315 227 L315 227 Z " />
<glyph glyph-name="k" unicode="k" horiz-adv-x="419" d="M467 742 L145 345 L215 742 L184 742 L66 71 L97 71 L135 286 L264 444 L340 71 L373 71 L292 478 L504 742 L467 742 L467 742 Z " />
<glyph glyph-name="l" unicode="l" horiz-adv-x="288" d="M215 742 L184 742 L66 71 L251 71 L256 102 L102 102 L215 742 L215 742 Z " />
<glyph glyph-name="m" unicode="m" horiz-adv-x="428" d="M496 742 L496 742 L462 742 L271 339 L221 742 L189 742 L72 72 L66 72 L66 72 L72 72 L72 71 L104 71 L203 630 L246 285 L246 272 L271 272 L278 285 L446 638 L346 72 L384 72 L384 72 L378 72 L496 742 L496 742 Z " />
<glyph glyph-name="n" unicode="n" horiz-adv-x="407" d="M454 742 L423 742 L321 159 L224 742 L191 742 L190 742 L190 742 L190 742 L72 71 L66 71 L66 71 L103 71 L205 650 L301 71 L336 71 L454 742 L454 742 Z " />
<glyph glyph-name="o" unicode="o" horiz-adv-x="374" d="M311 742 C242 742 173 675 158 592 L92 221 C78 138 124 71 193 71 C263 71 332 138 346 221 L412 592 C427 675 381 742 311 742 L311 742 Z M315 221 C304 155 251 102 198 102 C145 102 112 155 123 221 L189 592 C200 657 253 711 306 711 C359 711 392 657 381 592 L315 221 L315 221 Z " />
<glyph glyph-name="p" unicode="p" horiz-adv-x="359" d="M311 742 L184 742 L118 365 L112 333 L66 71 L97 71 L143 333 L239 333 C304 333 367 390 380 461 L407 613 C419 684 376 742 311 742 L311 742 Z M349 461 C339 408 293 365 245 365 L149 365 L210 710 L306 710 C354 710 385 667 376 613 L349 461 L349 461 Z " />
<glyph glyph-name="q" unicode="q" horiz-adv-x="368" d="M349 222 L414 592 C429 676 383 743 313 743 C243 743 173 676 158 592 L93 222 C78 139 124 71 194 71 C222 71 249 82 274 100 L305 55 L333 77 L299 123 C324 150 342 184 349 222 L349 222 Z M282 147 L249 191 L223 171 L256 124 C239 111 220 103 200 103 C146 103 112 156 124 222 L189 592 C201 658 253 712 307 712 C360 712 394 658 382 592 L317 222 C312 193 299 167 282 147 L282 147 Z " />
<glyph glyph-name="r" unicode="r" horiz-adv-x="359" d="M290 333 C332 354 366 400 375 452 L403 611 C416 683 376 743 311 743 L185 743 L184 742 L179 710 L116 352 L110 320 L66 71 L66 71 L97 71 L97 71 L141 320 L226 320 C279 320 315 267 303 201 L280 71 L311 71 L334 201 C344 258 325 308 290 333 L290 333 Z M147 352 L210 710 L305 710 C352 710 382 666 372 611 L344 452 C334 396 289 352 242 352 L147 352 L147 352 Z " />
<glyph glyph-name="s" unicode="s" horiz-adv-x="366" d="M264 419 C220 473 177 527 192 612 C203 667 253 709 306 709 C358 709 391 662 381 604 L413 604 C426 679 381 742 311 742 C240 742 175 684 161 612 C143 514 192 454 239 398 C284 342 328 291 310 202 C298 138 257 102 198 102 C147 102 112 149 122 208 L91 208 C78 132 124 71 193 71 C269 71 326 120 342 202 C361 304 314 363 264 419 L264 419 Z " />
<glyph glyph-name="t" unicode="t" horiz-adv-x="328" d="M179 712 L276 712 L163 71 L194 71 L307 712 L402 712 L408 743 L185 743 L179 712 L179 712 Z " />
<glyph glyph-name="u" unicode="u" horiz-adv-x="368" d="M320 221 C309 155 255 102 201 102 C147 102 112 155 123 221 L216 743 L185 743 L92 221 C78 138 125 71 196 71 C268 71 337 138 351 221 L444 743 L413 743 L320 221 L320 221 Z " />
<glyph glyph-name="v" unicode="v" horiz-adv-x="398" d="M216 742 L184 742 L186 71 L215 71 L453 742 L420 742 L217 168 L216 742 Z " />
<glyph glyph-name="w" unicode="w" horiz-adv-x="574" d="M409 626 L409 633 L380 633 L378 626 L217 166 L216 742 L184 742 L185 71 L215 71 L376 533 L374 71 L406 71 L642 742 L610 742 L407 166 L409 626 Z " />
<glyph glyph-name="x" unicode="x" horiz-adv-x="394" d="M431 742 L269 428 L218 742 L184 742 L245 380 L84 71 L118 71 L252 330 L295 71 L329 71 L278 380 L464 742 L431 742 L431 742 Z " />
<glyph glyph-name="y" unicode="y" horiz-adv-x="391" d="M260 382 L216 742 L184 742 L234 322 L190 72 L190 71 L222 71 L222 72 L267 324 L459 742 L426 742 L260 382 L260 382 Z " />
<glyph glyph-name="z" unicode="z" horiz-adv-x="368" d="M201 743 L195 712 L389 712 L66 71 L308 71 L313 102 L114 102 L438 743 L201 743 L201 743 Z " />
<glyph glyph-name="braceleft" unicode="&#x7b;" horiz-adv-x="296" d="M247 701 L229 600 C221 552 187 496 154 474 C131 460 117 439 113 419 C110 397 118 376 136 361 C162 340 177 283 169 236 L148 118 C137 55 162 7 203 7 L260 7 L265 38 L208 38 C188 38 172 71 180 118 L201 236 C211 294 193 360 159 388 C147 396 142 407 144 419 C146 430 154 440 168 449 C209 475 250 542 260 600 L278 701 C286 748 316 780 336 780 L396 780 L402 811 L342 811 C300 811 258 763 247 701 L247 701 Z " />
<glyph glyph-name="bar" unicode="&#x7c;" horiz-adv-x="139" d="M28 -68 L59 -68 L227 887 L196 887 L28 -68 L28 -68 Z " />
<glyph glyph-name="braceright" unicode="&#x7d;" horiz-adv-x="296" d="M298 701 C309 763 285 811 243 811 L183 811 L177 780 L237 780 C257 780 275 748 267 701 L249 600 C239 542 256 475 289 449 C299 440 303 430 301 419 C299 407 290 396 276 388 C232 360 190 294 180 236 L159 118 C151 71 122 38 103 38 L46 38 L41 7 L98 7 C139 7 179 55 190 118 L211 236 C219 283 255 340 289 361 C313 376 329 397 332 419 C336 439 329 460 311 474 C286 496 272 552 280 600 L298 701 L298 701 Z " />
<glyph glyph-name="asciitilde" unicode="&#x7e;" horiz-adv-x="486" d="M309 354 C265 385 216 421 96 320 L114 298 C212 380 247 356 287 328 C311 312 334 295 368 295 C400 295 440 311 499 360 L480 383 C384 301 352 325 309 354 L309 354 Z " />
<glyph glyph-name="exclamdown" unicode="&#xa1;" horiz-adv-x="138" d="M194 640 L152 640 L145 600 L187 600 L194 640 L194 640 Z M19 -172 L51 -172 L167 486 L135 486 L19 -172 L19 -172 Z " />
<glyph glyph-name="cent" unicode="&#xa2;" horiz-adv-x="364" d="M348 644 C357 634 363 620 364 606 L397 616 C394 635 387 653 374 667 C356 689 329 701 298 702 L316 803 L285 803 L267 701 C207 692 153 642 142 582 L81 236 C71 176 107 126 164 118 L146 16 L177 16 L195 116 C244 119 295 150 320 196 L293 206 C274 173 238 150 201 148 L293 671 C316 670 334 660 348 644 L348 644 Z M170 150 C129 158 105 194 112 236 L173 582 C181 624 218 660 261 668 L170 150 L170 150 Z " />
<glyph glyph-name="sterling" unicode="&#xa3;" horiz-adv-x="470" d="M331 37 L126 37 C131 42 136 48 141 53 C168 84 185 124 193 167 L219 316 L371 316 L377 347 L225 347 L278 649 C291 721 347 779 401 779 C423 779 441 770 455 754 L482 776 C462 799 437 811 407 811 C335 811 263 738 247 649 L194 347 L101 347 L95 316 L188 316 L162 167 C148 90 97 37 60 37 L55 6 L326 6 C414 6 452 94 460 139 L428 139 C427 136 409 37 331 37 L331 37 Z " />
<glyph glyph-name="currency" unicode="&#xa4;" horiz-adv-x="422" d="M456 557 L430 571 L358 469 C343 493 318 509 289 509 C259 509 229 493 206 468 L168 575 L138 560 L180 437 C164 414 154 386 149 358 L123 215 C118 185 121 157 127 134 L45 16 L71 1 L142 103 C157 79 181 64 211 64 C240 64 269 78 293 102 L326 5 L357 19 L319 132 L317 131 C333 155 345 184 350 215 L376 358 C381 388 380 416 372 439 L373 439 L456 557 L456 557 Z M319 215 C308 150 261 96 216 96 C172 96 145 150 156 215 L182 358 C193 422 240 478 284 478 C329 478 356 422 345 358 L319 215 L319 215 Z " />
<glyph glyph-name="yen" unicode="&#xa5;" horiz-adv-x="457" d="M492 826 L280 367 L269 367 L215 826 L183 816 L236 367 L135 367 L130 336 L240 336 L245 298 L236 244 L114 244 L108 211 L230 211 L190 -17 L221 -17 L261 211 L384 211 L390 244 L267 244 L273 282 L299 336 L406 336 L411 367 L314 367 L521 816 L492 826 L492 826 Z " />
<glyph glyph-name="brokenbar" unicode="&#xa6;" horiz-adv-x="161" d="M121 463 L152 463 L208 778 L177 778 L121 463 L121 463 Z M54 82 L85 82 L140 396 L109 396 L54 82 L54 82 Z " />
<glyph glyph-name="section" unicode="&#xa7;" horiz-adv-x="568" d="M432 455 C373 512 319 565 336 654 C346 713 408 757 475 757 C542 757 587 708 576 646 L607 646 C621 725 565 790 481 790 C396 790 318 730 303 655 C294 606 303 566 322 532 C311 534 298 536 286 536 C202 536 124 476 110 401 C90 298 151 236 212 178 C271 120 325 65 307 -26 C288 -122 204 -133 168 -133 C102 -133 58 -83 69 -20 L37 -20 C23 -100 80 -164 163 -164 C254 -164 322 -112 338 -28 C347 20 341 59 324 92 C334 90 346 89 357 89 C449 89 517 142 533 226 C555 334 493 395 432 455 L432 455 Z M503 227 C484 131 399 121 363 121 C331 121 303 132 284 154 L284 154 C268 170 252 186 237 202 C179 258 125 312 141 401 C152 458 213 504 280 504 C315 504 349 491 366 472 L367 472 C379 457 394 444 406 431 C465 373 522 319 503 227 L503 227 Z " />
<glyph glyph-name="dieresis" unicode="&#xa8;" horiz-adv-x="246" d="M167 721 L206 721 L214 768 L175 768 L167 721 L167 721 Z M231 721 L270 721 L278 768 L239 768 L231 721 L231 721 Z " />
<glyph glyph-name="copyright" unicode="&#xa9;" horiz-adv-x="611" d="M434 823 C296 823 163 703 138 556 L87 268 C61 120 151 0 289 0 C427 0 560 120 586 268 L637 556 C662 703 572 823 434 823 L434 823 Z M555 268 C532 137 414 31 294 31 C174 31 95 137 118 268 L169 556 C191 686 308 792 428 792 C548 792 628 686 606 556 L555 268 L555 268 Z M410 653 C439 653 464 637 478 608 L506 626 C488 664 455 685 415 685 C343 685 272 613 256 527 L216 296 C201 210 247 138 319 138 C358 138 398 160 429 194 L407 212 C382 186 352 170 324 170 C269 170 236 227 248 296 L288 527 C301 596 355 653 410 653 L410 653 Z " />
<glyph glyph-name="ordfeminine" unicode="&#xaa;" horiz-adv-x="226" d="M242 790 L238 790 L238 790 C205 788 174 761 168 728 L187 728 C191 752 213 772 236 772 C259 771 275 750 270 724 L258 657 C248 676 230 688 207 688 C166 688 126 650 118 604 L108 548 C100 501 126 464 167 464 C190 464 212 476 230 495 L224 464 L241 464 L288 724 C294 759 272 788 242 790 L242 790 Z M237 548 C231 511 201 481 170 481 C139 481 120 511 126 548 L136 604 C142 640 173 671 204 671 C235 671 253 640 247 604 L237 548 L237 548 Z " />
<glyph glyph-name="guillemotleft" unicode="&#xab;" horiz-adv-x="419" d="M272 598 L109 395 L198 187 L228 203 L146 394 L295 581 L272 598 Z M380 598 L217 395 L306 187 L336 203 L254 394 L403 581 L380 598 Z " />
<glyph glyph-name="logicalnot" unicode="&#xac;" horiz-adv-x="604" d="M568 192 L599 192 L632 378 L106 378 L101 346 L596 346 L568 192 Z " />
<glyph glyph-name="uni00AD" unicode="&#xad;" horiz-adv-x="349" d="M97 371 L402 371 L409 409 L104 409 L97 371 Z " />
<glyph glyph-name="registered" unicode="&#xae;" horiz-adv-x="544" d="M388 409 C412 425 433 452 438 482 L455 577 C464 624 433 664 387 664 L296 664 L295 662 L290 632 L254 427 L248 396 L224 256 L255 256 L279 395 L332 395 C365 395 388 367 382 332 L368 254 L399 254 L413 332 C419 365 409 392 388 409 L388 409 Z M345 427 L285 427 L321 632 L381 632 C410 632 429 607 423 577 L406 482 C401 451 374 427 345 427 L345 427 Z M448 799 L354 799 C258 799 167 722 150 626 L89 280 C72 185 136 107 232 107 L326 107 C422 107 514 185 531 280 L592 626 C609 722 544 799 448 799 L448 799 Z M500 280 C486 202 412 138 332 138 L238 138 C158 138 106 202 120 280 L181 626 C195 704 269 768 349 768 L443 768 C523 768 575 704 561 626 L500 280 L500 280 Z " />
<glyph glyph-name="macron" unicode="&#xaf;" horiz-adv-x="451" d="M159 680 L514 680 L520 713 L165 713 L159 680 Z " />
<glyph glyph-name="degree" unicode="&#xb0;" horiz-adv-x="217" d="M252 797 C212 797 174 764 167 725 C160 685 187 653 227 653 C267 653 305 685 312 725 C319 764 292 797 252 797 L252 797 Z M232 684 C210 684 194 702 198 725 C202 748 225 766 247 766 C269 766 285 748 281 725 C277 702 254 684 232 684 L232 684 Z " />
<glyph glyph-name="plusminus" unicode="&#xb1;" horiz-adv-x="368" d="M75 204 L399 204 L405 236 L81 236 L75 204 L75 204 Z M327 628 L296 628 L270 482 L124 482 L119 450 L265 450 L239 304 L270 304 L296 450 L443 450 L448 482 L301 482 L327 628 L327 628 Z " />
<glyph glyph-name="twosuperior" unicode="&#xb2;" horiz-adv-x="259" d="M340 708 C350 766 319 811 271 811 C225 811 177 762 166 702 L197 702 C205 744 237 780 265 780 C297 780 315 748 308 708 C298 643 258 602 216 560 C170 516 124 469 111 390 L108 374 L280 374 L286 406 L147 406 C160 464 197 502 237 541 C282 586 327 631 340 708 L340 708 Z " />
<glyph glyph-name="threesuperior" unicode="&#xb3;" horiz-adv-x="234" d="M232 680 L345 808 L176 808 L170 776 L278 776 L167 652 L198 652 C256 652 280 605 265 521 C252 443 215 402 189 402 C160 402 142 437 149 480 L118 480 C107 419 137 370 184 370 C235 370 281 432 296 521 C312 610 289 667 232 680 L232 680 Z " />
<glyph glyph-name="acute" unicode="&#xb4;" horiz-adv-x="146" d="M162 697 L189 697 L223 786 L188 786 L162 697 L162 697 Z " />
<glyph glyph-name="&amp;#xb5;" unicode="&#xb5;" horiz-adv-x="368" d="M365 542 L301 181 C290 116 236 62 180 62 C126 62 91 116 102 181 L173 582 L173 582 L142 582 L142 582 L71 181 L17 -127 L48 -127 L85 84 C104 52 136 31 175 31 C216 31 255 52 284 84 L269 -1 L301 -1 L333 181 L397 542 L404 582 L372 582 L365 542 L365 542 Z " />
<glyph glyph-name="&amp;#x3bc;" unicode="&#x3bc;" horiz-adv-x="368" d="M365 542 L301 181 C290 116 236 62 180 62 C126 62 91 116 102 181 L173 582 L173 582 L142 582 L142 582 L71 181 L17 -127 L48 -127 L85 84 C104 52 136 31 175 31 C216 31 255 52 284 84 L269 -1 L301 -1 L333 181 L397 542 L404 582 L372 582 L365 542 L365 542 Z " />
<glyph glyph-name="paragraph" unicode="&#xb6;" horiz-adv-x="532" d="M382 -13 L413 -13 L562 829 L477 829 L477 832 L326 832 C248 832 173 758 158 670 L123 475 C107 385 157 313 235 313 L355 313 L297 -13 L328 -13 L386 313 L391 344 L471 798 L525 798 L382 -13 L382 -13 Z " />
<glyph glyph-name="periodcentered" unicode="&#xb7;" horiz-adv-x="146" d="M167 476 C138 476 110 452 105 422 C100 394 120 370 149 370 C178 370 206 394 211 422 C216 452 196 476 167 476 L167 476 Z " />
<glyph glyph-name="cedilla" unicode="&#xb8;" horiz-adv-x="182" d="M101 25 L70 25 C63 -13 76 -35 87 -50 C95 -62 98 -68 96 -77 C92 -101 53 -114 19 -114 L14 -145 C74 -145 121 -118 128 -77 C131 -58 123 -44 115 -31 C106 -17 96 -2 101 25 L101 25 Z " />
<glyph glyph-name="onesuperior" unicode="&#xb9;" horiz-adv-x="161" d="M212 810 L172 772 L191 750 L211 769 L141 372 L172 372 L249 810 L212 810 Z " />
<glyph glyph-name="ordmasculine" unicode="&#xba;" horiz-adv-x="367" d="M271 583 L269 583 C199 583 132 526 120 456 L99 335 C86 264 133 206 203 206 L205 206 C276 206 344 264 357 335 L378 456 C390 526 342 583 271 583 L271 583 Z M329 335 C319 278 267 234 210 234 L208 234 C153 234 115 278 125 335 L146 456 C156 511 210 557 265 557 L267 557 C324 557 360 511 350 456 L329 335 L329 335 Z " />
<glyph glyph-name="guillemotright" unicode="&#xbb;" horiz-adv-x="425" d="M250 581 L333 394 L183 203 L207 187 L370 395 L279 598 L250 581 Z M142 581 L225 394 L75 203 L99 187 L262 395 L171 598 L142 581 Z " />
<glyph glyph-name="onequarter" unicode="&#xbc;" horiz-adv-x="532" d="M236 810 L196 772 L215 750 L235 769 L165 372 L196 372 L273 810 L236 810 Z M481 438 L450 438 L272 152 L399 152 L373 0 L404 0 L430 152 L482 152 L488 184 L436 184 L481 438 L481 438 Z M405 184 L326 184 L436 361 L405 184 L405 184 Z M533 804 L107 -1 L70 -1 L495 804 L533 804 L533 804 Z " />
<glyph glyph-name="onehalf" unicode="&#xbd;" horiz-adv-x="498" d="M236 810 L196 772 L215 750 L235 769 L165 372 L196 372 L273 810 L236 810 L236 810 Z M497 334 C506 391 477 437 429 437 C382 437 334 388 323 328 L355 328 C363 370 394 406 423 406 C454 406 472 373 465 334 C455 269 416 228 373 186 C329 142 281 95 268 16 L266 0 L438 0 L443 31 L304 31 C317 90 354 127 394 167 C439 211 484 257 497 334 L497 334 Z M520 804 L94 -1 L57 -1 L482 804 L520 804 L520 804 Z " />
<glyph glyph-name="threequarters" unicode="&#xbe;" horiz-adv-x="529" d="M256 680 L369 808 L200 808 L194 776 L302 776 L191 652 L222 652 C280 652 304 605 289 521 C276 443 239 402 213 402 C184 402 166 437 173 480 L142 480 C131 419 161 370 208 370 C259 370 305 432 320 521 C336 610 313 667 256 680 L256 680 Z M495 440 L463 440 L286 155 L413 155 L386 2 L418 2 L445 155 L496 155 L501 186 L450 186 L495 440 Z M418 186 L339 186 L450 364 L418 186 Z M561 804 L135 -1 L98 -1 L523 804 L561 804 L561 804 Z " />
<glyph glyph-name="questiondown" unicode="&#xbf;" horiz-adv-x="398" d="M354 588 L321 588 L315 552 L348 552 L354 588 L354 588 Z M162 -202 C248 -202 333 -119 350 -19 L319 -19 C305 -102 236 -169 168 -169 C98 -169 53 -108 67 -30 C87 90 138 137 192 187 C250 240 309 295 329 431 L297 431 C277 306 226 259 172 208 C116 156 57 102 35 -30 C19 -126 76 -202 162 -202 L162 -202 Z " />
<glyph glyph-name="Agrave" unicode="&#xc0;" horiz-adv-x="434" d="M333 810 L35 0 L67 0 L157 247 L343 247 L347 0 L378 0 L369 810 L333 810 L333 810 Z M170 280 L338 734 L343 280 L170 280 L170 280 Z M361 1000 L364 912 L391 912 L397 1000 L361 1000 L361 1000 Z " />
<glyph glyph-name="Aacute" unicode="&#xc1;" horiz-adv-x="434" d="M333 810 L35 0 L67 0 L157 247 L343 247 L347 0 L378 0 L369 810 L333 810 L333 810 Z M170 280 L338 734 L343 280 L170 280 L170 280 Z M347 921 L374 921 L408 1010 L373 1010 L347 921 L347 921 Z " />
<glyph glyph-name="Acircumflex" unicode="&#xc2;" horiz-adv-x="434" d="M333 810 L35 0 L67 0 L157 247 L343 247 L347 0 L378 0 L369 810 L333 810 L333 810 Z M170 280 L338 734 L343 280 L170 280 L170 280 Z M213 869 L228 845 L372 952 L477 850 L502 875 L379 993 L213 869 L213 869 Z " />
<glyph glyph-name="Atilde" unicode="&#xc3;" horiz-adv-x="434" d="M333 810 L35 0 L67 0 L157 247 L343 247 L347 0 L378 0 L369 810 L333 810 L333 810 Z M170 280 L338 734 L343 280 L170 280 L170 280 Z M391 952 C348 984 296 1018 178 918 L196 895 C294 979 329 954 369 925 C392 909 416 894 448 894 C481 894 522 909 581 958 L562 981 C466 900 433 922 391 952 L391 952 Z " />
<glyph glyph-name="Adieresis" unicode="&#xc4;" horiz-adv-x="434" d="M333 810 L35 0 L67 0 L157 247 L343 247 L347 0 L378 0 L369 810 L333 810 L333 810 Z M170 280 L338 734 L343 280 L170 280 L170 280 Z M306 861 L345 861 L353 908 L314 908 L306 861 L306 861 Z M370 861 L409 861 L417 908 L378 908 L370 861 L370 861 Z " />
<glyph glyph-name="Aring" unicode="&#xc5;" horiz-adv-x="434" d="M333 810 L35 0 L67 0 L157 247 L343 247 L347 0 L378 0 L369 810 L333 810 L333 810 Z M170 280 L338 734 L343 280 L170 280 L170 280 Z M395 999 C355 999 317 966 310 927 C303 887 330 855 370 855 C410 855 448 887 455 927 C462 966 435 999 395 999 L395 999 Z M375 886 C353 886 337 904 341 927 C345 950 368 968 390 968 C412 968 428 950 424 927 C420 904 397 886 375 886 L375 886 Z " />
<glyph glyph-name="AE" unicode="&#xc6;" horiz-adv-x="653" d="M729 780 L735 811 L509 811 L508 810 L498 810 L58 1 L90 1 L223 247 L409 247 L408 242 L366 1 L370 1 L401 1 L592 1 L597 32 L406 32 L453 318 L459 353 L604 353 L609 385 L464 385 L534 780 L729 780 L729 780 Z M242 280 L490 734 L415 280 L242 280 L242 280 Z " />
<glyph glyph-name="Ccedilla" unicode="&#xc7;" horiz-adv-x="413" d="M323 778 L332 778 C363 778 390 764 409 740 C420 725 428 704 430 683 L461 691 C459 718 450 743 435 762 C412 792 377 810 337 810 L328 810 C244 810 164 737 149 647 L63 162 C47 72 102 0 186 0 L195 0 C258 0 323 43 355 107 L327 118 C300 66 250 31 200 31 L191 31 C125 31 81 90 94 162 L180 647 C192 719 257 778 323 778 L323 778 Z M222 -5 L191 -5 C184 -43 197 -65 208 -80 C216 -92 219 -98 217 -107 C213 -131 174 -144 140 -144 L135 -175 C195 -175 242 -148 249 -107 C252 -88 244 -74 236 -61 C227 -47 217 -32 222 -5 L222 -5 Z " />
<glyph glyph-name="Egrave" unicode="&#xc8;" horiz-adv-x="335" d="M35 0 L261 0 L266 31 L71 31 L128 353 L273 353 L278 385 L133 385 L203 780 L398 780 L404 811 L178 811 L35 0 L35 0 Z M311 1000 L314 912 L341 912 L347 1000 L311 1000 L311 1000 Z " />
<glyph glyph-name="Eacute" unicode="&#xc9;" horiz-adv-x="335" d="M35 0 L261 0 L266 31 L71 31 L128 353 L273 353 L278 385 L133 385 L203 780 L398 780 L404 811 L178 811 L35 0 L35 0 Z M297 921 L324 921 L358 1010 L323 1010 L297 921 L297 921 Z " />
<glyph glyph-name="Ecircumflex" unicode="&#xca;" horiz-adv-x="335" d="M35 0 L261 0 L266 31 L71 31 L128 353 L273 353 L278 385 L133 385 L203 780 L398 780 L404 811 L178 811 L35 0 L35 0 Z M179 950 L194 926 L338 1033 L443 931 L468 956 L345 1074 L179 950 L179 950 Z " />
<glyph glyph-name="Edieresis" unicode="&#xcb;" horiz-adv-x="335" d="M35 0 L261 0 L266 31 L71 31 L128 353 L273 353 L278 385 L133 385 L203 780 L398 780 L404 811 L178 811 L35 0 L35 0 Z M240 866 L279 866 L287 913 L248 913 L240 866 L240 866 Z M304 866 L343 866 L351 913 L312 913 L304 866 L304 866 Z " />
<glyph glyph-name="Igrave" unicode="&#xcc;" horiz-adv-x="145" d="M35 0 L66 0 L208 810 L177 810 L35 0 L35 0 Z M216 1000 L219 912 L246 912 L252 1000 L216 1000 L216 1000 Z " />
<glyph glyph-name="Iacute" unicode="&#xcd;" horiz-adv-x="145" d="M35 0 L66 0 L208 810 L177 810 L35 0 L35 0 Z M202 921 L229 921 L263 1010 L228 1010 L202 921 L202 921 Z " />
<glyph glyph-name="Icircumflex" unicode="&#xce;" horiz-adv-x="145" d="M35 0 L66 0 L208 810 L177 810 L35 0 L35 0 Z M84 950 L99 926 L243 1033 L348 931 L373 956 L250 1074 L84 950 L84 950 Z " />
<glyph glyph-name="Idieresis" unicode="&#xcf;" horiz-adv-x="145" d="M35 0 L66 0 L208 810 L177 810 L35 0 L35 0 Z M145 945 L184 945 L192 992 L153 992 L145 945 L145 945 Z M209 945 L248 945 L256 992 L217 992 L209 945 L209 945 Z " />
<glyph glyph-name="Eth" unicode="&#xd0;" horiz-adv-x="421" d="M346 810 L227 810 L196 810 L128 425 L78 425 L73 392 L123 392 L54 1 L65 1 L206 1 C284 1 358 68 373 151 L463 662 C478 744 425 810 346 810 L346 810 Z M342 151 C330 85 271 32 211 32 L90 32 L154 392 L317 392 L322 425 L159 425 L222 779 L341 779 C402 779 444 726 432 662 L342 151 L342 151 Z " />
<glyph glyph-name="Ntilde" unicode="&#xd1;" horiz-adv-x="430" d="M213 812 L180 812 L180 812 L37 0 L69 0 L195 719 L310 0 L345 0 L345 0 L488 811 L455 811 L327 90 L213 812 Z M389 952 C346 984 294 1018 176 918 L194 895 C292 979 327 954 367 925 C390 909 414 894 446 894 C479 894 520 909 579 958 L560 981 C464 900 431 922 389 952 L389 952 Z " />
<glyph glyph-name="Ograve" unicode="&#xd2;" horiz-adv-x="414" d="M338 811 L329 811 C245 811 166 744 151 661 L62 150 C47 67 103 0 187 0 L197 0 C280 0 358 67 373 150 L462 661 C477 744 422 811 338 811 L338 811 Z M202 31 L192 31 C126 31 81 84 93 150 L182 661 C194 726 257 780 323 780 L332 780 C398 780 443 726 431 661 L342 150 C330 84 267 31 202 31 L202 31 Z M351 1000 L354 912 L381 912 L387 1000 L351 1000 L351 1000 Z " />
<glyph glyph-name="Oacute" unicode="&#xd3;" horiz-adv-x="414" d="M338 811 L329 811 C245 811 166 744 151 661 L62 150 C47 67 103 0 187 0 L197 0 C280 0 358 67 373 150 L462 661 C477 744 422 811 338 811 L338 811 Z M202 31 L192 31 C126 31 81 84 93 150 L182 661 C194 726 257 780 323 780 L332 780 C398 780 443 726 431 661 L342 150 C330 84 267 31 202 31 L202 31 Z M333 901 L360 901 L394 990 L359 990 L333 901 L333 901 Z " />
<glyph glyph-name="Ocircumflex" unicode="&#xd4;" horiz-adv-x="414" d="M338 811 L329 811 C245 811 166 744 151 661 L62 150 C47 67 103 0 187 0 L197 0 C280 0 358 67 373 150 L462 661 C477 744 422 811 338 811 L338 811 Z M202 31 L192 31 C126 31 81 84 93 150 L182 661 C194 726 257 780 323 780 L332 780 C398 780 443 726 431 661 L342 150 C330 84 267 31 202 31 L202 31 Z M218 950 L233 926 L377 1033 L482 931 L507 956 L384 1074 L218 950 L218 950 Z " />
<glyph glyph-name="Otilde" unicode="&#xd5;" horiz-adv-x="414" d="M338 811 L329 811 C245 811 166 744 151 661 L62 150 C47 67 103 0 187 0 L197 0 C280 0 358 67 373 150 L462 661 C477 744 422 811 338 811 L338 811 Z M202 31 L192 31 C126 31 81 84 93 150 L182 661 C194 726 257 780 323 780 L332 780 C398 780 443 726 431 661 L342 150 C330 84 267 31 202 31 L202 31 Z M382 952 C339 984 287 1018 169 918 L187 895 C285 979 320 954 360 925 C383 909 407 894 439 894 C472 894 513 909 572 958 L553 981 C457 900 424 922 382 952 L382 952 Z " />
<glyph glyph-name="Odieresis" unicode="&#xd6;" horiz-adv-x="414" d="M338 811 L329 811 C245 811 166 744 151 661 L62 150 C47 67 103 0 187 0 L197 0 C280 0 358 67 373 150 L462 661 C477 744 422 811 338 811 L338 811 Z M202 31 L192 31 C126 31 81 84 93 150 L182 661 C194 726 257 780 323 780 L332 780 C398 780 443 726 431 661 L342 150 C330 84 267 31 202 31 L202 31 Z M303 890 L342 890 L350 937 L311 937 L303 890 L303 890 Z M367 890 L406 890 L414 937 L375 937 L367 890 L367 890 Z " />
<glyph glyph-name="multiply" unicode="&#xd7;" horiz-adv-x="341" d="M362 528 L240 425 L155 528 L129 507 L214 404 L92 299 L111 278 L233 381 L318 278 L342 299 L258 404 L379 507 L362 528 L362 528 Z " />
<glyph glyph-name="Oslash" unicode="&#xd8;" horiz-adv-x="428" d="M462 778 L424 703 C403 728 370 743 330 743 L322 743 C238 743 159 676 144 593 L66 150 C58 104 70 65 96 37 L53 -50 L81 -60 L121 18 C140 6 163 -1 190 -1 L198 -1 C282 -1 361 66 376 150 L454 593 C459 623 455 652 443 674 L490 768 L462 778 L462 778 Z M113 71 C99 91 91 119 97 150 L175 593 C187 658 250 712 316 712 L324 712 C361 712 391 695 408 670 L113 71 L113 71 Z M345 150 C333 84 270 30 204 30 L196 30 C172 30 151 37 135 48 L423 632 C426 619 425 606 423 593 L345 150 L345 150 Z " />
<glyph glyph-name="Ugrave" unicode="&#xd9;" horiz-adv-x="422" d="M341 150 C329 84 266 31 200 31 L191 31 C125 31 80 84 92 150 L209 811 L178 811 L61 150 C46 67 102 0 186 0 L195 0 C279 0 357 67 372 150 L489 811 L458 811 L341 150 L341 150 Z M354 1000 L357 912 L384 912 L390 1000 L354 1000 L354 1000 Z " />
<glyph glyph-name="Uacute" unicode="&#xda;" horiz-adv-x="422" d="M341 150 C329 84 266 31 200 31 L191 31 C125 31 80 84 92 150 L209 811 L178 811 L61 150 C46 67 102 0 186 0 L195 0 C279 0 357 67 372 150 L489 811 L458 811 L341 150 L341 150 Z M340 921 L367 921 L401 1010 L366 1010 L340 921 L340 921 Z " />
<glyph glyph-name="Ucircumflex" unicode="&#xdb;" horiz-adv-x="422" d="M341 150 C329 84 266 31 200 31 L191 31 C125 31 80 84 92 150 L209 811 L178 811 L61 150 C46 67 102 0 186 0 L195 0 C279 0 357 67 372 150 L489 811 L458 811 L341 150 L341 150 Z M221 950 L236 926 L380 1033 L485 931 L510 956 L387 1074 L221 950 L221 950 Z " />
<glyph glyph-name="Udieresis" unicode="&#xdc;" horiz-adv-x="422" d="M341 150 C329 84 266 31 200 31 L191 31 C125 31 80 84 92 150 L209 811 L178 811 L61 150 C46 67 102 0 186 0 L195 0 C279 0 357 67 372 150 L489 811 L458 811 L341 150 L341 150 Z M303 945 L342 945 L350 992 L311 992 L303 945 L303 945 Z M367 945 L406 945 L414 992 L375 992 L367 945 L367 945 Z " />
<glyph glyph-name="Yacute" unicode="&#xdd;" horiz-adv-x="442" d="M210 811 L178 811 L238 305 L185 0 L216 0 L270 307 L503 811 L471 811 L263 365 L210 811 Z M350 921 L377 921 L411 1010 L376 1010 L350 921 L350 921 Z " />
<glyph glyph-name="Thorn" unicode="&#xde;" horiz-adv-x="366" d="M320 754 C278 754 238 732 207 697 L237 863 L206 863 L54 0 L85 0 L124 224 C142 190 175 168 217 168 C289 168 360 235 375 318 L425 604 C439 686 392 754 320 754 L320 754 Z M344 318 C332 252 277 199 223 199 C168 199 133 252 145 318 L195 604 C207 670 260 722 315 722 C369 722 406 670 394 604 L344 318 Z " />
<glyph glyph-name="germandbls" unicode="&#xdf;" horiz-adv-x="444" d="M416 246 C433 344 421 418 379 462 C361 479 342 490 323 497 C323 497 325 497 326 498 C382 524 422 569 439 624 C467 720 433 767 408 785 C370 816 307 820 252 793 C201 769 167 725 158 673 L39 -4 L70 -4 L189 673 C199 727 238 754 261 764 C305 786 355 784 386 760 C418 734 426 688 408 628 C375 523 264 508 250 505 C250 505 249 505 249 505 L246 474 C246 474 246 474 247 474 C256 475 313 479 354 438 C390 400 401 335 385 246 C371 168 345 113 308 82 C266 46 212 47 174 48 C168 48 162 49 157 49 L151 17 C156 17 160 17 166 17 C208 16 272 14 327 60 C372 97 400 158 416 246 L416 246 Z " />
<glyph glyph-name="agrave" unicode="&#xe0;" horiz-adv-x="376" d="M313 899 L316 811 L343 811 L349 899 L313 899 L313 899 Z M299 743 L50 71 L82 71 L158 279 L304 279 L306 71 L337 71 L331 743 L299 743 Z M303 310 L169 310 L295 637 L303 310 L303 310 Z " />
<glyph glyph-name="aacute" unicode="&#xe1;" horiz-adv-x="376" d="M311 825 L338 825 L372 914 L337 914 L311 825 L311 825 Z M299 743 L50 71 L82 71 L158 279 L304 279 L306 71 L337 71 L331 743 L299 743 Z M303 310 L169 310 L295 637 L303 310 L303 310 Z " />
<glyph glyph-name="acircumflex" unicode="&#xe2;" horiz-adv-x="376" d="M182 782 L197 758 L341 865 L446 763 L471 788 L348 906 L182 782 L182 782 Z M299 743 L50 71 L82 71 L158 279 L304 279 L306 71 L337 71 L331 743 L299 743 Z M303 310 L169 310 L295 637 L303 310 L303 310 Z " />
<glyph glyph-name="atilde" unicode="&#xe3;" horiz-adv-x="376" d="M362 857 C328 881 288 908 196 830 L210 812 C286 878 313 858 344 836 C362 823 381 812 406 812 C432 812 463 823 509 861 L495 879 C420 816 394 833 362 857 L362 857 Z M299 743 L50 71 L82 71 L158 279 L304 279 L306 71 L337 71 L331 743 L299 743 Z M303 310 L169 310 L295 637 L303 310 L303 310 Z " />
<glyph glyph-name="adieresis" unicode="&#xe4;" horiz-adv-x="376" d="M275 808 L314 808 L322 855 L283 855 L275 808 L275 808 Z M339 808 L378 808 L386 855 L347 855 L339 808 L339 808 Z M299 743 L50 71 L82 71 L158 279 L304 279 L306 71 L337 71 L331 743 L299 743 Z M303 310 L169 310 L295 637 L303 310 L303 310 Z " />
<glyph glyph-name="aring" unicode="&#xe5;" horiz-adv-x="360" d="M299 743 L50 71 L82 71 L158 279 L304 279 L306 71 L337 71 L331 743 L299 743 Z M303 310 L169 310 L295 637 L303 310 L303 310 Z M340 902 C300 902 262 869 255 830 C248 790 275 758 315 758 C355 758 393 790 400 830 C407 869 380 902 340 902 L340 902 Z M320 789 C298 789 282 807 286 830 C290 853 313 871 335 871 C357 871 373 853 369 830 C365 807 342 789 320 789 L320 789 Z " />
<glyph glyph-name="ae" unicode="&#xe6;" horiz-adv-x="542" d="M626 711 L631 742 L479 742 L446 742 L445 742 L445 739 L66 71 L98 71 L211 269 L360 269 L326 71 L327 71 L358 71 L513 71 L518 102 L363 102 L410 359 L523 359 L528 391 L415 391 L474 711 L626 711 L626 711 Z M228 298 L424 641 L365 298 L228 298 L228 298 Z " />
<glyph glyph-name="ccedilla" unicode="&#xe7;" horiz-adv-x="328" d="M264 551 C293 551 318 534 331 504 L360 521 C342 560 309 583 269 583 C197 583 125 508 108 414 L65 168 C49 74 95 0 167 0 C207 0 246 22 278 60 L255 77 C230 48 201 31 172 31 C118 31 84 92 97 168 L140 414 C154 490 210 551 264 551 L264 551 Z M177 14 L146 14 C139 -24 152 -46 163 -61 C171 -73 174 -79 172 -88 C168 -112 129 -125 95 -125 L90 -156 C150 -156 197 -129 204 -88 C207 -69 199 -55 191 -42 C182 -28 172 -13 177 14 L177 14 Z " />
<glyph glyph-name="egrave" unicode="&#xe8;" horiz-adv-x="300" d="M79 76 L265 76 L270 107 L115 107 L161 364 L275 364 L280 396 L166 396 L222 712 L377 712 L383 743 L197 743 L79 76 L79 76 Z M299 896 L302 808 L329 808 L335 896 L299 896 L299 896 Z " />
<glyph glyph-name="eacute" unicode="&#xe9;" horiz-adv-x="305" d="M289 785 L316 785 L350 874 L315 874 L289 785 L289 785 Z M79 76 L265 76 L270 107 L115 107 L161 364 L275 364 L280 396 L166 396 L222 712 L377 712 L383 743 L197 743 L79 76 L79 76 Z " />
<glyph glyph-name="ecircumflex" unicode="&#xea;" horiz-adv-x="314" d="M167 787 L182 763 L326 870 L431 768 L456 793 L333 911 L167 787 L167 787 Z M79 76 L265 76 L270 107 L115 107 L161 364 L275 364 L280 396 L166 396 L222 712 L377 712 L383 743 L197 743 L79 76 L79 76 Z " />
<glyph glyph-name="edieresis" unicode="&#xeb;" horiz-adv-x="316" d="M269 794 L308 794 L316 841 L277 841 L269 794 L269 794 Z M333 794 L372 794 L380 841 L341 841 L333 794 L333 794 Z M79 76 L265 76 L270 107 L115 107 L161 364 L275 364 L280 396 L166 396 L222 712 L377 712 L383 743 L197 743 L79 76 L79 76 Z " />
<glyph glyph-name="igrave" unicode="&#xec;" horiz-adv-x="196" d="M69 709 L223 709 L109 67 L141 67 L260 740 L74 740 L69 709 L69 709 Z M165 876 L168 788 L195 788 L201 876 L165 876 L165 876 Z " />
<glyph glyph-name="iacute" unicode="&#xed;" horiz-adv-x="196" d="M69 709 L223 709 L109 67 L141 67 L260 740 L74 740 L69 709 L69 709 Z M167 788 L194 788 L228 877 L193 877 L167 788 L167 788 Z " />
<glyph glyph-name="icircumflex" unicode="&#xee;" horiz-adv-x="196" d="M69 709 L223 709 L109 67 L141 67 L260 740 L74 740 L69 709 L69 709 Z M45 800 L60 776 L204 883 L309 781 L334 806 L211 924 L45 800 L45 800 Z " />
<glyph glyph-name="idieresis" unicode="&#xef;" horiz-adv-x="188" d="M69 712 L223 712 L109 70 L141 70 L260 743 L74 743 L69 712 L69 712 Z M150 785 L189 785 L197 832 L158 832 L150 785 L150 785 Z M214 785 L253 785 L261 832 L222 832 L214 785 L214 785 Z " />
<glyph glyph-name="eth" unicode="&#xf0;" horiz-adv-x="378" d="M185 37 C262 37 336 104 351 188 L352 197 L383 371 L429 631 C443 710 399 775 330 782 L347 878 L315 878 L298 782 C228 773 165 709 151 631 L182 631 C192 691 240 740 293 750 L272 630 L304 630 L325 750 C377 743 409 692 398 631 L369 467 C350 500 314 522 271 522 C194 522 120 455 105 371 L74 197 C74 194 73 191 73 188 L73 188 C58 104 108 37 185 37 L185 37 Z M136 371 C148 437 206 491 265 491 C325 491 364 437 352 371 L321 197 C310 131 252 78 192 78 C133 78 94 131 105 197 L136 371 L136 371 Z " />
<glyph glyph-name="ntilde" unicode="&#xf1;" horiz-adv-x="372" d="M457 742 L426 742 L324 159 L227 742 L194 742 L193 742 L193 742 L193 742 L75 71 L69 71 L69 71 L106 71 L208 650 L304 71 L339 71 L457 742 L457 742 Z M352 837 C309 869 257 903 139 803 L157 780 C255 864 290 839 330 810 C353 794 377 779 409 779 C442 779 483 794 542 843 L523 866 C427 785 394 807 352 837 L352 837 Z " />
<glyph glyph-name="ograve" unicode="&#xf2;" horiz-adv-x="367" d="M311 860 L314 772 L341 772 L347 860 L311 860 L311 860 Z M316 742 C247 742 178 675 163 592 L97 221 C83 138 129 71 198 71 C268 71 337 138 351 221 L417 592 C432 675 386 742 316 742 L316 742 Z M320 221 C309 155 256 102 203 102 C150 102 117 155 128 221 L194 592 C205 657 258 711 311 711 C364 711 397 657 386 592 L320 221 L320 221 Z " />
<glyph glyph-name="oacute" unicode="&#xf3;" horiz-adv-x="367" d="M309 774 L336 774 L370 863 L335 863 L309 774 L309 774 Z M316 742 C247 742 178 675 163 592 L97 221 C83 138 129 71 198 71 C268 71 337 138 351 221 L417 592 C432 675 386 742 316 742 L316 742 Z M320 221 C309 155 256 102 203 102 C150 102 117 155 128 221 L194 592 C205 657 258 711 311 711 C364 711 397 657 386 592 L320 221 L320 221 Z " />
<glyph glyph-name="ocircumflex" unicode="&#xf4;" horiz-adv-x="367" d="M316 742 C247 742 178 675 163 592 L97 221 C83 138 129 71 198 71 C268 71 337 138 351 221 L417 592 C432 675 386 742 316 742 L316 742 Z M320 221 C309 155 256 102 203 102 C150 102 117 155 128 221 L194 592 C205 657 258 711 311 711 C364 711 397 657 386 592 L320 221 L320 221 Z M184 776 L199 752 L343 859 L448 757 L473 782 L350 900 L184 776 L184 776 Z " />
<glyph glyph-name="otilde" unicode="&#xf5;" horiz-adv-x="353" d="M299 742 C230 742 161 675 146 592 L80 221 C66 138 112 71 181 71 C251 71 320 138 334 221 L400 592 C415 675 369 742 299 742 L299 742 Z M303 221 C292 155 239 102 186 102 C133 102 100 155 111 221 L177 592 C188 657 241 711 294 711 C347 711 380 657 369 592 L303 221 L303 221 Z M330 871 C287 903 235 937 117 837 L135 814 C233 898 268 873 308 844 C331 828 355 813 387 813 C420 813 461 828 520 877 L501 900 C405 819 372 841 330 871 L330 871 Z " />
<glyph glyph-name="odieresis" unicode="&#xf6;" horiz-adv-x="367" d="M319 742 C250 742 181 675 166 592 L100 221 C86 138 132 71 201 71 C271 71 340 138 354 221 L420 592 C435 675 389 742 319 742 L319 742 Z M323 221 C312 155 259 102 206 102 C153 102 120 155 131 221 L197 592 C208 657 261 711 314 711 C367 711 400 657 389 592 L323 221 L323 221 Z M276 779 L315 779 L323 826 L284 826 L276 779 L276 779 Z M340 779 L379 779 L387 826 L348 826 L340 779 L340 779 Z " />
<glyph glyph-name="divide" unicode="&#xf7;" horiz-adv-x="391" d="M283 462 C302 462 320 479 323 498 C327 517 314 533 295 533 C275 533 258 517 254 498 C251 479 263 462 283 462 L283 462 Z M258 318 C238 318 220 302 216 283 C213 264 225 248 245 248 C264 248 282 264 285 283 C289 302 277 318 258 318 L258 318 Z M105 374 L429 374 L435 406 L111 406 L105 374 L105 374 Z " />
<glyph glyph-name="oslash" unicode="&#xf8;" horiz-adv-x="374" d="M472 804 L434 804 L385 710 C366 730 341 742 311 742 C242 742 173 675 158 592 L92 221 C88 198 89 177 93 158 L9 -1 L46 -1 L109 118 C127 89 157 71 193 71 C263 71 332 138 346 221 L412 592 C417 623 414 652 405 676 L472 804 L472 804 Z M123 221 L189 592 C200 657 253 711 306 711 C332 711 354 698 367 677 L122 213 C123 216 123 218 123 221 L123 221 Z M381 592 L315 221 C304 155 251 102 198 102 C165 102 140 122 129 154 L382 634 C384 621 384 607 381 592 L381 592 Z " />
<glyph glyph-name="ugrave" unicode="&#xf9;" horiz-adv-x="367" d="M307 221 C296 155 242 102 188 102 C134 102 99 155 110 221 L203 743 L172 743 L79 221 C65 138 112 71 183 71 C255 71 324 138 338 221 L431 743 L400 743 L307 221 L307 221 Z M302 858 L305 770 L332 770 L338 858 L302 858 L302 858 Z " />
<glyph glyph-name="uacute" unicode="&#xfa;" horiz-adv-x="367" d="M307 221 C296 155 242 102 188 102 C134 102 99 155 110 221 L203 743 L172 743 L79 221 C65 138 112 71 183 71 C255 71 324 138 338 221 L431 743 L400 743 L307 221 L307 221 Z M290 788 L317 788 L351 877 L316 877 L290 788 L290 788 Z " />
<glyph glyph-name="ucircumflex" unicode="&#xfb;" horiz-adv-x="367" d="M307 221 C296 155 242 102 188 102 C134 102 99 155 110 221 L203 743 L172 743 L79 221 C65 138 112 71 183 71 C255 71 324 138 338 221 L431 743 L400 743 L307 221 L307 221 Z M170 808 L185 784 L329 891 L434 789 L459 814 L336 932 L170 808 L170 808 Z " />
<glyph glyph-name="udieresis" unicode="&#xfc;" horiz-adv-x="367" d="M307 221 C296 155 242 102 188 102 C134 102 99 155 110 221 L203 743 L172 743 L79 221 C65 138 112 71 183 71 C255 71 324 138 338 221 L431 743 L400 743 L307 221 L307 221 Z M268 797 L307 797 L315 844 L276 844 L268 797 L268 797 Z M332 797 L371 797 L379 844 L340 844 L332 797 L332 797 Z " />
<glyph glyph-name="yacute" unicode="&#xfd;" horiz-adv-x="374" d="M234 382 L190 742 L158 742 L208 322 L164 72 L164 71 L196 71 L196 72 L241 324 L433 742 L400 742 L234 382 L234 382 Z M292 783 L319 783 L353 872 L318 872 L292 783 L292 783 Z " />
<glyph glyph-name="thorn" unicode="&#xfe;" horiz-adv-x="382" d="M291 586 C249 586 208 564 178 529 L207 695 L176 695 L24 -168 L55 -168 L94 56 C112 22 146 0 188 0 C260 0 330 67 345 150 L395 436 C410 518 363 586 291 586 L291 586 Z M314 150 C302 84 247 31 193 31 C138 31 103 84 115 150 L165 436 C177 502 230 554 285 554 C339 554 376 502 364 436 L314 150 Z " />
<glyph glyph-name="ydieresis" unicode="&#xff;" horiz-adv-x="374" d="M234 382 L190 742 L158 742 L208 322 L164 72 L164 71 L196 71 L196 72 L241 324 L433 742 L400 742 L234 382 L234 382 Z M253 774 L292 774 L300 821 L261 821 L253 774 L253 774 Z M317 774 L356 774 L364 821 L325 821 L317 774 L317 774 Z " />
<glyph glyph-name="Amacron" unicode="&#x100;" horiz-adv-x="434" d="M333 810 L35 0 L67 0 L157 247 L343 247 L347 0 L378 0 L369 810 L333 810 L333 810 Z M170 280 L338 734 L343 280 L170 280 L170 280 Z M386 997 L272 1050 L255 1020 L380 963 L528 1022 L521 1051 L386 997 L386 997 Z " />
<glyph glyph-name="amacron" unicode="&#x101;" horiz-adv-x="376" d="M338 817 L224 870 L207 840 L332 783 L480 842 L473 871 L338 817 L338 817 Z M315 743 L66 71 L98 71 L174 279 L320 279 L322 71 L353 71 L347 743 L315 743 Z M319 310 L185 310 L311 637 L319 310 L319 310 Z " />
<glyph glyph-name="Abreve" unicode="&#x102;" horiz-adv-x="434" d="M333 810 L35 0 L67 0 L157 247 L343 247 L347 0 L378 0 L369 810 L333 810 L333 810 Z M170 280 L338 734 L343 280 L170 280 L170 280 Z M366 918 C312 918 276 970 288 1036 L257 1036 C242 954 288 885 360 885 C434 885 504 954 519 1036 L487 1036 C475 970 422 918 366 918 L366 918 Z " />
<glyph glyph-name="abreve" unicode="&#x103;" horiz-adv-x="376" d="M350 823 C296 823 260 875 272 941 L241 941 C226 859 272 790 344 790 C418 790 488 859 503 941 L471 941 C459 875 406 823 350 823 L350 823 Z M315 743 L66 71 L98 71 L174 279 L320 279 L322 71 L353 71 L347 743 L315 743 Z M319 310 L185 310 L311 637 L319 310 L319 310 Z " />
<glyph glyph-name="Aogonek" unicode="&#x104;" horiz-adv-x="434" d="M333 810 L35 0 L67 0 L157 247 L343 247 L347 0 L378 0 L369 810 L333 810 L333 810 Z M170 280 L338 734 L343 280 L170 280 L170 280 Z M305 -127 C307 -118 314 -112 324 -100 C339 -85 360 -63 367 -25 L336 -25 C331 -52 317 -67 303 -81 C290 -94 277 -108 274 -127 C267 -168 304 -195 364 -195 L369 -164 C334 -164 301 -151 305 -127 L305 -127 Z " />
<glyph glyph-name="aogonek" unicode="&#x105;" horiz-adv-x="376" d="M168 -29 C170 -20 177 -14 187 -2 C202 13 223 35 230 73 L199 73 C194 46 180 31 166 17 C153 4 140 -10 137 -29 C130 -70 167 -97 227 -97 L232 -66 C197 -66 164 -53 168 -29 L168 -29 Z M315 743 L66 71 L98 71 L174 279 L320 279 L322 71 L353 71 L347 743 L315 743 Z M319 310 L185 310 L311 637 L319 310 L319 310 Z " />
<glyph glyph-name="Cacute" unicode="&#x106;" horiz-adv-x="413" d="M323 778 L332 778 C363 778 390 764 409 740 C420 725 428 704 430 683 L461 691 C459 718 450 743 435 762 C412 792 377 810 337 810 L328 810 C244 810 164 737 149 647 L63 162 C47 72 102 0 186 0 L195 0 C258 0 323 43 355 107 L327 118 C300 66 250 31 200 31 L191 31 C125 31 81 90 94 162 L180 647 C192 719 257 778 323 778 L323 778 Z M335 921 L362 921 L396 1010 L361 1010 L335 921 L335 921 Z " />
<glyph glyph-name="cacute" unicode="&#x107;" horiz-adv-x="328" d="M280 777 L307 777 L341 866 L306 866 L280 777 L280 777 Z M283 711 L290 711 C314 711 335 700 348 681 C357 667 363 652 363 635 L397 642 C395 665 387 685 374 702 C356 727 327 742 295 742 L288 742 C219 742 154 681 140 605 L70 207 C57 131 101 71 170 71 L177 71 C228 71 281 107 309 161 L281 171 C260 130 220 102 182 102 L175 102 C124 102 91 149 101 207 L171 605 C181 663 232 711 283 711 L283 711 Z " />
<glyph glyph-name="Ccircumflex" unicode="&#x108;" horiz-adv-x="413" d="M323 778 L332 778 C363 778 390 764 409 740 C420 725 428 704 430 683 L461 691 C459 718 450 743 435 762 C412 792 377 810 337 810 L328 810 C244 810 164 737 149 647 L63 162 C47 72 102 0 186 0 L195 0 C258 0 323 43 355 107 L327 118 C300 66 250 31 200 31 L191 31 C125 31 81 90 94 162 L180 647 C192 719 257 778 323 778 L323 778 Z M217 950 L232 926 L376 1033 L481 931 L506 956 L383 1074 L217 950 L217 950 Z " />
<glyph glyph-name="ccircumflex" unicode="&#x109;" horiz-adv-x="328" d="M159 780 L174 756 L318 863 L423 761 L448 786 L325 904 L159 780 L159 780 Z M283 711 L290 711 C314 711 335 700 348 681 C357 667 363 652 363 635 L397 642 C395 665 387 685 374 702 C356 727 327 742 295 742 L288 742 C219 742 154 681 140 605 L70 207 C57 131 101 71 170 71 L177 71 C228 71 281 107 309 161 L281 171 C260 130 220 102 182 102 L175 102 C124 102 91 149 101 207 L171 605 C181 663 232 711 283 711 L283 711 Z " />
<glyph glyph-name="Cdotaccent" unicode="&#x10a;" horiz-adv-x="413" d="M323 778 L332 778 C363 778 390 764 409 740 C420 725 428 704 430 683 L461 691 C459 718 450 743 435 762 C412 792 377 810 337 810 L328 810 C244 810 164 737 149 647 L63 162 C47 72 102 0 186 0 L195 0 C258 0 323 43 355 107 L327 118 C300 66 250 31 200 31 L191 31 C125 31 81 90 94 162 L180 647 C192 719 257 778 323 778 L323 778 Z M373 1006 C387 1006 403 1018 405 1034 C408 1050 397 1063 383 1063 C367 1063 352 1050 349 1034 C347 1018 357 1006 373 1006 L373 1006 Z " />
<glyph glyph-name="cdotaccent" unicode="&#x10b;" horiz-adv-x="328" d="M297 782 C311 782 327 794 329 810 C332 826 321 839 307 839 C291 839 276 826 273 810 C271 794 281 782 297 782 L297 782 Z M283 711 L290 711 C314 711 335 700 348 681 C357 667 363 652 363 635 L397 642 C395 665 387 685 374 702 C356 727 327 742 295 742 L288 742 C219 742 154 681 140 605 L70 207 C57 131 101 71 170 71 L177 71 C228 71 281 107 309 161 L281 171 C260 130 220 102 182 102 L175 102 C124 102 91 149 101 207 L171 605 C181 663 232 711 283 711 L283 711 Z " />
<glyph glyph-name="Ccaron" unicode="&#x10c;" horiz-adv-x="413" d="M323 778 L332 778 C363 778 390 764 409 740 C420 725 428 704 430 683 L461 691 C459 718 450 743 435 762 C412 792 377 810 337 810 L328 810 C244 810 164 737 149 647 L63 162 C47 72 102 0 186 0 L195 0 C258 0 323 43 355 107 L327 118 C300 66 250 31 200 31 L191 31 C125 31 81 90 94 162 L180 647 C192 719 257 778 323 778 L323 778 Z M386 997 L272 1050 L255 1020 L380 963 L528 1022 L521 1051 L386 997 L386 997 Z " />
<glyph glyph-name="ccaron" unicode="&#x10d;" horiz-adv-x="328" d="M313 817 L199 870 L182 840 L307 783 L455 842 L448 871 L313 817 L313 817 Z M293 711 L300 711 C324 711 345 700 358 681 C367 667 373 652 373 635 L407 642 C405 665 397 685 384 702 C366 727 337 742 305 742 L298 742 C229 742 164 681 150 605 L80 207 C67 131 111 71 180 71 L187 71 C238 71 291 107 319 161 L291 171 C270 130 230 102 192 102 L185 102 C134 102 101 149 111 207 L181 605 C191 663 242 711 293 711 L293 711 Z " />
<glyph glyph-name="Dcaron" unicode="&#x10e;" horiz-adv-x="398" d="M327 810 L177 810 L35 0 L187 0 C265 0 339 67 354 150 L444 662 C459 744 406 810 327 810 L327 810 Z M323 150 C311 84 252 31 192 31 L71 31 L203 779 L322 779 C383 779 425 726 413 662 L323 150 L323 150 Z M379 997 L265 1050 L248 1020 L373 963 L521 1022 L514 1051 L379 997 L379 997 Z " />
<glyph glyph-name="dcaron" unicode="&#x10f;" horiz-adv-x="496" d="M355 527 C338 562 304 583 262 583 C190 583 119 516 105 433 L55 150 C40 67 88 0 160 0 C202 0 242 22 272 56 L263 0 L294 0 L437 811 L406 811 L355 527 L355 527 Z M285 150 C273 84 220 31 165 31 C111 31 74 84 86 150 L136 433 C147 499 203 552 257 552 C312 552 346 499 335 433 L285 150 L285 150 Z M522 811 L483 811 L476 774 L494 774 L494 774 C491 757 479 758 479 758 L477 745 C510 745 515 774 515 774 L522 811 L522 811 Z " />
<glyph glyph-name="Dcroat" unicode="&#x110;" horiz-adv-x="442" d="M346 810 L227 810 L196 810 L128 425 L78 425 L73 392 L123 392 L54 1 L65 1 L206 1 C284 1 358 68 373 151 L463 662 C478 744 425 810 346 810 L346 810 Z M342 151 C330 85 271 32 211 32 L90 32 L154 392 L317 392 L322 425 L159 425 L222 779 L341 779 C402 779 444 726 432 662 L342 151 Z " />
<glyph glyph-name="dcroat" unicode="&#x111;" horiz-adv-x="397" d="M368 599 C350 634 317 655 275 655 C203 655 132 588 118 505 L68 222 C53 139 100 72 172 72 C214 72 255 94 285 128 L275 72 L306 72 L449 883 L418 883 L368 599 L368 599 Z M298 222 C286 156 233 103 178 103 C124 103 87 156 99 222 L149 505 C160 571 216 624 270 624 C325 624 359 571 348 505 L298 222 L298 222 Z M277 729 L460 729 L463 765 L280 765 L277 729 L277 729 Z " />
<glyph glyph-name="Emacron" unicode="&#x112;" horiz-adv-x="335" d="M35 0 L261 0 L266 31 L71 31 L128 353 L273 353 L278 385 L133 385 L203 780 L398 780 L404 811 L178 811 L35 0 L35 0 Z M319 881 L205 934 L188 904 L313 847 L461 906 L454 935 L319 881 L319 881 Z " />
<glyph glyph-name="emacron" unicode="&#x113;" horiz-adv-x="328" d="M294 821 L180 874 L163 844 L288 787 L436 846 L429 875 L294 821 L294 821 Z M67 76 L253 76 L258 107 L103 107 L149 364 L263 364 L268 396 L154 396 L210 712 L365 712 L371 743 L185 743 L67 76 L67 76 Z " />
<glyph glyph-name="Edotaccent" unicode="&#x116;" horiz-adv-x="335" d="M35 0 L261 0 L266 31 L71 31 L128 353 L273 353 L278 385 L133 385 L203 780 L398 780 L404 811 L178 811 L35 0 L35 0 Z M335 1006 C349 1006 365 1018 367 1034 C370 1050 359 1063 345 1063 C329 1063 314 1050 311 1034 C309 1018 319 1006 335 1006 L335 1006 Z " />
<glyph glyph-name="edotaccent" unicode="&#x117;" horiz-adv-x="298" d="M286 782 C300 782 316 794 318 810 C321 826 310 839 296 839 C280 839 265 826 262 810 C260 794 270 782 286 782 L286 782 Z M67 76 L253 76 L258 107 L103 107 L149 364 L263 364 L268 396 L154 396 L210 712 L365 712 L371 743 L185 743 L67 76 L67 76 Z " />
<glyph glyph-name="Eogonek" unicode="&#x118;" horiz-adv-x="335" d="M35 0 L261 0 L266 31 L71 31 L128 353 L273 353 L278 385 L133 385 L203 780 L398 780 L404 811 L178 811 L35 0 L35 0 Z M113 -127 C115 -118 122 -112 132 -100 C147 -85 168 -63 175 -25 L144 -25 C139 -52 125 -67 111 -81 C98 -94 85 -108 82 -127 C75 -168 112 -195 172 -195 L177 -164 C142 -164 109 -151 113 -127 L113 -127 Z " />
<glyph glyph-name="eogonek" unicode="&#x119;" horiz-adv-x="294" d="M67 76 L253 76 L258 107 L103 107 L149 364 L263 364 L268 396 L154 396 L210 712 L365 712 L371 743 L185 743 L67 76 L67 76 Z M113 -27 C115 -18 122 -12 132 0 C147 15 168 37 175 75 L144 75 C139 48 125 33 111 19 C98 6 85 -8 82 -27 C75 -68 112 -95 172 -95 L177 -64 C142 -64 109 -51 113 -27 L113 -27 Z " />
<glyph glyph-name="Ecaron" unicode="&#x11a;" horiz-adv-x="335" d="M35 0 L261 0 L266 31 L71 31 L128 353 L273 353 L278 385 L133 385 L203 780 L398 780 L404 811 L178 811 L35 0 L35 0 Z M349 997 L235 1050 L218 1020 L343 963 L491 1022 L484 1051 L349 997 L349 997 Z " />
<glyph glyph-name="ecaron" unicode="&#x11b;" horiz-adv-x="298" d="M305 816 L191 869 L174 839 L299 782 L447 841 L440 870 L305 816 L305 816 Z M67 76 L253 76 L258 107 L103 107 L149 364 L263 364 L268 396 L154 396 L210 712 L365 712 L371 743 L185 743 L67 76 L67 76 Z " />
<glyph glyph-name="Gcircumflex" unicode="&#x11c;" horiz-adv-x="416" d="M235 353 L377 353 L343 162 C330 90 266 31 200 31 L191 31 C125 31 81 90 94 162 L180 648 C192 720 257 779 323 779 L332 779 C363 779 391 766 409 742 C421 726 428 706 430 685 L462 692 C459 719 450 744 435 763 C412 793 377 810 337 810 L328 810 C244 810 165 738 149 648 L63 162 C47 72 102 0 186 0 L195 0 C279 0 358 72 374 162 L413 384 L240 384 L235 353 L235 353 Z M219 950 L234 926 L378 1033 L483 931 L508 956 L385 1074 L219 950 L219 950 Z " />
<glyph glyph-name="gcircumflex" unicode="&#x11d;" horiz-adv-x="360" d="M174 779 L189 755 L333 862 L438 760 L463 785 L340 903 L174 779 L174 779 Z M230 359 L339 359 L312 207 C302 149 252 102 202 102 L193 102 C143 102 111 149 121 207 L191 606 C202 664 251 710 301 710 L310 710 C333 710 353 700 366 680 C376 668 382 652 383 635 L415 642 C413 665 406 685 394 702 C376 727 347 742 315 742 L306 742 C239 742 173 680 160 606 L90 207 C77 131 121 71 188 71 L197 71 C264 71 330 131 343 207 L375 390 L235 390 L230 359 L230 359 Z " />
<glyph glyph-name="Gbreve" unicode="&#x11e;" horiz-adv-x="416" d="M235 353 L377 353 L343 162 C330 90 266 31 200 31 L191 31 C125 31 81 90 94 162 L180 648 C192 720 257 779 323 779 L332 779 C363 779 391 766 409 742 C421 726 428 706 430 685 L462 692 C459 719 450 744 435 763 C412 793 377 810 337 810 L328 810 C244 810 165 738 149 648 L63 162 C47 72 102 0 186 0 L195 0 C279 0 358 72 374 162 L413 384 L240 384 L235 353 L235 353 Z M357 918 C303 918 267 970 279 1036 L248 1036 C233 954 279 885 351 885 C425 885 495 954 510 1036 L478 1036 C466 970 413 918 357 918 L357 918 Z " />
<glyph glyph-name="gbreve" unicode="&#x11f;" horiz-adv-x="360" d="M317 807 C263 807 227 859 239 925 L208 925 C193 843 239 774 311 774 C385 774 455 843 470 925 L438 925 C426 859 373 807 317 807 L317 807 Z M230 359 L339 359 L312 207 C302 149 252 102 202 102 L193 102 C143 102 111 149 121 207 L191 606 C202 664 251 710 301 710 L310 710 C333 710 353 700 366 680 C376 668 382 652 383 635 L415 642 C413 665 406 685 394 702 C376 727 347 742 315 742 L306 742 C239 742 173 680 160 606 L90 207 C77 131 121 71 188 71 L197 71 C264 71 330 131 343 207 L375 390 L235 390 L230 359 L230 359 Z " />
<glyph glyph-name="Gdotaccent" unicode="&#x120;" horiz-adv-x="416" d="M235 353 L377 353 L343 162 C330 90 266 31 200 31 L191 31 C125 31 81 90 94 162 L180 648 C192 720 257 779 323 779 L332 779 C363 779 391 766 409 742 C421 726 428 706 430 685 L462 692 C459 719 450 744 435 763 C412 793 377 810 337 810 L328 810 C244 810 165 738 149 648 L63 162 C47 72 102 0 186 0 L195 0 C279 0 358 72 374 162 L413 384 L240 384 L235 353 L235 353 Z M376 1006 C390 1006 406 1018 408 1034 C411 1050 400 1063 386 1063 C370 1063 355 1050 352 1034 C350 1018 360 1006 376 1006 L376 1006 Z " />
<glyph glyph-name="gdotaccent" unicode="&#x121;" horiz-adv-x="362" d="M317 782 C331 782 347 794 349 810 C352 826 341 839 327 839 C311 839 296 826 293 810 C291 794 301 782 317 782 L317 782 Z M230 359 L339 359 L312 207 C302 149 252 102 202 102 L193 102 C143 102 111 149 121 207 L191 606 C202 664 251 710 301 710 L310 710 C333 710 353 700 366 680 C376 668 382 652 383 635 L415 642 C413 665 406 685 394 702 C376 727 347 742 315 742 L306 742 C239 742 173 680 160 606 L90 207 C77 131 121 71 188 71 L197 71 C264 71 330 131 343 207 L375 390 L235 390 L230 359 L230 359 Z " />
<glyph glyph-name="Gcommaaccent" unicode="&#x122;" horiz-adv-x="416" d="M235 353 L377 353 L343 162 C330 90 266 31 200 31 L191 31 C125 31 81 90 94 162 L180 648 C192 720 257 779 323 779 L332 779 C363 779 391 766 409 742 C421 726 428 706 430 685 L462 692 C459 719 450 744 435 763 C412 793 377 810 337 810 L328 810 C244 810 165 738 149 648 L63 162 C47 72 102 0 186 0 L195 0 C279 0 358 72 374 162 L413 384 L240 384 L235 353 L235 353 Z M217 41 L178 41 L171 -3 L189 -3 L189 -3 C185 -24 173 -21 173 -21 L170 -38 C203 -38 210 -3 210 -3 L217 41 L217 41 Z " />
<glyph glyph-name="gcommaaccent" unicode="&#x123;" horiz-adv-x="357" d="M307 831 L299 785 L338 785 L346 831 L328 831 L328 831 C331 850 343 849 343 849 L346 864 C313 864 307 831 307 831 L307 831 Z M230 359 L339 359 L312 207 C302 149 252 102 202 102 L193 102 C143 102 111 149 121 207 L191 606 C202 664 251 710 301 710 L310 710 C333 710 353 700 366 680 C376 668 382 652 383 635 L415 642 C413 665 406 685 394 702 C376 727 347 742 315 742 L306 742 C239 742 173 680 160 606 L90 207 C77 131 121 71 188 71 L197 71 C264 71 330 131 343 207 L375 390 L235 390 L230 359 L230 359 Z " />
<glyph glyph-name="Hcircumflex" unicode="&#x124;" horiz-adv-x="406" d="M369 388 L134 388 L208 809 L177 809 L35 0 L66 0 L128 356 L363 356 L301 1 L333 1 L475 809 L443 809 L369 388 L369 388 Z M214 950 L229 926 L373 1033 L478 931 L503 956 L380 1074 L214 950 L214 950 Z " />
<glyph glyph-name="hcircumflex" unicode="&#x125;" horiz-adv-x="367" d="M171 816 L186 792 L330 899 L435 797 L460 822 L337 940 L171 816 L171 816 Z M336 390 L153 390 L215 742 L184 742 L66 71 L97 71 L148 359 L331 359 L280 71 L311 71 L429 742 L398 742 L336 390 L336 390 Z " />
<glyph glyph-name="Hbar" unicode="&#x126;" horiz-adv-x="554" d="M129 509 L570 509 L576 544 L135 544 L129 509 Z M444 388 L209 388 L283 809 L252 809 L110 0 L141 0 L203 356 L438 356 L376 1 L408 1 L550 809 L518 809 L444 388 L444 388 Z " />
<glyph glyph-name="hbar" unicode="&#x127;" horiz-adv-x="367" d="M271 583 C231 583 192 563 162 530 L212 811 L181 811 L114 432 L38 0 L69 0 L145 432 C156 498 212 552 266 552 C321 552 356 498 345 432 L269 0 L301 0 L377 432 C391 516 344 583 271 583 L271 583 Z M109 669 L413 669 L418 702 L114 702 L109 669 L109 669 Z " />
<glyph glyph-name="Itilde" unicode="&#x128;" horiz-adv-x="145" d="M35 0 L66 0 L208 810 L177 810 L35 0 L35 0 Z M247 952 C204 984 152 1018 34 918 L52 895 C150 979 185 954 225 925 C248 909 272 894 304 894 C337 894 378 909 437 958 L418 981 C322 900 289 922 247 952 L247 952 Z " />
<glyph glyph-name="itilde" unicode="&#x129;" horiz-adv-x="196" d="M69 709 L223 709 L109 67 L141 67 L260 740 L74 740 L69 709 L69 709 Z M211 850 C168 882 116 916 -2 816 L16 793 C114 877 149 852 189 823 C212 807 236 792 268 792 C301 792 342 807 401 856 L382 879 C286 798 253 820 211 850 L211 850 Z " />
<glyph glyph-name="imacron" unicode="&#x12b;" horiz-adv-x="196" d="M69 709 L223 709 L109 67 L141 67 L260 740 L74 740 L69 709 L69 709 Z M170 713 L56 766 L39 736 L164 679 L312 738 L305 767 L170 713 L170 713 Z " />
<glyph glyph-name="Iogonek" unicode="&#x12e;" horiz-adv-x="145" d="M35 0 L66 0 L208 810 L177 810 L35 0 L35 0 Z M6 -127 C8 -118 15 -112 25 -100 C40 -85 61 -63 68 -25 L37 -25 C32 -52 18 -67 4 -81 C-9 -94 -22 -108 -25 -127 C-32 -168 5 -195 65 -195 L70 -164 C35 -164 2 -151 6 -127 L6 -127 Z " />
<glyph glyph-name="iogonek" unicode="&#x12f;" horiz-adv-x="139" d="M54 0 L85 0 L187 583 L156 583 L54 0 L54 0 Z M172 670 L203 670 L209 706 L178 706 L172 670 L172 670 Z M6 -127 C8 -118 15 -112 25 -100 C40 -85 61 -63 68 -25 L37 -25 C32 -52 18 -67 4 -81 C-9 -94 -22 -108 -25 -127 C-32 -168 5 -195 65 -195 L70 -164 C35 -164 2 -151 6 -127 L6 -127 Z " />
<glyph glyph-name="Idotaccent" unicode="&#x130;" horiz-adv-x="145" d="M35 0 L66 0 L208 810 L177 810 L35 0 L35 0 Z M240 1006 C254 1006 270 1018 272 1034 C275 1050 264 1063 250 1063 C234 1063 219 1050 216 1034 C214 1018 224 1006 240 1006 L240 1006 Z " />
<glyph glyph-name="dotlessi" unicode="&#x131;" horiz-adv-x="196" d="M69 709 L223 709 L109 67 L141 67 L260 740 L74 740 L69 709 L69 709 Z " />
<glyph glyph-name="Jcircumflex" unicode="&#x134;" horiz-adv-x="407" d="M333 156 C321 88 257 31 191 31 C125 31 81 88 93 156 L127 350 L96 350 L62 156 C47 70 103 0 186 0 C269 0 349 70 364 156 L479 810 L448 810 L333 156 L333 156 Z M355 950 L370 926 L514 1033 L619 931 L644 956 L521 1074 L355 950 L355 950 Z " />
<glyph glyph-name="jcircumflex" unicode="&#x135;" horiz-adv-x="369" d="M216 817 L231 793 L375 900 L480 798 L505 823 L382 941 L216 817 L216 817 Z M315 227 C303 159 250 102 197 102 C145 102 112 158 125 227 L149 368 L118 368 L94 227 C78 141 122 71 192 71 C262 71 331 141 347 227 L437 742 L405 742 L315 227 L315 227 Z " />
<glyph glyph-name="Kcommaaccent" unicode="&#x136;" horiz-adv-x="434" d="M520 811 L483 811 L133 383 L209 811 L178 811 L35 0 L66 0 L123 324 L251 482 L348 0 L382 0 L279 515 L520 811 L520 811 Z M217 41 L178 41 L171 -3 L189 -3 L189 -3 C185 -24 173 -21 173 -21 L170 -38 C203 -38 210 -3 210 -3 L217 41 L217 41 Z " />
<glyph glyph-name="kcommaaccent" unicode="&#x137;" horiz-adv-x="416" d="M240 117 L201 117 L194 73 L212 73 L212 73 C208 52 196 55 196 55 L193 38 C226 38 233 73 233 73 L240 117 L240 117 Z M467 742 L145 345 L215 742 L184 742 L66 71 L97 71 L135 286 L264 444 L340 71 L373 71 L292 478 L504 742 L467 742 L467 742 Z " />
<glyph glyph-name="kgreenlandic" unicode="&#x138;" horiz-adv-x="419" d="M467 742 L145 345 L215 742 L184 742 L66 71 L97 71 L135 286 L264 444 L340 71 L373 71 L292 478 L504 742 L467 742 L467 742 Z " />
<glyph glyph-name="Lacute" unicode="&#x139;" horiz-adv-x="335" d="M209 811 L178 811 L35 0 L259 0 L264 31 L71 31 L209 811 L209 811 Z M219 921 L246 921 L280 1010 L245 1010 L219 921 L219 921 Z " />
<glyph glyph-name="lacute" unicode="&#x13a;" horiz-adv-x="139" d="M54 0 L86 0 L229 811 L197 811 L54 0 L54 0 Z M202 882 L229 882 L263 971 L228 971 L202 882 L202 882 Z " />
<glyph glyph-name="Lcommaaccent" unicode="&#x13b;" horiz-adv-x="335" d="M209 811 L178 811 L35 0 L259 0 L264 31 L71 31 L209 811 L209 811 Z M176 41 L137 41 L130 -3 L148 -3 L148 -3 C144 -24 132 -21 132 -21 L129 -38 C162 -38 169 -3 169 -3 L176 41 L176 41 Z " />
<glyph glyph-name="lcommaaccent" unicode="&#x13c;" horiz-adv-x="139" d="M54 0 L86 0 L229 811 L197 811 L54 0 L54 0 Z M97 41 L58 41 L51 -3 L69 -3 L69 -3 C65 -24 53 -21 53 -21 L50 -38 C83 -38 90 -3 90 -3 L97 41 L97 41 Z " />
<glyph glyph-name="Lcaron" unicode="&#x13d;" horiz-adv-x="335" d="M209 811 L178 811 L35 0 L259 0 L264 31 L71 31 L209 811 L209 811 Z M257 980 L218 980 L211 943 L229 943 L229 943 C226 926 214 927 214 927 L212 914 C245 914 250 943 250 943 L257 980 L257 980 Z " />
<glyph glyph-name="lcaron" unicode="&#x13e;" horiz-adv-x="264" d="M54 0 L86 0 L229 811 L197 811 L54 0 L54 0 Z M301 811 L262 811 L255 774 L273 774 L273 774 C270 757 258 758 258 758 L256 745 C289 745 294 774 294 774 L301 811 L301 811 Z " />
<glyph glyph-name="Lslash" unicode="&#x141;" horiz-adv-x="367" d="M227 808 L196 808 L54 1 L278 1 L283 32 L90 32 L227 808 Z M109 392 L269 392 L274 425 L114 425 L109 392 Z " />
<glyph glyph-name="lslash" unicode="&#x142;" horiz-adv-x="266" d="M105 0 L137 0 L280 811 L248 811 L105 0 L105 0 Z M62 386 L273 386 L276 422 L65 422 L62 386 L62 386 Z " />
<glyph glyph-name="Nacute" unicode="&#x143;" horiz-adv-x="430" d="M213 812 L180 812 L180 812 L37 0 L69 0 L195 719 L310 0 L345 0 L345 0 L488 811 L455 811 L327 90 L213 812 Z M345 921 L372 921 L406 1010 L371 1010 L345 921 L345 921 Z " />
<glyph glyph-name="nacute" unicode="&#x144;" horiz-adv-x="372" d="M312 779 L339 779 L373 868 L338 868 L312 779 L312 779 Z M454 742 L423 742 L321 159 L224 742 L191 742 L190 742 L190 742 L190 742 L72 71 L66 71 L66 71 L103 71 L205 650 L301 71 L336 71 L454 742 L454 742 Z " />
<glyph glyph-name="Ncommaaccent" unicode="&#x145;" horiz-adv-x="430" d="M213 812 L180 812 L180 812 L37 0 L69 0 L195 719 L310 0 L345 0 L345 0 L488 811 L455 811 L327 90 L213 812 Z M205 41 L166 41 L159 -3 L177 -3 L177 -3 C173 -24 161 -21 161 -21 L158 -38 C191 -38 198 -3 198 -3 L205 41 L205 41 Z " />
<glyph glyph-name="ncommaaccent" unicode="&#x146;" horiz-adv-x="372" d="M268 583 C228 583 189 563 159 530 L168 583 L137 583 L111 433 L35 1 L35 0 L66 0 L66 1 L142 433 C153 498 209 552 263 552 C318 552 352 498 341 433 L265 0 L298 0 L374 433 C388 516 341 583 268 583 L268 583 Z M193 41 L154 41 L147 -3 L165 -3 L165 -3 C161 -24 149 -21 149 -21 L146 -38 C179 -38 186 -3 186 -3 L193 41 L193 41 Z " />
<glyph glyph-name="Ncaron" unicode="&#x147;" horiz-adv-x="430" d="M213 812 L180 812 L180 812 L37 0 L69 0 L195 719 L310 0 L345 0 L345 0 L488 811 L455 811 L327 90 L213 812 Z M396 997 L282 1050 L265 1020 L390 963 L538 1022 L531 1051 L396 997 L396 997 Z " />
<glyph glyph-name="ncaron" unicode="&#x148;" horiz-adv-x="372" d="M333 807 L219 860 L202 830 L327 773 L475 832 L468 861 L333 807 L333 807 Z M454 742 L423 742 L321 159 L224 742 L191 742 L190 742 L190 742 L190 742 L72 71 L66 71 L66 71 L103 71 L205 650 L301 71 L336 71 L454 742 L454 742 Z " />
<glyph glyph-name="Eng" unicode="&#x14a;" horiz-adv-x="430" d="M285 -155 C273 -223 209 -280 143 -280 C77 -280 33 -223 45 -155 L54 -106 L23 -106 L14 -155 C0 -241 55 -311 138 -311 C221 -311 301 -241 316 -155 L431 496 L400 496 L285 -155 Z M213 812 L180 812 L180 812 L37 0 L69 0 L195 719 L310 0 L345 0 L345 0 L488 811 L455 811 L327 90 L213 812 Z " />
<glyph glyph-name="eng" unicode="&#x14b;" horiz-adv-x="407" d="M293 1 C281 -68 227 -124 172 -124 C150 -124 131 -115 117 -100 L91 -122 C110 -144 137 -156 166 -156 C238 -156 310 -85 325 1 L394 396 L362 396 L293 1 L293 1 Z M293 0 L326 0 L293 0 Z M454 742 L423 742 L321 159 L224 742 L191 742 L190 742 L190 742 L190 742 L72 71 L66 71 L66 71 L103 71 L205 650 L301 71 L336 71 L454 742 L454 742 Z " />
<glyph glyph-name="Omacron" unicode="&#x14c;" horiz-adv-x="414" d="M338 811 L329 811 C245 811 166 744 151 661 L62 150 C47 67 103 0 187 0 L197 0 C280 0 358 67 373 150 L462 661 C477 744 422 811 338 811 L338 811 Z M202 31 L192 31 C126 31 81 84 93 150 L182 661 C194 726 257 780 323 780 L332 780 C398 780 443 726 431 661 L342 150 C330 84 267 31 202 31 L202 31 Z M331 881 L217 934 L200 904 L325 847 L473 906 L466 935 L331 881 L331 881 Z " />
<glyph glyph-name="omacron" unicode="&#x14d;" horiz-adv-x="367" d="M322 824 L208 877 L191 847 L316 790 L464 849 L457 878 L322 824 L322 824 Z M311 742 C242 742 173 675 158 592 L92 221 C78 138 124 71 193 71 C263 71 332 138 346 221 L412 592 C427 675 381 742 311 742 L311 742 Z M315 221 C304 155 251 102 198 102 C145 102 112 155 123 221 L189 592 C200 657 253 711 306 711 C359 711 392 657 381 592 L315 221 L315 221 Z " />
<glyph glyph-name="Ohungarumlaut" unicode="&#x150;" horiz-adv-x="414" d="M338 811 L329 811 C245 811 166 744 151 661 L62 150 C47 67 103 0 187 0 L197 0 C280 0 358 67 373 150 L462 661 C477 744 422 811 338 811 L338 811 Z M202 31 L192 31 C126 31 81 84 93 150 L182 661 C194 726 257 780 323 780 L332 780 C398 780 443 726 431 661 L342 150 C330 84 267 31 202 31 L202 31 Z M289 948 L316 948 L350 1036 L315 1036 L289 948 L289 948 Z M337 948 L364 948 L398 1036 L362 1036 L337 948 L337 948 Z " />
<glyph glyph-name="ohungarumlaut" unicode="&#x151;" horiz-adv-x="367" d="M284 795 L311 795 L345 883 L310 883 L284 795 L284 795 Z M332 795 L359 795 L393 883 L357 883 L332 795 L332 795 Z M311 742 C242 742 173 675 158 592 L92 221 C78 138 124 71 193 71 C263 71 332 138 346 221 L412 592 C427 675 381 742 311 742 L311 742 Z M315 221 C304 155 251 102 198 102 C145 102 112 155 123 221 L189 592 C200 657 253 711 306 711 C359 711 392 657 381 592 L315 221 L315 221 Z " />
<glyph glyph-name="OE" unicode="&#x152;" horiz-adv-x="608" d="M697 780 L703 811 L478 811 L467 749 C445 785 405 809 356 809 L347 809 C263 809 184 742 170 659 L81 151 C66 68 122 1 206 1 L216 1 C264 1 311 24 345 60 L335 1 L560 1 L565 32 L371 32 L392 150 C392 150 392 151 392 151 L393 157 L428 353 L573 353 L578 385 L433 385 L503 780 L697 780 L697 780 Z M221 32 L211 32 C145 32 100 85 112 151 L201 659 C212 724 276 778 342 778 L351 778 C417 778 461 724 450 659 L362 157 L361 150 C348 84 286 32 221 32 L221 32 Z " />
<glyph glyph-name="oe" unicode="&#x153;" horiz-adv-x="602" d="M371 310 L601 310 L620 415 C636 509 590 584 517 584 C469 584 422 551 390 502 C378 551 338 584 287 584 C215 584 145 517 130 434 L80 151 C65 68 113 1 185 1 C236 1 287 35 316 84 C330 34 367 1 415 1 C488 1 560 76 576 169 L544 169 C531 94 475 32 420 32 C371 32 337 84 343 151 C343 151 343 151 343 151 L371 310 L371 310 Z M512 552 C567 552 601 491 588 415 L575 341 L377 341 L393 433 C411 500 463 552 512 552 L512 552 Z M310 151 C298 85 245 32 190 32 C136 32 99 85 111 151 L161 434 C173 500 228 553 282 553 C337 553 372 500 360 434 L310 151 L310 151 Z " />
<glyph glyph-name="Racute" unicode="&#x154;" horiz-adv-x="401" d="M304 328 C357 353 399 406 410 468 L443 656 C458 742 408 811 330 811 L178 811 L35 0 L67 0 L122 313 L234 313 C300 313 344 259 333 193 L299 0 L330 0 L364 193 C374 252 350 302 304 328 L304 328 Z M127 344 L204 780 L324 780 C384 780 424 725 412 656 L379 468 C367 400 307 344 247 344 L127 344 L127 344 Z M329 921 L356 921 L390 1010 L355 1010 L329 921 L329 921 Z " />
<glyph glyph-name="racute" unicode="&#x155;" horiz-adv-x="348" d="M285 777 L312 777 L346 866 L311 866 L285 777 L285 777 Z M290 333 C332 354 366 400 375 452 L403 611 C416 683 376 743 311 743 L185 743 L184 742 L179 710 L116 352 L110 320 L66 71 L66 71 L97 71 L97 71 L141 320 L226 320 C279 320 315 267 303 201 L280 71 L311 71 L334 201 C344 258 325 308 290 333 L290 333 Z M147 352 L210 710 L305 710 C352 710 382 666 372 611 L344 452 C334 396 289 352 242 352 L147 352 L147 352 Z " />
<glyph glyph-name="Rcommaaccent" unicode="&#x156;" horiz-adv-x="401" d="M304 328 C357 353 399 406 410 468 L443 656 C458 742 408 811 330 811 L178 811 L35 0 L67 0 L122 313 L234 313 C300 313 344 259 333 193 L299 0 L330 0 L364 193 C374 252 350 302 304 328 L304 328 Z M127 344 L204 780 L324 780 C384 780 424 725 412 656 L379 468 C367 400 307 344 247 344 L127 344 L127 344 Z M193 41 L154 41 L147 -3 L165 -3 L165 -3 C161 -24 149 -21 149 -21 L146 -38 C179 -38 186 -3 186 -3 L193 41 L193 41 Z " />
<glyph glyph-name="rcommaaccent" unicode="&#x157;" horiz-adv-x="346" d="M212 114 L173 114 L166 70 L184 70 L184 70 C180 49 168 52 168 52 L165 35 C198 35 205 70 205 70 L212 114 L212 114 Z M290 333 C332 354 366 400 375 452 L403 611 C416 683 376 743 311 743 L185 743 L184 742 L179 710 L116 352 L110 320 L66 71 L66 71 L97 71 L97 71 L141 320 L226 320 C279 320 315 267 303 201 L280 71 L311 71 L334 201 C344 258 325 308 290 333 L290 333 Z M147 352 L210 710 L305 710 C352 710 382 666 372 611 L344 452 C334 396 289 352 242 352 L147 352 L147 352 Z " />
<glyph glyph-name="Rcaron" unicode="&#x158;" horiz-adv-x="401" d="M304 328 C357 353 399 406 410 468 L443 656 C458 742 408 811 330 811 L178 811 L35 0 L67 0 L122 313 L234 313 C300 313 344 259 333 193 L299 0 L330 0 L364 193 C374 252 350 302 304 328 L304 328 Z M127 344 L204 780 L324 780 C384 780 424 725 412 656 L379 468 C367 400 307 344 247 344 L127 344 L127 344 Z M380 997 L266 1050 L249 1020 L374 963 L522 1022 L515 1051 L380 997 L380 997 Z " />
<glyph glyph-name="rcaron" unicode="&#x159;" horiz-adv-x="325" d="M304 810 L190 863 L173 833 L298 776 L446 835 L439 864 L304 810 L304 810 Z M290 333 C332 354 366 400 375 452 L403 611 C416 683 376 743 311 743 L185 743 L184 742 L179 710 L116 352 L110 320 L66 71 L66 71 L97 71 L97 71 L141 320 L226 320 C279 320 315 267 303 201 L280 71 L311 71 L334 201 C344 258 325 308 290 333 L290 333 Z M147 352 L210 710 L305 710 C352 710 382 666 372 611 L344 452 C334 396 289 352 242 352 L147 352 L147 352 Z " />
<glyph glyph-name="Sacute" unicode="&#x15a;" horiz-adv-x="425" d="M272 421 C215 487 162 551 181 656 C194 725 258 779 326 779 C392 779 435 720 423 647 L455 647 C470 737 416 811 332 811 C246 811 167 743 150 656 C128 538 188 467 247 398 C304 331 357 265 336 156 C320 77 268 31 194 31 C128 31 84 90 97 163 L64 163 C48 73 105 0 189 0 C280 0 349 59 368 156 C392 278 332 352 272 421 L272 421 Z M343 921 L370 921 L404 1010 L369 1010 L343 921 L343 921 Z " />
<glyph glyph-name="sacute" unicode="&#x15b;" horiz-adv-x="344" d="M312 784 L339 784 L373 873 L338 873 L312 784 L312 784 Z M264 419 C220 473 177 527 192 612 C203 667 253 709 306 709 C358 709 391 662 381 604 L413 604 C426 679 381 742 311 742 C240 742 175 684 161 612 C143 514 192 454 239 398 C284 342 328 291 310 202 C298 138 257 102 198 102 C147 102 112 149 122 208 L91 208 C78 132 124 71 193 71 C269 71 326 120 342 202 C361 304 314 363 264 419 L264 419 Z " />
<glyph glyph-name="Scircumflex" unicode="&#x15c;" horiz-adv-x="425" d="M272 421 C215 487 162 551 181 656 C194 725 258 779 326 779 C392 779 435 720 423 647 L455 647 C470 737 416 811 332 811 C246 811 167 743 150 656 C128 538 188 467 247 398 C304 331 357 265 336 156 C320 77 268 31 194 31 C128 31 84 90 97 163 L64 163 C48 73 105 0 189 0 C280 0 349 59 368 156 C392 278 332 352 272 421 L272 421 Z M224 950 L239 926 L383 1033 L488 931 L513 956 L390 1074 L224 950 L224 950 Z " />
<glyph glyph-name="scircumflex" unicode="&#x15d;" horiz-adv-x="344" d="M169 781 L184 757 L328 864 L433 762 L458 787 L335 905 L169 781 L169 781 Z M264 419 C220 473 177 527 192 612 C203 667 253 709 306 709 C358 709 391 662 381 604 L413 604 C426 679 381 742 311 742 C240 742 175 684 161 612 C143 514 192 454 239 398 C284 342 328 291 310 202 C298 138 257 102 198 102 C147 102 112 149 122 208 L91 208 C78 132 124 71 193 71 C269 71 326 120 342 202 C361 304 314 363 264 419 L264 419 Z " />
<glyph glyph-name="Scedilla" unicode="&#x15e;" horiz-adv-x="425" d="M272 421 C215 487 162 551 181 656 C194 725 258 779 326 779 C392 779 435 720 423 647 L455 647 C470 737 416 811 332 811 C246 811 167 743 150 656 C128 538 188 467 247 398 C304 331 357 265 336 156 C320 77 268 31 194 31 C128 31 84 90 97 163 L64 163 C48 73 105 0 189 0 C280 0 349 59 368 156 C392 278 332 352 272 421 L272 421 Z M225 25 L194 25 C187 -13 200 -35 211 -50 C219 -62 222 -68 220 -77 C216 -101 177 -114 143 -114 L138 -145 C198 -145 245 -118 252 -77 C255 -58 247 -44 239 -31 C230 -17 220 -2 225 25 L225 25 Z " />
<glyph glyph-name="scedilla" unicode="&#x15f;" horiz-adv-x="344" d="M184 25 L153 25 C146 -13 159 -35 170 -50 C178 -62 181 -68 179 -77 C175 -101 136 -114 102 -114 L97 -145 C157 -145 204 -118 211 -77 C214 -58 206 -44 198 -31 C189 -17 179 -2 184 25 L184 25 Z M264 419 C220 473 177 527 192 612 C203 667 253 709 306 709 C358 709 391 662 381 604 L413 604 C426 679 381 742 311 742 C240 742 175 684 161 612 C143 514 192 454 239 398 C284 342 328 291 310 202 C298 138 257 102 198 102 C147 102 112 149 122 208 L91 208 C78 132 124 71 193 71 C269 71 326 120 342 202 C361 304 314 363 264 419 L264 419 Z " />
<glyph glyph-name="Scaron" unicode="&#x160;" horiz-adv-x="425" d="M272 421 C215 487 162 551 181 656 C194 725 258 779 326 779 C392 779 435 720 423 647 L455 647 C470 737 416 811 332 811 C246 811 167 743 150 656 C128 538 188 467 247 398 C304 331 357 265 336 156 C320 77 268 31 194 31 C128 31 84 90 97 163 L64 163 C48 73 105 0 189 0 C280 0 349 59 368 156 C392 278 332 352 272 421 L272 421 Z M393 997 L279 1050 L262 1020 L387 963 L535 1022 L528 1051 L393 997 L393 997 Z " />
<glyph glyph-name="scaron" unicode="&#x161;" horiz-adv-x="344" d="M221 307 C177 354 137 397 149 470 C158 516 205 552 254 552 C288 552 315 534 324 504 L355 518 C342 559 305 584 259 584 C192 584 131 534 118 470 C102 384 149 332 194 283 C239 236 280 191 266 115 C251 40 189 31 162 31 C126 31 98 53 91 88 L59 76 C69 30 108 0 157 0 C229 0 283 43 297 115 C315 204 267 257 221 307 L221 307 Z M315 773 L201 826 L184 796 L309 739 L457 798 L450 827 L315 773 L315 773 Z " />
<glyph glyph-name="Tcommaaccent" unicode="&#x162;" horiz-adv-x="382" d="M172 780 L293 780 L156 0 L187 0 L324 780 L444 780 L450 811 L178 811 L172 780 Z M205 41 L166 41 L159 -3 L177 -3 L177 -3 C173 -24 161 -21 161 -21 L158 -38 C191 -38 198 -3 198 -3 L205 41 L205 41 Z " />
<glyph glyph-name="tcommaaccent" unicode="&#x163;" horiz-adv-x="328" d="M179 712 L276 712 L163 71 L194 71 L307 712 L402 712 L408 743 L185 743 L179 712 L179 712 Z M206 113 L167 113 L160 69 L178 69 L178 69 C174 48 162 51 162 51 L159 34 C192 34 199 69 199 69 L206 113 L206 113 Z " />
<glyph glyph-name="Tcaron" unicode="&#x164;" horiz-adv-x="382" d="M172 780 L293 780 L156 0 L187 0 L324 780 L444 780 L450 811 L178 811 L172 780 Z M370 997 L256 1050 L239 1020 L364 963 L512 1022 L505 1051 L370 997 L370 997 Z " />
<glyph glyph-name="tcaron" unicode="&#x165;" horiz-adv-x="326" d="M346 852 L307 852 L300 815 L318 815 L318 815 C315 798 303 799 303 799 L301 786 C334 786 339 815 339 815 L346 852 L346 852 Z M179 712 L276 712 L163 71 L194 71 L307 712 L402 712 L408 743 L185 743 L179 712 L179 712 Z " />
<glyph glyph-name="Tbar" unicode="&#x166;" horiz-adv-x="347" d="M172 780 L293 780 L156 0 L187 0 L324 780 L444 780 L450 811 L178 811 L172 780 Z M115 548 L397 548 L400 581 L118 581 L115 548 Z " />
<glyph glyph-name="tbar" unicode="&#x167;" horiz-adv-x="343" d="M242 31 C187 31 152 89 164 158 L234 551 L365 551 L370 583 L239 583 L263 719 L231 719 L207 583 L143 583 L138 551 L202 551 L132 158 C117 71 164 0 237 0 C266 0 295 11 322 34 L305 56 C285 40 262 31 242 31 L242 31 Z M97 374 L363 374 L367 406 L102 406 L97 374 L97 374 Z " />
<glyph glyph-name="Utilde" unicode="&#x168;" horiz-adv-x="422" d="M341 150 C329 84 266 31 200 31 L191 31 C125 31 80 84 92 150 L209 811 L178 811 L61 150 C46 67 102 0 186 0 L195 0 C279 0 357 67 372 150 L489 811 L458 811 L341 150 L341 150 Z M385 952 C342 984 290 1018 172 918 L190 895 C288 979 323 954 363 925 C386 909 410 894 442 894 C475 894 516 909 575 958 L556 981 C460 900 427 922 385 952 L385 952 Z " />
<glyph glyph-name="utilde" unicode="&#x169;" horiz-adv-x="360" d="M352 854 C309 886 257 920 139 820 L157 797 C255 881 290 856 330 827 C353 811 377 796 409 796 C442 796 483 811 542 860 L523 883 C427 802 394 824 352 854 L352 854 Z M320 221 C309 155 255 102 201 102 C147 102 112 155 123 221 L216 743 L185 743 L92 221 C78 138 125 71 196 71 C268 71 337 138 351 221 L444 743 L413 743 L320 221 L320 221 Z " />
<glyph glyph-name="Umacron" unicode="&#x16a;" horiz-adv-x="422" d="M341 150 C329 84 266 31 200 31 L191 31 C125 31 80 84 92 150 L209 811 L178 811 L61 150 C46 67 102 0 186 0 L195 0 C279 0 357 67 372 150 L489 811 L458 811 L341 150 L341 150 Z M355 881 L241 934 L224 904 L349 847 L497 906 L490 935 L355 881 L355 881 Z " />
<glyph glyph-name="umacron" unicode="&#x16b;" horiz-adv-x="367" d="M324 803 L210 856 L193 826 L318 769 L466 828 L459 857 L324 803 L324 803 Z M320 221 C309 155 255 102 201 102 C147 102 112 155 123 221 L216 743 L185 743 L92 221 C78 138 125 71 196 71 C268 71 337 138 351 221 L444 743 L413 743 L320 221 L320 221 Z " />
<glyph glyph-name="Ubreve" unicode="&#x16c;" horiz-adv-x="422" d="M341 150 C329 84 266 31 200 31 L191 31 C125 31 80 84 92 150 L209 811 L178 811 L61 150 C46 67 102 0 186 0 L195 0 C279 0 357 67 372 150 L489 811 L458 811 L341 150 L341 150 Z M359 918 C305 918 269 970 281 1036 L250 1036 C235 954 281 885 353 885 C427 885 497 954 512 1036 L480 1036 C468 970 415 918 359 918 L359 918 Z " />
<glyph glyph-name="ubreve" unicode="&#x16d;" horiz-adv-x="351" d="M318 783 C264 783 228 835 240 901 L209 901 C194 819 240 750 312 750 C386 750 456 819 471 901 L439 901 C427 835 374 783 318 783 L318 783 Z M320 221 C309 155 255 102 201 102 C147 102 112 155 123 221 L216 743 L185 743 L92 221 C78 138 125 71 196 71 C268 71 337 138 351 221 L444 743 L413 743 L320 221 L320 221 Z " />
<glyph glyph-name="Uring" unicode="&#x16e;" horiz-adv-x="422" d="M341 150 C329 84 266 31 200 31 L191 31 C125 31 80 84 92 150 L209 811 L178 811 L61 150 C46 67 102 0 186 0 L195 0 C279 0 357 67 372 150 L489 811 L458 811 L341 150 L341 150 Z M394 1021 C354 1021 316 988 309 949 C302 909 329 877 369 877 C409 877 447 909 454 949 C461 988 434 1021 394 1021 L394 1021 Z M374 908 C352 908 336 926 340 949 C344 972 367 990 389 990 C411 990 427 972 423 949 C419 926 396 908 374 908 L374 908 Z " />
<glyph glyph-name="uring" unicode="&#x16f;" horiz-adv-x="367" d="M345 909 C305 909 267 876 260 837 C253 797 280 765 320 765 C360 765 398 797 405 837 C412 876 385 909 345 909 L345 909 Z M325 796 C303 796 287 814 291 837 C295 860 318 878 340 878 C362 878 378 860 374 837 C370 814 347 796 325 796 L325 796 Z M320 221 C309 155 255 102 201 102 C147 102 112 155 123 221 L216 743 L185 743 L92 221 C78 138 125 71 196 71 C268 71 337 138 351 221 L444 743 L413 743 L320 221 L320 221 Z " />
<glyph glyph-name="Uhungarumlaut" unicode="&#x170;" horiz-adv-x="422" d="M341 150 C329 84 266 31 200 31 L191 31 C125 31 80 84 92 150 L209 811 L178 811 L61 150 C46 67 102 0 186 0 L195 0 C279 0 357 67 372 150 L489 811 L458 811 L341 150 L341 150 Z M292 948 L319 948 L353 1036 L318 1036 L292 948 L292 948 Z M340 948 L367 948 L401 1036 L365 1036 L340 948 L340 948 Z " />
<glyph glyph-name="uhungarumlaut" unicode="&#x171;" horiz-adv-x="367" d="M285 787 L312 787 L346 875 L311 875 L285 787 L285 787 Z M333 787 L360 787 L394 875 L358 875 L333 787 L333 787 Z M320 221 C309 155 255 102 201 102 C147 102 112 155 123 221 L216 743 L185 743 L92 221 C78 138 125 71 196 71 C268 71 337 138 351 221 L444 743 L413 743 L320 221 L320 221 Z " />
<glyph glyph-name="Uogonek" unicode="&#x172;" horiz-adv-x="410" d="M360 150 C348 84 285 31 219 31 L210 31 C144 31 99 84 111 150 L228 811 L197 811 L80 150 C65 67 121 0 205 0 L214 0 C298 0 376 67 391 150 L508 811 L477 811 L360 150 L360 150 Z M166 -77 C168 -68 175 -62 185 -50 C200 -35 221 -13 228 25 L197 25 C192 -2 178 -17 164 -31 C151 -44 138 -58 135 -77 C128 -118 165 -145 225 -145 L230 -114 C195 -114 162 -101 166 -77 L166 -77 Z " />
<glyph glyph-name="uogonek" unicode="&#x173;" horiz-adv-x="367" d="M380 541 L311 151 C299 85 245 31 190 31 C136 31 99 85 111 151 L187 583 L156 583 L80 151 C65 67 113 0 185 0 C225 0 264 20 294 53 L285 0 L317 0 L343 151 L412 541 L419 583 L387 583 L380 541 L380 541 Z M234 -125 C236 -116 243 -110 253 -98 C268 -83 289 -61 296 -23 L265 -23 C260 -50 246 -65 232 -79 C219 -92 206 -106 203 -125 C196 -166 233 -193 293 -193 L298 -162 C263 -162 230 -149 234 -125 L234 -125 Z " />
<glyph glyph-name="Ydieresis" unicode="&#x178;" horiz-adv-x="442" d="M210 811 L178 811 L238 305 L185 0 L216 0 L270 307 L503 811 L471 811 L263 365 L210 811 Z M303 870 L342 870 L350 917 L311 917 L303 870 L303 870 Z M367 870 L406 870 L414 917 L375 917 L367 870 L367 870 Z " />
<glyph glyph-name="Zacute" unicode="&#x179;" horiz-adv-x="438" d="M197 811 L191 779 L430 779 L35 0 L324 0 L324 0 L329 31 L83 31 L479 811 L197 811 Z M349 921 L376 921 L410 1010 L375 1010 L349 921 L349 921 Z " />
<glyph glyph-name="zacute" unicode="&#x17a;" horiz-adv-x="364" d="M170 583 L165 551 L350 551 L54 0 L289 0 L289 0 L294 31 L103 31 L400 583 L170 583 L170 583 Z M271 697 L298 697 L332 786 L297 786 L271 697 L271 697 Z " />
<glyph glyph-name="Zdotaccent" unicode="&#x17b;" horiz-adv-x="438" d="M197 811 L191 779 L430 779 L35 0 L324 0 L324 0 L329 31 L83 31 L479 811 L197 811 Z M392 928 C406 928 422 940 424 956 C427 972 416 985 402 985 C386 985 371 972 368 956 C366 940 376 928 392 928 L392 928 Z " />
<glyph glyph-name="zdotaccent" unicode="&#x17c;" horiz-adv-x="364" d="M170 583 L165 551 L350 551 L54 0 L289 0 L289 0 L294 31 L103 31 L400 583 L170 583 L170 583 Z M331 782 C345 782 361 794 363 810 C366 826 355 839 341 839 C325 839 310 826 307 810 C305 794 315 782 331 782 L331 782 Z " />
<glyph glyph-name="Zcaron" unicode="&#x17d;" horiz-adv-x="438" d="M197 811 L191 779 L430 779 L35 0 L324 0 L324 0 L329 31 L83 31 L479 811 L197 811 Z M363 927 L249 980 L232 950 L357 893 L505 952 L498 981 L363 927 L363 927 Z " />
<glyph glyph-name="zcaron" unicode="&#x17e;" horiz-adv-x="364" d="M170 583 L165 551 L350 551 L54 0 L289 0 L289 0 L294 31 L103 31 L400 583 L170 583 L170 583 Z M323 773 L209 826 L192 796 L317 739 L465 798 L458 827 L323 773 L323 773 Z " />
<glyph glyph-name="florin" unicode="&#x192;" horiz-adv-x="364" d="M243 646 L220 515 L130 515 L125 484 L215 484 L158 161 C144 84 94 31 57 31 L51 -1 C79 -1 110 17 138 47 C163 78 182 118 190 161 L247 484 L366 484 L371 515 L252 515 L275 646 C288 718 342 776 398 776 C418 776 437 767 452 751 L478 773 C458 796 432 808 404 808 C330 808 259 736 243 646 L243 646 Z " />
<glyph glyph-name="Scommaaccent" unicode="&#x218;" horiz-adv-x="425" d="M272 421 C215 487 162 551 181 656 C194 725 258 779 326 779 C392 779 435 720 423 647 L455 647 C470 737 416 811 332 811 C246 811 167 743 150 656 C128 538 188 467 247 398 C304 331 357 265 336 156 C320 77 268 31 194 31 C128 31 84 90 97 163 L64 163 C48 73 105 0 189 0 C280 0 349 59 368 156 C392 278 332 352 272 421 L272 421 Z M212 41 L173 41 L166 -3 L184 -3 L184 -3 C180 -24 168 -21 168 -21 L165 -38 C198 -38 205 -3 205 -3 L212 41 L212 41 Z " />
<glyph glyph-name="scommaaccent" unicode="&#x219;" horiz-adv-x="344" d="M203 28 L164 28 L157 -16 L175 -16 L175 -16 C171 -37 159 -34 159 -34 L156 -51 C189 -51 196 -16 196 -16 L203 28 L203 28 Z M264 419 C220 473 177 527 192 612 C203 667 253 709 306 709 C358 709 391 662 381 604 L413 604 C426 679 381 742 311 742 C240 742 175 684 161 612 C143 514 192 454 239 398 C284 342 328 291 310 202 C298 138 257 102 198 102 C147 102 112 149 122 208 L91 208 C78 132 124 71 193 71 C269 71 326 120 342 202 C361 304 314 363 264 419 L264 419 Z " />
<glyph glyph-name="circumflex" unicode="&#x2c6;" horiz-adv-x="391" d="M168 726 L183 702 L327 809 L432 707 L457 732 L334 850 L168 726 L168 726 Z " />
<glyph glyph-name="caron" unicode="&#x2c7;" horiz-adv-x="347" d="M311 773 L197 826 L180 796 L305 739 L453 798 L446 827 L311 773 L311 773 Z " />
<glyph glyph-name="breve" unicode="&#x2d8;" horiz-adv-x="374" d="M292 694 C238 694 202 746 214 812 L183 812 C168 730 214 661 286 661 C360 661 430 730 445 812 L413 812 C401 746 348 694 292 694 L292 694 Z " />
<glyph glyph-name="dotaccent" unicode="&#x2d9;" horiz-adv-x="145" d="M201 782 C215 782 231 794 233 810 C236 826 225 839 211 839 C195 839 180 826 177 810 C175 794 185 782 201 782 L201 782 Z " />
<glyph glyph-name="ring" unicode="&#x2da;" horiz-adv-x="223" d="M252 797 C212 797 174 764 167 725 C160 685 187 653 227 653 C267 653 305 685 312 725 C319 764 292 797 252 797 L252 797 Z M232 684 C210 684 194 702 198 725 C202 748 225 766 247 766 C269 766 285 748 281 725 C277 702 254 684 232 684 L232 684 Z " />
<glyph glyph-name="ogonek" unicode="&#x2db;" horiz-adv-x="186" d="M57 -77 C59 -68 66 -62 76 -50 C91 -35 112 -13 119 25 L88 25 C83 -2 69 -17 55 -31 C42 -44 29 -58 26 -77 C19 -118 56 -145 116 -145 L121 -114 C86 -114 53 -101 57 -77 L57 -77 Z " />
<glyph glyph-name="tilde" unicode="&#x2dc;" horiz-adv-x="500" d="M375 728 C332 760 280 794 162 694 L180 671 C278 755 313 730 353 701 C376 685 400 670 432 670 C465 670 506 685 565 734 L546 757 C450 676 417 698 375 728 L375 728 Z " />
<glyph glyph-name="hungarumlaut" unicode="&#x2dd;" horiz-adv-x="224" d="M167 724 L194 724 L228 812 L193 812 L167 724 L167 724 Z M215 724 L242 724 L276 812 L240 812 L215 724 L215 724 Z " />
<glyph glyph-name="tonos" unicode="&#x384;" horiz-adv-x="146" d="M147 662 L190 662 L254 794 L195 794 L147 662 L147 662 Z " />
<glyph glyph-name="dieresistonos" unicode="&#x385;" horiz-adv-x="280" d="M167 721 L206 721 L214 768 L175 768 L167 721 L167 721 Z M231 721 L270 721 L278 768 L239 768 L231 721 L231 721 Z " />
<glyph glyph-name="Alphatonos" unicode="&#x386;" horiz-adv-x="434" d="M352 810 L54 1 L86 1 L176 247 L362 247 L366 1 L397 1 L388 810 L352 810 Z M189 280 L357 734 L362 280 L189 280 Z M199 761 L226 761 L260 850 L225 850 L199 761 L199 761 Z " />
<glyph glyph-name="Epsilontonos" unicode="&#x388;" horiz-adv-x="335" d="M54 1 L280 1 L285 32 L90 32 L147 353 L292 353 L297 385 L152 385 L222 780 L417 780 L423 811 L197 811 L54 1 Z M54 756 L81 756 L115 845 L80 845 L54 756 L54 756 Z " />
<glyph glyph-name="Etatonos" unicode="&#x389;" horiz-adv-x="406" d="M388 388 L153 388 L227 809 L196 809 L54 1 L85 1 L147 356 L382 356 L320 1 L352 1 L494 809 L462 809 L388 388 Z M70 791 L97 791 L131 880 L96 880 L70 791 L70 791 Z " />
<glyph glyph-name="Iotatonos" unicode="&#x38a;" horiz-adv-x="145" d="M54 1 L85 1 L227 809 L196 809 L54 1 Z M73 788 L100 788 L134 877 L99 877 L73 788 L73 788 Z " />
<glyph glyph-name="Omicrontonos" unicode="&#x38c;" horiz-adv-x="414" d="M356 809 L347 809 C263 809 184 742 170 659 L81 151 C66 68 122 1 206 1 L216 1 C299 1 377 68 392 151 L481 659 C495 742 440 809 356 809 L356 809 Z M221 32 L211 32 C145 32 100 85 112 151 L201 659 C212 724 276 778 342 778 L351 778 C417 778 461 724 450 659 L361 151 C349 85 286 32 221 32 L221 32 Z M104 746 L131 746 L165 835 L130 835 L104 746 L104 746 Z " />
<glyph glyph-name="Upsilontonos" unicode="&#x38e;" horiz-adv-x="442" d="M282 365 L229 811 L197 811 L257 305 L204 2 L204 1 L235 1 L235 2 L289 307 L522 811 L490 811 L282 365 Z M71 783 L98 783 L132 872 L97 872 L71 783 L71 783 Z " />
<glyph glyph-name="Omegatonos" unicode="&#x38f;" horiz-adv-x="824" d="M746 434 C746 497 723 556 682 600 C641 646 587 671 531 671 C473 671 411 646 353 600 C297 556 254 497 231 434 C189 318 203 197 277 56 L49 56 L44 24 L334 24 L319 49 C237 197 219 313 261 430 C303 542 423 640 525 640 C626 640 713 542 713 430 C715 313 656 197 522 49 L500 24 L789 24 L794 56 L566 56 C689 197 747 318 746 434 L746 434 Z " />
<glyph glyph-name="iotadieresistonos" unicode="&#x390;" horiz-adv-x="376" d="M167 723 L206 723 L213 762 L174 762 L167 723 Z M339 723 L378 723 L385 762 L346 762 L339 723 Z M313 190 C300 180 283 174 267 174 C234 174 203 199 211 244 L296 723 L190 723 L184 692 L259 692 L180 244 C169 178 213 142 261 142 C286 142 311 152 330 168 C353 187 367 213 372 244 L341 244 C337 222 328 204 313 190 L313 190 Z M265 767 L292 767 L326 856 L291 856 L265 767 L265 767 Z " />
<glyph glyph-name="Alpha" unicode="&#x391;" horiz-adv-x="434" d="M352 810 L54 1 L86 1 L176 247 L362 247 L366 1 L397 1 L388 810 L352 810 Z M189 280 L357 734 L362 280 L189 280 Z " />
<glyph glyph-name="Beta" unicode="&#x392;" horiz-adv-x="382" d="M329 505 C374 532 410 584 421 644 L421 646 L422 655 C436 742 392 810 323 810 L196 810 L194 798 L191 779 L144 515 L139 484 L59 34 L54 1 L54 1 L85 1 L85 1 L194 1 C271 1 346 73 362 162 L396 354 C408 425 380 484 329 505 L329 505 Z M222 779 L318 779 C370 779 403 722 391 654 L391 653 L390 643 C378 575 325 520 273 520 L176 520 L222 779 Z M330 162 C318 91 258 34 199 34 L90 34 L170 484 L279 484 C338 484 377 426 364 354 L330 162 Z " />
<glyph glyph-name="Gamma" unicode="&#x393;" horiz-adv-x="331" d="M433 812 L183 812 L40 1 L71 1 L208 780 L427 780 L433 812 Z " />
<glyph glyph-name="&amp;#x394;" unicode="&#x394;" horiz-adv-x="482" d="M345 654 L344 666 L319 666 L40 2 L390 2 L345 654 L345 654 Z M317 584 L354 34 L85 34 L317 584 L317 584 Z " />
<glyph glyph-name="&amp;#x2206;" unicode="&#x2206;" horiz-adv-x="482" d="M345 654 L344 666 L319 666 L40 2 L390 2 L345 654 L345 654 Z M317 584 L354 34 L85 34 L317 584 L317 584 Z " />
<glyph glyph-name="Epsilon" unicode="&#x395;" horiz-adv-x="335" d="M54 1 L280 1 L285 32 L90 32 L147 353 L292 353 L297 385 L152 385 L222 780 L417 780 L423 811 L197 811 L54 1 Z " />
<glyph glyph-name="Zeta" unicode="&#x396;" horiz-adv-x="438" d="M464 810 L215 810 L210 778 L449 778 L54 1 L71 1 L71 1 L88 1 L343 1 L343 1 L348 32 L102 32 L497 810 L464 810 Z " />
<glyph glyph-name="Eta" unicode="&#x397;" horiz-adv-x="406" d="M388 388 L153 388 L227 809 L196 809 L54 1 L85 1 L147 356 L382 356 L320 1 L352 1 L494 809 L462 809 L388 388 Z " />
<glyph glyph-name="Theta" unicode="&#x398;" horiz-adv-x="428" d="M357 811 L348 811 C264 811 185 744 170 661 L81 150 C66 67 122 0 206 0 L216 0 C299 0 377 67 392 150 L481 661 C496 744 441 811 357 811 L357 811 Z M221 31 L211 31 C145 31 100 84 112 150 L201 661 C213 726 276 780 342 780 L351 780 C417 780 462 726 450 661 L361 150 C349 84 286 31 221 31 L221 31 Z M118 392 L380 392 L382 425 L121 425 L118 392 L118 392 Z " />
<glyph glyph-name="Iota" unicode="&#x399;" horiz-adv-x="145" d="M54 1 L85 1 L227 809 L196 809 L54 1 Z " />
<glyph glyph-name="Kappa" unicode="&#x39a;" horiz-adv-x="434" d="M537 810 L500 810 L152 383 L227 810 L196 810 L54 1 L85 1 L142 324 L270 482 L367 1 L401 1 L298 515 L537 810 Z " />
<glyph glyph-name="Lambda" unicode="&#x39b;" horiz-adv-x="425" d="M342 1 L374 1 L370 799 L370 810 L342 810 L338 799 L54 1 L86 1 L339 710 L342 1 Z " />
<glyph glyph-name="Mu" unicode="&#x39c;" horiz-adv-x="516" d="M525 811 L288 311 L231 811 L197 811 L197 811 L54 0 L85 0 L209 707 L264 242 L289 242 L507 704 L383 0 L414 0 L557 811 L557 811 L557 811 L525 811 Z " />
<glyph glyph-name="Nu" unicode="&#x39d;" horiz-adv-x="430" d="M346 90 L231 810 L227 810 L200 810 L198 810 L198 810 L56 1 L54 1 L54 1 L85 1 L85 1 L88 1 L214 716 L329 1 L331 1 L331 1 L336 1 L364 1 L364 1 L506 809 L473 809 L346 90 Z " />
<glyph glyph-name="Xi" unicode="&#x39e;" horiz-adv-x="438" d="M123 385 L411 385 L413 418 L126 418 L123 385 L123 385 Z M158 776 L539 776 L543 809 L161 809 L158 776 L158 776 Z M23 4 L404 4 L408 37 L26 37 L23 4 L23 4 Z " />
<glyph glyph-name="Omicron" unicode="&#x39f;" horiz-adv-x="414" d="M356 809 L347 809 C263 809 184 742 170 659 L81 151 C66 68 122 1 206 1 L216 1 C299 1 377 68 392 151 L481 659 C495 742 440 809 356 809 L356 809 Z M221 32 L211 32 C145 32 100 85 112 151 L201 659 C212 724 276 778 342 778 L351 778 C417 778 461 724 450 659 L361 151 C349 85 286 32 221 32 L221 32 Z " />
<glyph glyph-name="Pi" unicode="&#x3a0;" horiz-adv-x="547" d="M543 708 L512 708 L512 707 L303 707 L303 708 L272 708 L272 707 L164 707 L158 674 L266 674 L155 43 L186 43 L297 674 L506 674 L395 43 L426 43 L537 674 L658 674 L664 707 L543 707 L543 708 L543 708 Z " />
<glyph glyph-name="Rho" unicode="&#x3a1;" horiz-adv-x="421" d="M349 811 L197 811 L53 0 L84 0 L139 311 L260 311 C337 311 413 380 428 466 L461 656 C476 742 426 811 349 811 L349 811 Z M396 466 C384 397 326 342 266 342 L145 342 L222 780 L343 780 C403 780 441 725 429 656 L396 466 L396 466 Z " />
<glyph glyph-name="Sigma" unicode="&#x3a3;" horiz-adv-x="438" d="M260 317 L40 5 L382 5 L388 36 L98 36 L296 317 L197 598 L487 598 L492 629 L150 629 L260 317 L260 317 Z " />
<glyph glyph-name="Tau" unicode="&#x3a4;" horiz-adv-x="359" d="M191 780 L312 780 L175 0 L206 0 L343 780 L463 780 L469 811 L197 811 L191 780 Z " />
<glyph glyph-name="Upsilon" unicode="&#x3a5;" horiz-adv-x="442" d="M282 365 L229 811 L197 811 L257 305 L204 2 L204 1 L235 1 L235 2 L289 307 L522 811 L490 811 L282 365 Z " />
<glyph glyph-name="Phi" unicode="&#x3a6;" horiz-adv-x="419" d="M392 151 L481 659 C495 738 443 804 365 809 L379 887 L348 887 L334 808 C255 802 183 737 170 659 L81 151 C67 73 116 8 192 2 L180 -68 L211 -68 L223 1 C302 5 378 71 392 151 L392 151 Z M112 151 L201 659 C211 719 267 770 328 776 L197 34 C140 41 101 90 112 151 L112 151 Z M228 32 L360 778 C420 773 460 720 450 659 L361 151 C350 88 290 36 228 32 L228 32 Z " />
<glyph glyph-name="Chi" unicode="&#x3a7;" horiz-adv-x="456" d="M489 811 L293 432 L231 811 L197 811 L267 384 L68 0 L102 0 L276 335 L331 0 L365 0 L300 384 L522 811 L489 811 L489 811 Z " />
<glyph glyph-name="Psi" unicode="&#x3a8;" horiz-adv-x="424" d="M468 808 L412 493 C401 426 341 371 278 364 L355 804 L327 804 L250 364 C189 371 148 426 159 493 L215 808 L189 808 L133 493 C119 412 168 343 245 337 L186 0 L214 0 L273 337 C352 343 425 412 439 493 L495 808 L468 808 L468 808 Z " />
<glyph glyph-name="&amp;#x3a9;" unicode="&#x3a9;" horiz-adv-x="804" d="M742 410 C742 473 718 532 678 576 C637 622 583 647 527 647 C469 647 407 622 349 576 C292 532 250 473 227 410 C184 294 199 173 273 32 L45 32 L40 0 L330 0 L315 25 C233 173 214 289 257 406 C299 518 419 616 521 616 C622 616 709 518 709 406 C710 289 652 173 518 25 L496 0 L785 0 L790 32 L562 32 C685 173 742 294 742 410 L742 410 Z " />
<glyph glyph-name="&amp;#x2126;" unicode="&#x2126;" horiz-adv-x="804" d="M742 410 C742 473 718 532 678 576 C637 622 583 647 527 647 C469 647 407 622 349 576 C292 532 250 473 227 410 C184 294 199 173 273 32 L45 32 L40 0 L330 0 L315 25 C233 173 214 289 257 406 C299 518 419 616 521 616 C622 616 709 518 709 406 C710 289 652 173 518 25 L496 0 L785 0 L790 32 L562 32 C685 173 742 294 742 410 L742 410 Z " />
<glyph glyph-name="Iotadieresis" unicode="&#x3aa;" horiz-adv-x="145" d="M54 1 L85 1 L227 809 L196 809 L54 1 Z M145 945 L184 945 L192 992 L153 992 L145 945 L145 945 Z M209 945 L248 945 L256 992 L217 992 L209 945 L209 945 Z " />
<glyph glyph-name="Upsilondieresis" unicode="&#x3ab;" horiz-adv-x="446" d="M282 365 L229 811 L197 811 L257 305 L204 2 L204 1 L235 1 L235 2 L289 307 L522 811 L490 811 L282 365 Z M325 901 L364 901 L372 948 L333 948 L325 901 L325 901 Z M389 901 L428 901 L436 948 L397 948 L389 901 L389 901 Z " />
<glyph glyph-name="alphatonos" unicode="&#x3ac;" horiz-adv-x="676" d="M657 282 L626 282 C613 211 587 181 539 181 C500 181 491 241 486 315 C495 330 505 345 515 362 C585 477 630 613 643 688 L612 688 C600 615 555 486 489 374 C486 370 485 367 482 364 C478 432 475 501 456 556 C432 624 391 657 329 657 C277 657 225 624 183 564 C144 512 117 444 105 375 C80 232 130 140 232 140 C310 140 386 187 457 276 C465 202 481 150 534 150 C601 150 641 194 657 282 L657 282 Z M237 171 C193 171 163 192 146 231 C129 267 126 319 136 375 C148 439 173 501 208 549 C233 584 273 626 324 626 C436 626 444 482 451 355 C452 343 453 331 452 319 C398 243 324 171 237 171 L237 171 Z M440 767 L467 767 L501 856 L466 856 L440 767 L440 767 Z " />
<glyph glyph-name="epsilontonos" unicode="&#x3ad;" horiz-adv-x="394" d="M321 292 C309 226 256 174 200 174 C146 174 110 226 122 292 L130 340 L141 404 L362 404 L368 436 L147 436 L160 511 L169 559 C180 625 235 679 289 679 C345 679 379 625 368 559 L400 559 C415 643 368 710 294 710 C222 710 153 643 138 559 L129 511 L99 340 L91 292 C76 210 122 142 194 142 C268 142 338 210 353 292 L321 292 L321 292 Z M300 767 L327 767 L361 856 L326 856 L300 767 L300 767 Z " />
<glyph glyph-name="etatonos" unicode="&#x3ae;" horiz-adv-x="372" d="M287 582 C247 582 208 562 178 529 L187 583 L156 583 L130 432 L54 2 L54 1 L85 1 L85 2 L161 432 C172 497 228 551 282 551 C337 551 371 497 360 432 L269 -83 L302 -83 L393 432 C407 515 360 582 287 582 L287 582 Z M276 697 L303 697 L337 786 L302 786 L276 697 L276 697 Z " />
<glyph glyph-name="iotatonos" unicode="&#x3af;" horiz-adv-x="334" d="M290 190 C277 180 260 174 244 174 C211 174 180 199 188 244 L273 723 L167 723 L161 692 L236 692 L157 244 C146 178 190 142 238 142 C263 142 288 152 307 168 C330 187 344 213 349 244 L318 244 C314 222 305 204 290 190 L290 190 Z M269 767 L296 767 L330 856 L295 856 L269 767 L269 767 Z " />
<glyph glyph-name="upsilondieresistonos" unicode="&#x3b0;" horiz-adv-x="516" d="M275 723 L314 723 L321 762 L282 762 L275 723 L275 723 Z M471 723 L510 723 L517 762 L478 762 L471 723 L471 723 Z M378 767 L405 767 L439 856 L404 856 L378 767 L378 767 Z M271 146 C335 146 395 178 444 240 C541 356 582 556 542 708 L511 694 C549 553 509 364 421 256 C392 220 343 178 277 177 C273 180 251 204 260 417 C266 534 277 648 278 649 L279 669 L162 631 L167 601 L244 626 C239 586 231 494 228 403 C218 177 243 146 271 146 L271 146 Z " />
<glyph glyph-name="alpha" unicode="&#x3b1;" horiz-adv-x="676" d="M645 212 L614 212 C601 141 575 111 527 111 C488 111 479 171 474 245 C483 260 493 275 503 292 C573 407 618 543 631 618 L600 618 C588 545 543 416 477 304 C474 300 473 297 470 294 C466 362 463 431 444 486 C420 554 379 587 317 587 C265 587 213 554 171 494 C132 442 105 374 93 305 C68 162 118 70 220 70 C298 70 374 117 445 206 C453 132 469 80 522 80 C589 80 629 124 645 212 L645 212 Z M225 101 C181 101 151 122 134 161 C117 197 114 249 124 305 C136 369 161 431 196 479 C221 514 261 556 312 556 C424 556 432 412 439 285 C440 273 441 261 440 249 C386 173 312 101 225 101 L225 101 Z " />
<glyph glyph-name="beta" unicode="&#x3b2;" horiz-adv-x="444" d="M416 246 C433 344 421 418 379 462 C361 479 342 490 323 497 C323 497 325 497 326 498 C382 524 422 569 439 624 C467 720 433 767 408 785 C370 816 307 820 252 793 C201 769 167 725 158 673 L11 -160 L42 -160 L189 673 C199 727 238 754 261 764 C305 786 355 784 386 760 C418 734 426 688 408 628 C375 523 264 508 250 505 C250 505 249 505 249 505 L246 474 C246 474 246 474 247 474 C256 475 313 479 354 438 C390 400 401 335 385 246 C371 168 345 113 308 82 C266 46 212 47 174 48 C168 48 162 49 157 49 L151 17 C156 17 160 17 166 17 C208 16 272 14 327 60 C372 97 400 158 416 246 L416 246 Z " />
<glyph glyph-name="gamma" unicode="&#x3b3;" horiz-adv-x="572" d="M158 490 C157 490 161 529 186 552 C200 564 216 570 238 570 C266 570 289 558 306 535 C364 457 358 274 337 114 C291 -47 283 -168 283 -173 L315 -172 C318 -161 349 -34 368 115 C409 259 489 461 639 611 L619 630 C505 517 430 377 381 251 C389 376 380 494 333 557 C311 587 280 601 243 601 C212 601 187 592 167 574 C130 539 126 488 125 486 L158 490 L158 490 Z " />
<glyph glyph-name="delta" unicode="&#x3b4;" horiz-adv-x="404" d="M80 155 C96 104 147 74 222 74 C284 74 338 106 369 160 C407 232 393 320 330 384 C211 507 232 568 241 585 C251 604 277 616 311 616 C398 616 413 569 413 567 L430 573 L445 580 C444 582 426 647 317 647 C269 647 230 628 213 596 C192 556 200 504 236 446 L228 453 C111 334 58 228 80 155 L80 155 Z M247 430 C262 408 282 384 305 360 C359 304 372 230 341 171 C317 129 276 105 227 105 C166 105 123 129 111 168 C93 230 142 324 247 430 L247 430 Z " />
<glyph glyph-name="epsilon" unicode="&#x3b5;" horiz-adv-x="394" d="M309 222 C297 156 244 104 188 104 C134 104 98 156 110 222 L118 270 L129 334 L350 334 L356 366 L135 366 L148 441 L157 489 C168 555 223 609 277 609 C333 609 367 555 356 489 L388 489 C403 573 356 640 282 640 C210 640 141 573 126 489 L117 441 L87 270 L79 222 C64 140 110 72 182 72 C256 72 326 140 341 222 L309 222 L309 222 Z " />
<glyph glyph-name="zeta" unicode="&#x3b6;" horiz-adv-x="547" d="M304 72 C314 72 324 72 335 72 C421 72 467 40 461 8 C458 -7 446 -20 426 -31 C407 -40 373 -52 319 -52 L314 -84 C363 -84 405 -75 437 -58 C467 -42 487 -19 492 8 C500 56 451 105 341 105 C330 105 319 105 310 105 C241 104 196 104 174 130 C148 166 158 257 213 476 C224 520 238 560 258 594 C298 591 351 602 414 629 C516 674 528 714 527 735 C524 764 492 780 448 777 C399 772 346 746 302 702 C281 682 262 658 245 632 C238 634 233 638 228 641 C184 676 206 762 206 764 L175 766 C174 761 148 662 205 615 C211 610 219 605 228 603 C208 566 193 525 182 478 C122 243 114 153 149 108 C175 72 229 72 304 72 L304 72 Z M323 682 C360 718 404 741 444 744 C474 748 495 738 495 728 C497 716 479 689 406 658 C352 635 309 624 276 626 C290 647 305 666 323 682 L323 682 Z " />
<glyph glyph-name="eta" unicode="&#x3b7;" horiz-adv-x="372" d="M287 582 C247 582 208 562 178 529 L187 583 L156 583 L130 432 L54 2 L54 1 L85 1 L85 2 L161 432 C172 497 228 551 282 551 C337 551 371 497 360 432 L269 -83 L302 -83 L393 432 C407 515 360 582 287 582 L287 582 Z " />
<glyph glyph-name="theta" unicode="&#x3b8;" horiz-adv-x="359" d="M287 584 C215 584 145 517 130 434 L80 151 C65 68 113 1 185 1 C258 1 328 68 343 151 L393 434 C408 517 360 584 287 584 L287 584 Z M310 151 C298 85 245 32 190 32 C136 32 99 85 111 151 L161 434 C173 500 228 553 282 553 C337 553 372 500 360 434 L310 151 Z M114 284 L346 284 L351 317 L119 317 L114 284 Z " />
<glyph glyph-name="iota" unicode="&#x3b9;" horiz-adv-x="334" d="M278 120 C265 110 248 104 232 104 C199 104 168 129 176 174 L261 653 L155 653 L149 622 L224 622 L145 174 C134 108 178 72 226 72 C251 72 276 82 295 98 C318 117 332 143 337 174 L306 174 C302 152 293 134 278 120 L278 120 Z " />
<glyph glyph-name="kappa" unicode="&#x3ba;" horiz-adv-x="391" d="" />
<glyph glyph-name="lambda" unicode="&#x3bb;" horiz-adv-x="634" d="M415 525 C400 599 388 664 372 706 C341 792 290 795 262 788 C213 776 166 719 156 660 L187 660 C195 705 230 749 264 758 C296 765 323 741 342 690 C358 651 369 587 384 514 C388 489 391 473 397 447 L163 70 L198 70 L406 405 C442 236 495 68 610 68 L616 99 C497 99 450 345 415 525 L415 525 Z " />
<glyph glyph-name="nu" unicode="&#x3bd;" horiz-adv-x="398" d="M216 742 L184 742 L186 71 L215 71 L453 742 L420 742 L217 168 L216 742 Z " />
<glyph glyph-name="xi" unicode="&#x3be;" horiz-adv-x="552" d="M343 117 C332 117 321 117 312 117 C243 116 198 116 177 142 C156 171 157 233 186 365 L417 365 L423 398 L194 398 C199 425 207 455 216 488 C226 532 240 572 260 606 C300 603 353 614 417 641 C518 686 531 726 529 747 C526 776 494 792 450 789 C401 784 348 758 304 714 C283 694 264 670 247 644 C240 646 235 650 230 653 C186 688 208 774 208 776 L177 778 C176 773 150 674 207 627 C213 622 221 617 230 614 C210 578 195 537 184 490 C124 255 117 165 151 120 C177 84 231 84 306 84 C316 84 326 84 337 84 C423 84 469 52 463 20 C460 5 448 -8 428 -19 C410 -28 375 -40 321 -40 L316 -72 C365 -72 407 -63 439 -46 C469 -30 489 -7 494 20 C502 68 453 117 343 117 L343 117 Z M325 694 C362 730 406 753 446 756 C477 760 497 750 497 740 C499 728 481 701 408 670 C355 647 311 636 278 638 C292 659 307 678 325 694 L325 694 Z " />
<glyph glyph-name="omicron" unicode="&#x3bf;" horiz-adv-x="398" d="M216 742 L184 742 L186 71 L215 71 L453 742 L420 742 L217 168 L216 742 Z " />
<glyph glyph-name="pi" unicode="&#x3c0;" horiz-adv-x="646" d="M401 497 C329 474 260 452 146 521 L126 493 C178 462 222 448 262 444 L191 43 L222 43 L293 443 C335 444 372 456 407 468 C440 479 472 488 510 491 L431 43 L462 43 L541 490 C577 486 618 473 667 443 L687 470 C558 548 480 522 401 497 L401 497 Z " />
<glyph glyph-name="rho" unicode="&#x3c1;" horiz-adv-x="359" d="M311 742 L184 742 L118 365 L112 333 L66 71 L97 71 L143 333 L239 333 C304 333 367 390 380 461 L407 613 C419 684 376 742 311 742 L311 742 Z M349 461 C339 408 293 365 245 365 L149 365 L210 710 L306 710 C354 710 385 667 376 613 L349 461 L349 461 Z " />
<glyph glyph-name="sigma1" unicode="&#x3c2;" horiz-adv-x="532" d="M342 627 C290 622 238 593 193 545 C150 500 119 442 108 386 C94 322 105 264 138 218 C177 165 243 130 336 114 C377 107 404 83 405 50 C406 20 389 -10 360 -27 C335 -43 268 -68 164 14 L141 -12 C203 -61 254 -75 294 -75 C332 -75 358 -63 373 -54 C413 -30 439 14 436 56 C435 102 401 136 345 146 C122 183 127 324 138 384 C160 490 252 587 339 596 C402 602 446 588 474 556 C523 497 495 392 494 390 L510 388 L525 387 C526 392 557 508 499 578 C467 617 413 634 342 627 L342 627 Z " />
<glyph glyph-name="sigma" unicode="&#x3c3;" horiz-adv-x="442" d="M182 70 C256 70 326 137 340 220 L379 440 C388 488 375 531 349 558 L555 558 L561 590 L274 590 C202 590 132 522 117 440 L78 220 C64 137 110 70 182 70 L182 70 Z M148 440 C159 504 214 558 268 558 C324 558 358 504 347 440 L308 220 C297 155 243 101 187 101 C133 101 98 155 109 220 L148 440 L148 440 Z " />
<glyph glyph-name="tau" unicode="&#x3c4;" horiz-adv-x="196" d="M69 709 L223 709 L109 67 L141 67 L260 740 L74 740 L69 709 L69 709 Z " />
<glyph glyph-name="upsilon" unicode="&#x3c5;" horiz-adv-x="491" d="M247 76 C311 76 371 108 420 170 C517 286 558 486 518 638 L487 624 C525 483 485 294 397 186 C368 150 319 108 253 107 C249 110 227 134 236 347 C242 464 253 578 254 579 L255 599 L138 561 L143 531 L220 556 C215 516 207 424 204 333 C194 107 219 76 247 76 L247 76 Z " />
<glyph glyph-name="phi" unicode="&#x3c6;" horiz-adv-x="374" d="M304 583 L317 653 L285 653 L272 583 C207 575 144 511 130 434 L80 151 C67 74 107 11 170 2 L159 -59 L191 -59 L202 2 C268 12 330 74 343 151 L393 434 C407 511 367 574 304 583 L304 583 Z M111 151 L161 434 C172 494 217 544 267 552 L175 34 C129 42 101 91 111 151 L111 151 Z M310 151 C300 92 255 43 207 34 L299 552 C343 542 370 493 360 434 L310 151 L310 151 Z " />
<glyph glyph-name="chi" unicode="&#x3c7;" horiz-adv-x="450" d="M477 653 L442 653 L288 414 L218 653 L183 653 L265 377 L66 70 L101 70 L276 341 L356 70 L391 70 L300 377 L477 653 L477 653 Z " />
<glyph glyph-name="psi" unicode="&#x3c8;" horiz-adv-x="419" d="M428 580 L372 265 C360 198 301 143 237 136 L315 576 L287 576 L209 136 C149 143 107 198 119 265 L175 580 L149 580 L93 265 C79 184 128 115 205 109 L145 -228 L173 -228 L233 109 C312 115 385 184 399 265 L455 580 L428 580 L428 580 Z " />
<glyph glyph-name="omega" unicode="&#x3c9;" horiz-adv-x="730" d="M507 88 C579 88 646 131 690 207 C726 268 744 344 740 420 C735 504 706 581 653 645 L627 622 C733 496 724 323 663 219 C626 155 571 119 512 119 C495 119 483 126 470 141 C444 174 438 242 440 314 C466 404 474 506 476 592 L445 591 C442 581 411 442 408 312 C391 252 366 200 328 164 C298 135 261 119 218 119 C175 119 144 146 129 191 C114 239 118 305 143 376 C170 456 220 536 285 605 L265 624 C105 456 67 275 98 177 C116 119 157 88 213 88 C266 88 311 107 349 143 C373 167 394 197 410 232 C414 185 425 144 444 119 C461 99 482 88 507 88 L507 88 Z " />
<glyph glyph-name="iotadieresis" unicode="&#x3ca;" horiz-adv-x="334" d="M290 190 C277 180 260 174 244 174 C211 174 180 199 188 244 L273 723 L167 723 L161 692 L236 692 L157 244 C146 178 190 142 238 142 C263 142 288 152 307 168 C330 187 344 213 349 244 L318 244 C314 222 305 204 290 190 L290 190 Z M152 791 L191 791 L199 838 L160 838 L152 791 L152 791 Z M216 791 L255 791 L263 838 L224 838 L216 791 L216 791 Z " />
<glyph glyph-name="upsilondieresis" unicode="&#x3cb;" horiz-adv-x="491" d="M259 146 C323 146 383 178 432 240 C529 356 570 556 530 708 L499 694 C537 553 497 364 409 256 C380 220 331 178 265 177 C261 180 239 204 248 417 C254 534 265 648 266 649 L267 669 L150 631 L155 601 L232 626 C227 586 219 494 216 403 C206 177 231 146 259 146 L259 146 Z M289 791 L328 791 L336 838 L297 838 L289 791 L289 791 Z M353 791 L392 791 L400 838 L361 838 L353 791 L353 791 Z " />
<glyph glyph-name="omicrontonos" unicode="&#x3cc;" horiz-adv-x="367" d="M286 767 L313 767 L347 856 L312 856 L286 767 L286 767 Z " />
<glyph glyph-name="upsilontonos" unicode="&#x3cd;" horiz-adv-x="509" d="M247 76 C311 76 371 108 420 170 C517 286 558 486 518 638 L487 624 C525 483 485 294 397 186 C368 150 319 108 253 107 C249 110 227 134 236 347 C242 464 253 578 254 579 L255 599 L138 561 L143 531 L220 556 C215 516 207 424 204 333 C194 107 219 76 247 76 L247 76 Z M362 737 L389 737 L423 826 L388 826 L362 737 L362 737 Z " />
<glyph glyph-name="omegatonos" unicode="&#x3ce;" horiz-adv-x="773" d="M477 834 L471 738 L498 738 L521 834 L477 834 Z M519 158 C591 158 658 201 702 277 C738 338 756 414 752 490 C747 574 718 651 665 715 L639 692 C745 566 736 393 675 289 C638 225 583 189 524 189 C507 189 495 196 482 211 C456 244 450 312 452 384 C478 474 486 576 488 662 L457 661 C454 651 423 512 420 382 C403 322 378 270 340 234 C310 205 273 189 230 189 C187 189 156 216 141 261 C126 309 130 375 155 446 C182 526 232 606 297 675 L277 694 C117 526 79 345 110 247 C128 189 169 158 225 158 C278 158 323 177 361 213 C385 237 406 267 422 302 C426 255 437 214 456 189 C473 169 494 158 519 158 L519 158 Z " />
<glyph glyph-name="afii10023" unicode="&#x401;" horiz-adv-x="335" d="M54 1 L280 1 L285 32 L90 32 L147 353 L292 353 L297 385 L152 385 L222 780 L417 780 L423 811 L197 811 L54 1 Z M258 913 L297 913 L305 960 L266 960 L258 913 L258 913 Z M322 913 L361 913 L369 960 L330 960 L322 913 L322 913 Z " />
<glyph glyph-name="afii10051" unicode="&#x402;" horiz-adv-x="407" d="M342 554 C302 554 264 534 234 503 L283 778 L420 778 L425 809 L182 809 L177 778 L251 778 L187 415 C186 412 185 408 185 404 L146 186 L146 186 L114 2 L146 2 L218 414 C233 475 285 523 337 523 C392 523 426 469 415 404 L373 170 C361 101 302 36 251 36 L245 4 C320 4 393 92 406 170 L448 404 C462 487 415 554 342 554 L342 554 Z " />
<glyph glyph-name="afii10052" unicode="&#x403;" horiz-adv-x="328" d="M433 812 L183 812 L40 1 L71 1 L208 780 L427 780 L433 812 Z M297 853 L324 853 L358 942 L323 942 L297 853 L297 853 Z M297 853 L324 853 L358 942 L323 942 L297 853 L297 853 Z " />
<glyph glyph-name="afii10053" unicode="&#x404;" horiz-adv-x="394" d="M312 809 L182 809 L177 778 L307 778 C371 778 413 725 402 659 L381 541 C370 478 322 422 277 422 L177 422 L177 421 L171 391 L171 390 L271 390 C316 390 345 335 333 271 L313 154 C301 88 240 35 176 35 L46 35 L40 4 L170 4 C252 4 330 71 345 154 L365 271 C376 330 359 382 324 406 C367 431 402 482 413 541 L434 659 C448 742 394 809 312 809 L312 809 Z " />
<glyph glyph-name="afii10054" unicode="&#x405;" horiz-adv-x="428" d="M291 421 C234 487 181 551 200 656 C213 725 277 779 345 779 C411 779 454 720 442 647 L474 647 C489 737 435 811 351 811 C265 811 186 743 169 656 C147 538 207 467 266 398 C323 331 376 265 355 156 C339 77 287 31 213 31 C147 31 103 90 116 163 L83 163 C67 73 124 0 208 0 C299 0 368 59 387 156 C411 278 351 352 291 421 L291 421 Z " />
<glyph glyph-name="afii10055" unicode="&#x406;" horiz-adv-x="175" d="M54 0 L85 0 L227 810 L196 810 L54 0 L54 0 Z " />
<glyph glyph-name="Yi" unicode="&#x407;" horiz-adv-x="175" d="M54 0 L85 0 L227 810 L196 810 L54 0 L54 0 Z M168 834 L207 834 L215 881 L176 881 L168 834 L168 834 Z M232 834 L271 834 L279 881 L240 881 L232 834 L232 834 Z " />
<glyph glyph-name="afii10057" unicode="&#x408;" horiz-adv-x="424" d="M352 157 C340 89 276 32 210 32 C144 32 100 89 112 157 L146 350 L115 350 L81 157 C66 71 122 1 205 1 C288 1 368 71 383 157 L498 808 L467 808 L352 157 Z " />
<glyph glyph-name="afii10058" unicode="&#x409;" horiz-adv-x="694" d="M545 552 L445 552 L490 810 L466 810 L458 810 L342 810 L218 104 C210 58 172 34 138 34 C121 34 109 40 99 50 C89 64 85 82 89 104 L58 104 C52 73 57 47 72 28 C87 12 108 2 133 2 C181 2 238 38 250 104 L369 779 L453 779 L316 1 L332 1 L348 1 L448 1 C520 1 589 68 604 151 L648 401 C663 484 617 552 545 552 L545 552 Z M573 151 C562 86 507 32 453 32 L353 32 L439 520 L539 520 C593 520 629 467 617 401 L573 151 L573 151 Z " />
<glyph glyph-name="afii10059" unicode="&#x40a;" horiz-adv-x="683" d="M549 552 L470 552 L515 810 L483 810 L438 552 L329 552 L374 810 L342 810 L218 104 C210 58 172 34 138 34 C121 34 109 40 99 50 C89 64 85 82 89 104 L58 104 C52 73 57 47 72 28 C87 12 108 2 133 2 C181 2 238 38 250 104 L323 520 L432 520 L341 4 L358 4 L373 4 L473 4 C545 4 616 72 631 155 L674 401 C689 484 633 552 549 552 L549 552 Z M599 155 C587 89 534 36 479 36 L379 36 L464 520 L543 520 C609 520 654 467 642 401 L599 155 L599 155 Z " />
<glyph glyph-name="afii10060" unicode="&#x40b;" horiz-adv-x="448" d="M335 468 C296 468 256 448 227 416 L265 633 L418 633 L424 664 L157 664 L151 633 L233 633 L177 317 L137 87 L135 74 L167 74 L169 87 L209 317 C221 383 275 437 330 437 C385 437 420 383 408 317 L366 75 L397 75 L439 317 C454 401 407 468 335 468 L335 468 Z " />
<glyph glyph-name="afii10061" unicode="&#x40c;" horiz-adv-x="434" d="M537 810 L500 810 L152 383 L227 810 L196 810 L54 1 L85 1 L142 324 L270 482 L367 1 L401 1 L298 515 L537 810 Z M347 921 L374 921 L408 1010 L373 1010 L347 921 L347 921 Z " />
<glyph glyph-name="afii10062" unicode="&#x40e;" horiz-adv-x="448" d="M282 365 L229 811 L197 811 L257 305 L204 2 L204 1 L235 1 L235 2 L289 307 L522 811 L490 811 L282 365 Z M369 862 C315 862 280 914 291 980 L260 980 C246 898 292 829 364 829 C438 829 508 898 522 980 L490 980 C479 914 425 862 369 862 L369 862 Z " />
<glyph glyph-name="afii10145" unicode="&#x40f;" horiz-adv-x="523" d="M428 224 L110 224 L213 810 L182 810 L74 193 L249 193 L215 4 L246 4 L280 193 L455 193 L563 810 L531 810 L428 224 L428 224 Z " />
<glyph glyph-name="afii10017" unicode="&#x410;" horiz-adv-x="434" d="M352 810 L54 1 L86 1 L176 247 L362 247 L366 1 L397 1 L388 810 L352 810 Z M189 280 L357 734 L362 280 L189 280 Z " />
<glyph glyph-name="afii10018" unicode="&#x411;" horiz-adv-x="413" d="M238 429 L146 429 L189 674 L357 674 L363 706 L164 706 L115 429 L115 429 L110 398 L110 398 L53 74 L68 74 L84 74 L183 74 C257 74 327 142 341 225 L351 279 C365 362 315 429 238 429 L238 429 Z M309 225 C298 159 244 106 188 106 L89 106 L141 398 L233 398 C292 398 330 345 319 279 L309 225 L309 225 Z " />
<glyph glyph-name="afii10019" unicode="&#x412;" horiz-adv-x="382" d="M329 505 C374 532 410 584 421 644 L421 646 L422 655 C436 742 392 810 323 810 L196 810 L194 798 L191 779 L144 515 L139 484 L59 34 L54 1 L54 1 L85 1 L85 1 L194 1 C271 1 346 73 362 162 L396 354 C408 425 380 484 329 505 L329 505 Z M222 779 L318 779 C370 779 403 722 391 654 L391 653 L390 643 C378 575 325 520 273 520 L176 520 L222 779 Z M330 162 C318 91 258 34 199 34 L90 34 L170 484 L279 484 C338 484 377 426 364 354 L330 162 Z " />
<glyph glyph-name="afii10020" unicode="&#x413;" horiz-adv-x="432" d="M505 812 L183 812 L40 1 L71 1 L208 780 L499 780 L505 812 L505 812 Z " />
<glyph glyph-name="afii10021" unicode="&#x414;" horiz-adv-x="745" d="M750 811 L391 811 L388 796 C372 704 335 550 283 418 C239 305 168 169 84 169 L69 169 L40 5 L71 5 L95 138 L650 138 L626 5 L659 5 L688 169 L636 169 L750 811 L750 811 Z M605 169 L162 169 C216 210 266 292 313 412 C362 538 398 685 417 780 L713 780 L605 169 L605 169 Z " />
<glyph glyph-name="afii10022" unicode="&#x415;" horiz-adv-x="335" d="M54 1 L280 1 L285 32 L90 32 L147 353 L292 353 L297 385 L152 385 L222 780 L417 780 L423 811 L197 811 L54 1 Z " />
<glyph glyph-name="afii10024" unicode="&#x416;" horiz-adv-x="755" d="M612 515 L851 810 L814 810 L468 384 L543 810 L542 810 L512 810 L510 810 L435 384 L239 810 L202 810 L337 515 L54 1 L88 1 L353 482 L425 325 L368 1 L370 1 L400 1 L401 1 L458 325 L584 482 L682 1 L715 1 L612 515 L612 515 Z " />
<glyph glyph-name="afii10025" unicode="&#x417;" horiz-adv-x="407" d="M329 809 C248 809 170 742 156 659 L135 541 C124 482 141 431 175 406 C133 382 98 330 87 271 L67 154 C52 71 106 4 187 4 L318 4 L324 35 L193 35 C130 35 87 88 99 154 L119 271 C131 335 177 390 223 390 L322 390 L322 391 L328 421 L328 422 L229 422 C183 422 156 478 167 541 L188 659 C199 725 261 778 324 778 L455 778 L460 809 L329 809 L329 809 Z " />
<glyph glyph-name="afii10026" unicode="&#x418;" horiz-adv-x="430" d="M228 809 L196 809 L54 1 L54 1 L82 1 L86 1 L86 1 L89 1 L456 716 L330 1 L332 1 L332 1 L364 1 L364 1 L361 1 L503 810 L503 810 L502 810 L474 810 L471 810 L101 90 L228 809 Z " />
<glyph glyph-name="afii10027" unicode="&#x419;" horiz-adv-x="369" d="M323 803 C269 803 233 855 245 921 L214 921 C199 839 245 770 317 770 C391 770 461 839 476 921 L444 921 C432 855 379 803 323 803 L323 803 Z M184 742 L215 742 L113 159 L414 742 L447 742 L448 742 L448 742 L448 742 L330 71 L336 71 L336 71 L299 71 L401 650 L101 71 L66 71 L184 742 L184 742 Z " />
<glyph glyph-name="afii10028" unicode="&#x41a;" horiz-adv-x="434" d="M537 810 L500 810 L152 383 L227 810 L196 810 L54 1 L85 1 L142 324 L270 482 L367 1 L401 1 L298 515 L537 810 Z " />
<glyph glyph-name="afii10029" unicode="&#x41b;" horiz-adv-x="577" d="M280 637 L263 637 L184 192 C171 115 116 50 63 50 L48 50 L43 19 L58 19 C129 19 201 97 217 192 L290 606 L566 606 L460 2 L491 2 L603 637 L296 637 L280 637 L280 637 Z " />
<glyph glyph-name="afii10030" unicode="&#x41c;" horiz-adv-x="478" d="M549 812 L535 812 L525 812 L288 311 L231 812 L222 812 L204 812 L197 812 L197 812 L54 1 L85 1 L209 707 L262 254 L264 242 L289 242 L295 254 L507 704 L383 1 L414 1 L557 812 L557 812 L557 812 L549 812 Z " />
<glyph glyph-name="afii10031" unicode="&#x41d;" horiz-adv-x="406" d="M388 388 L153 388 L227 809 L196 809 L54 1 L85 1 L147 356 L382 356 L320 1 L352 1 L494 809 L462 809 L388 388 Z " />
<glyph glyph-name="afii10032" unicode="&#x41e;" horiz-adv-x="428" d="M357 811 L348 811 C264 811 185 744 170 661 L81 150 C66 67 122 0 206 0 L216 0 C299 0 377 67 392 150 L481 661 C496 744 441 811 357 811 L357 811 Z M221 31 L211 31 C145 31 100 84 112 150 L201 661 C213 726 276 780 342 780 L351 780 C417 780 462 726 450 661 L361 150 C349 84 286 31 221 31 L221 31 Z " />
<glyph glyph-name="afii10033" unicode="&#x41f;" horiz-adv-x="478" d="M546 809 L530 809 L231 809 L208 809 L200 809 L58 2 L89 2 L226 778 L525 778 L388 2 L419 2 L561 809 L546 809 L546 809 Z " />
<glyph glyph-name="afii10034" unicode="&#x420;" horiz-adv-x="421" d="M349 811 L197 811 L53 0 L84 0 L139 311 L260 311 C337 311 413 380 428 466 L461 656 C476 742 426 811 349 811 L349 811 Z M396 466 C384 397 326 342 266 342 L145 342 L222 780 L343 780 C403 780 441 725 429 656 L396 466 L396 466 Z " />
<glyph glyph-name="afii10035" unicode="&#x421;" horiz-adv-x="421" d="M342 778 L351 778 C382 778 409 764 428 740 C439 725 447 704 449 683 L480 691 C478 718 469 743 454 762 C431 792 396 810 356 810 L347 810 C263 810 183 737 168 647 L82 162 C66 72 121 0 205 0 L214 0 C277 0 342 43 374 107 L346 118 C319 66 269 31 219 31 L210 31 C144 31 100 90 113 162 L199 647 C211 719 276 778 342 778 L342 778 Z " />
<glyph glyph-name="afii10036" unicode="&#x422;" horiz-adv-x="359" d="M191 780 L312 780 L175 0 L206 0 L343 780 L463 780 L469 811 L197 811 L191 780 Z " />
<glyph glyph-name="afii10037" unicode="&#x423;" horiz-adv-x="398" d="M323 220 C312 155 257 101 202 101 C148 101 113 155 124 220 L201 653 L169 653 L92 220 C78 137 125 70 197 70 C237 70 276 90 306 123 L296 63 C283 -7 229 -62 174 -62 C154 -62 134 -54 119 -38 L94 -61 C114 -82 139 -94 168 -94 C241 -94 312 -24 328 63 L355 220 L432 654 L400 654 L323 220 Z " />
<glyph glyph-name="afii10038" unicode="&#x424;" horiz-adv-x="414" d="M392 151 L481 659 C495 738 443 804 365 809 L379 887 L348 887 L334 808 C255 802 183 737 170 659 L81 151 C67 73 116 8 192 2 L180 -68 L211 -68 L223 1 C302 5 378 71 392 151 L392 151 Z M112 151 L201 659 C211 719 267 770 328 776 L197 34 C140 41 101 90 112 151 L112 151 Z M228 32 L360 778 C420 773 460 720 450 659 L361 151 C350 88 290 36 228 32 L228 32 Z " />
<glyph glyph-name="afii10039" unicode="&#x425;" horiz-adv-x="456" d="M489 811 L293 432 L231 811 L197 811 L267 384 L68 0 L102 0 L276 335 L331 0 L365 0 L300 384 L522 811 L489 811 L489 811 Z " />
<glyph glyph-name="afii10040" unicode="&#x426;" horiz-adv-x="611" d="M548 793 L516 793 L382 34 L342 34 L76 34 L210 793 L179 793 L40 2 L337 2 L409 2 L494 2 L471 -126 L503 -126 L531 34 L414 34 L548 793 L548 793 Z " />
<glyph glyph-name="afii10041" unicode="&#x427;" horiz-adv-x="451" d="M496 803 L427 410 C415 344 353 292 287 292 L242 292 C176 292 131 344 143 410 L213 810 L182 810 L112 410 C97 328 152 260 236 260 L281 260 C329 260 377 283 411 318 L355 2 L386 2 L458 410 L527 803 L529 812 L498 812 L496 803 L496 803 Z " />
<glyph glyph-name="afii10042" unicode="&#x428;" horiz-adv-x="583" d="M480 34 L294 34 L432 811 L400 811 L262 34 L76 34 L213 809 L182 809 L40 2 L506 2 L648 809 L617 809 L480 34 L480 34 Z " />
<glyph glyph-name="afii10043" unicode="&#x429;" horiz-adv-x="706" d="M648 809 L617 809 L480 34 L460 34 L294 34 L432 811 L400 811 L262 34 L76 34 L213 809 L182 809 L40 2 L455 2 L506 2 L586 2 L563 -126 L594 -126 L622 34 L511 34 L648 809 L648 809 Z " />
<glyph glyph-name="afii10044" unicode="&#x42a;" horiz-adv-x="491" d="M346 457 L254 457 L316 810 L182 810 L177 779 L280 779 L223 457 L223 457 L217 425 L217 425 L143 4 L158 4 L174 4 L274 4 C346 4 416 72 431 155 L457 306 C472 389 423 457 346 457 L346 457 Z M400 155 C388 89 335 36 280 36 L180 36 L248 425 L340 425 C399 425 438 372 426 306 L400 155 L400 155 Z " />
<glyph glyph-name="afii10045" unicode="&#x42b;" horiz-adv-x="516" d="M244 457 L153 457 L215 810 L184 810 L122 457 L122 457 L116 425 L116 425 L42 1 L58 1 L73 1 L173 1 C245 1 315 68 330 151 L357 306 C372 389 321 457 244 457 L244 457 Z M298 151 C287 86 233 32 178 32 L78 32 L147 425 L238 425 C298 425 337 372 325 306 L298 151 Z M342 0 L373 0 L515 810 L484 810 L342 0 L342 0 Z " />
<glyph glyph-name="afii10046" unicode="&#x42c;" horiz-adv-x="398" d="M244 457 L153 457 L215 810 L184 810 L122 457 L122 457 L116 425 L116 425 L42 1 L58 1 L73 1 L173 1 C245 1 315 68 330 151 L357 306 C372 389 321 457 244 457 L244 457 Z M298 151 C287 86 233 32 178 32 L78 32 L147 425 L238 425 C298 425 337 372 325 306 L298 151 Z " />
<glyph glyph-name="afii10047" unicode="&#x42d;" horiz-adv-x="473" d="M456 613 L444 550 L421 415 L121 415 L115 384 L415 384 L396 277 L382 198 C366 107 291 34 214 34 C138 34 89 107 105 198 L74 198 C55 90 115 1 209 1 C302 1 394 90 413 198 L427 277 L475 550 L487 613 C506 721 444 809 351 809 C257 809 167 721 148 613 L179 613 C195 704 270 778 346 778 C423 778 472 704 456 613 L456 613 Z " />
<glyph glyph-name="afii10048" unicode="&#x42e;" horiz-adv-x="572" d="M489 810 C417 810 347 743 332 660 L289 419 L144 419 L214 811 L183 811 L40 2 L71 2 L139 388 L284 388 L243 155 C228 71 275 4 347 4 C419 4 490 71 505 155 L594 660 C609 743 561 810 489 810 L489 810 Z M473 155 C461 89 408 35 353 35 C298 35 262 89 274 155 L363 660 C375 726 429 779 484 779 C539 779 574 726 562 660 L473 155 L473 155 Z " />
<glyph glyph-name="afii10049" unicode="&#x42f;" horiz-adv-x="424" d="M87 328 C41 302 17 252 27 193 L61 0 L92 0 L58 193 C47 259 91 313 157 313 L269 313 L324 0 L356 0 L213 811 L61 811 C-17 811 -67 742 -52 656 L-19 468 C-8 406 34 353 87 328 L87 328 Z M264 344 L144 344 C84 344 24 400 12 468 L-21 656 C-33 725 7 780 67 780 L187 780 L264 344 Z " />
<glyph glyph-name="afii10065" unicode="&#x430;" horiz-adv-x="396" d="M315 743 L66 71 L98 71 L174 279 L320 279 L322 71 L353 71 L347 743 L315 743 Z M319 310 L185 310 L311 637 L319 310 L319 310 Z " />
<glyph glyph-name="afii10066" unicode="&#x431;" horiz-adv-x="394" d="M309 741 C232 741 158 672 143 588 L97 325 L80 231 L79 222 C64 138 114 71 191 71 C268 71 342 138 357 222 L357 222 C357 225 358 228 358 231 L375 325 C390 409 339 476 262 476 C219 476 176 454 145 421 L174 588 C186 656 243 708 303 708 C362 708 402 656 390 588 L421 588 C436 672 386 741 309 741 L309 741 Z M111 231 L128 325 C139 391 197 445 257 445 C316 445 355 391 344 325 L327 231 C316 165 257 112 198 112 C138 112 100 165 111 231 L111 231 Z " />
<glyph glyph-name="afii10067" unicode="&#x432;" horiz-adv-x="337" d="M294 478 C305 485 315 494 323 504 C346 532 364 569 370 605 C384 681 347 742 290 742 L185 742 L185 742 L184 742 L140 490 L139 486 L134 459 L134 455 L72 104 L66 72 L66 71 L181 71 C245 71 307 131 319 203 L346 356 C356 412 333 459 294 478 L294 478 Z M210 711 L285 711 C324 711 349 661 339 605 C329 545 283 490 244 490 L171 490 L210 711 L210 711 Z M288 203 C279 148 233 104 187 104 L103 104 L165 455 L249 455 C295 455 325 411 315 356 L288 203 L288 203 Z " />
<glyph glyph-name="afii10068" unicode="&#x433;" horiz-adv-x="341" d="M384 654 L155 654 L53 75 L84 75 L180 623 L378 623 L384 654 L384 654 Z " />
<glyph glyph-name="afii10069" unicode="&#x434;" horiz-adv-x="643" d="M641 707 L338 707 L336 692 C325 635 295 509 250 396 C214 306 156 198 89 198 L74 198 L53 75 L84 75 L100 167 L557 167 L541 75 L573 75 L594 198 L551 198 L641 707 L641 707 Z M520 198 L161 198 C204 233 244 297 280 390 C323 496 351 612 364 676 L605 676 L520 198 L520 198 Z " />
<glyph glyph-name="afii10070" unicode="&#x435;" horiz-adv-x="295" d="M67 76 L253 76 L258 107 L103 107 L149 364 L263 364 L268 396 L154 396 L210 712 L365 712 L371 743 L185 743 L67 76 L67 76 Z " />
<glyph glyph-name="afii10072" unicode="&#x436;" horiz-adv-x="616" d="M728 653 L687 653 L413 374 L503 880 L502 880 L472 880 L471 880 L381 374 L206 653 L165 653 L285 462 L68 71 L102 71 L303 434 L372 323 L328 71 L329 71 L359 71 L360 71 L404 323 L513 434 L586 71 L619 71 L541 462 L728 653 L728 653 Z " />
<glyph glyph-name="afii10073" unicode="&#x437;" horiz-adv-x="379" d="M288 636 L152 636 L146 605 L282 605 C348 605 392 551 380 485 L374 450 C362 384 314 331 266 331 L161 331 L161 330 L155 299 L155 299 L260 299 C308 299 338 245 326 180 L322 154 C310 88 250 35 186 35 L55 35 L49 4 L180 4 C262 4 340 71 355 154 L359 180 C370 239 351 290 315 314 C359 340 396 391 407 450 L413 485 C428 569 371 636 288 636 L288 636 Z " />
<glyph glyph-name="afii10074" unicode="&#x438;" horiz-adv-x="407" d="M184 742 L66 71 L101 71 L401 650 L299 71 L336 71 L336 71 L330 71 L448 742 L448 742 L448 742 L447 742 L414 742 L113 159 L215 742 L184 742 L184 742 Z " />
<glyph glyph-name="afii10075" unicode="&#x439;" horiz-adv-x="383" d="M302 694 C248 694 212 746 224 812 L193 812 C178 730 224 661 296 661 C370 661 440 730 455 812 L423 812 C411 746 358 694 302 694 L302 694 Z " />
<glyph glyph-name="afii10076" unicode="&#x43a;" horiz-adv-x="391" d="M467 742 L145 345 L215 742 L184 742 L66 71 L97 71 L135 286 L264 444 L340 71 L373 71 L292 478 L504 742 L467 742 L467 742 Z " />
<glyph glyph-name="afii10077" unicode="&#x43b;" horiz-adv-x="586" d="M266 650 L195 248 C188 209 172 173 147 146 C125 120 98 106 74 106 L59 106 L54 75 L69 75 C139 75 210 153 227 248 L292 618 L568 618 L472 70 L503 70 L605 650 L266 650 L266 650 Z " />
<glyph glyph-name="afii10078" unicode="&#x43c;" horiz-adv-x="428" d="M496 742 L496 742 L462 742 L271 339 L221 742 L189 742 L72 72 L66 72 L66 72 L72 72 L72 71 L104 71 L203 630 L246 285 L246 272 L271 272 L278 285 L446 638 L346 72 L384 72 L384 72 L378 72 L496 742 L496 742 Z " />
<glyph glyph-name="afii10079" unicode="&#x43d;" horiz-adv-x="352" d="M336 390 L153 390 L215 742 L184 742 L66 71 L97 71 L148 359 L331 359 L280 71 L311 71 L429 742 L398 742 L336 390 L336 390 Z " />
<glyph glyph-name="afii10080" unicode="&#x43e;" horiz-adv-x="374" d="M311 742 C242 742 173 675 158 592 L92 221 C78 138 124 71 193 71 C263 71 332 138 346 221 L412 592 C427 675 381 742 311 742 L311 742 Z M315 221 C304 155 251 102 198 102 C145 102 112 155 123 221 L189 592 C200 657 253 711 306 711 C359 711 392 657 381 592 L315 221 L315 221 Z " />
<glyph glyph-name="afii10081" unicode="&#x43f;" horiz-adv-x="416" d="M486 741 L470 741 L195 741 L172 741 L164 741 L46 71 L77 71 L190 710 L465 710 L352 71 L383 71 L501 741 L486 741 L486 741 Z " />
<glyph glyph-name="afii10082" unicode="&#x440;" horiz-adv-x="359" d="M311 742 L184 742 L118 365 L112 333 L66 71 L97 71 L143 333 L239 333 C304 333 367 390 380 461 L407 613 C419 684 376 742 311 742 L311 742 Z M349 461 C339 408 293 365 245 365 L149 365 L210 710 L306 710 C354 710 385 667 376 613 L349 461 L349 461 Z " />
<glyph glyph-name="afii10083" unicode="&#x441;" horiz-adv-x="359" d="M303 711 L310 711 C334 711 355 700 368 681 C377 667 383 652 383 635 L417 642 C415 665 407 685 394 702 C376 727 347 742 315 742 L308 742 C239 742 174 681 160 605 L90 207 C77 131 121 71 190 71 L197 71 C248 71 301 107 329 161 L301 171 C280 130 240 102 202 102 L195 102 C144 102 111 149 121 207 L191 605 C201 663 252 711 303 711 L303 711 Z " />
<glyph glyph-name="afii10084" unicode="&#x442;" horiz-adv-x="328" d="M179 712 L276 712 L163 71 L194 71 L307 712 L402 712 L408 743 L185 743 L179 712 L179 712 Z " />
<glyph glyph-name="afii10085" unicode="&#x443;" horiz-adv-x="391" d="M260 382 L216 742 L184 742 L234 322 L190 72 L190 71 L222 71 L222 72 L267 324 L459 742 L426 742 L260 382 L260 382 Z " />
<glyph glyph-name="afii10086" unicode="&#x444;" horiz-adv-x="596" d="M511 620 C474 620 435 600 406 570 L463 896 L432 896 L373 557 C355 594 321 620 278 620 C206 620 135 551 120 468 L77 222 C62 140 109 72 181 72 C224 72 267 96 298 134 L258 -94 L289 -94 L327 120 C345 90 377 72 414 72 C487 72 558 140 573 222 L616 468 C631 551 584 620 511 620 L511 620 Z M308 222 C296 156 242 104 187 104 C132 104 97 156 109 222 L152 468 C164 534 217 587 272 587 C327 587 363 534 351 468 L308 222 L308 222 Z M541 222 C529 156 475 104 420 104 C374 104 342 141 339 191 L394 500 C414 550 459 587 505 587 C560 587 596 534 584 468 L541 222 L541 222 Z " />
<glyph glyph-name="afii10087" unicode="&#x445;" horiz-adv-x="450" d="M464 583 L429 583 L276 344 L205 583 L170 583 L253 307 L54 0 L89 0 L263 271 L344 0 L379 0 L288 307 L464 583 L464 583 Z " />
<glyph glyph-name="afii10088" unicode="&#x446;" horiz-adv-x="527" d="M473 653 L440 653 L343 104 L312 104 L89 104 L186 653 L155 653 L52 72 L306 72 L370 72 L437 72 L415 -56 L446 -56 L474 104 L376 104 L473 653 L473 653 Z " />
<glyph glyph-name="afii10089" unicode="&#x447;" horiz-adv-x="418" d="M438 683 L386 386 C374 321 311 267 246 267 L238 267 C172 267 127 321 139 386 L193 693 L162 693 L108 386 C93 303 148 236 232 236 L240 236 C288 236 335 258 369 294 L330 72 L361 72 L417 386 L469 683 L471 692 L440 692 L438 683 L438 683 Z " />
<glyph glyph-name="afii10090" unicode="&#x448;" horiz-adv-x="596" d="M493 105 L307 105 L405 658 L373 658 L275 105 L89 105 L186 656 L155 656 L53 74 L519 74 L621 656 L590 656 L493 105 L493 105 Z " />
<glyph glyph-name="afii10091" unicode="&#x449;" horiz-adv-x="659" d="M621 654 L590 654 L493 104 L468 104 L307 104 L404 657 L372 657 L275 104 L89 104 L186 654 L155 654 L52 72 L462 72 L518 72 L593 72 L571 -56 L603 -56 L631 104 L524 104 L621 654 L621 654 Z " />
<glyph glyph-name="afii10092" unicode="&#x44a;" horiz-adv-x="496" d="M333 381 L241 381 L298 706 L164 706 L159 675 L262 675 L210 381 L210 381 L204 350 L204 350 L155 71 L170 71 L186 71 L286 71 C358 71 428 138 442 221 L444 231 C459 314 410 381 333 381 L333 381 Z M411 221 C400 156 346 102 291 102 L191 102 L235 350 L327 350 C386 350 425 297 413 231 L411 221 L411 221 Z " />
<glyph glyph-name="afii10093" unicode="&#x44b;" horiz-adv-x="464" d="M237 419 L146 419 L187 652 L156 652 L115 419 L115 419 L110 387 L110 387 L54 71 L70 71 L85 71 L185 71 C257 71 328 138 342 221 L351 268 C365 351 314 419 237 419 L237 419 Z M310 221 C299 156 245 102 190 102 L90 102 L141 387 L232 387 C292 387 330 334 319 268 L310 221 Z M414 70 L446 70 L549 654 L517 654 L414 70 L414 70 Z " />
<glyph glyph-name="afii10094" unicode="&#x44c;" horiz-adv-x="378" d="M244 457 L153 457 L215 810 L184 810 L122 457 L122 457 L116 425 L116 425 L42 1 L58 1 L73 1 L173 1 C245 1 315 68 330 151 L357 306 C372 389 321 457 244 457 L244 457 Z M298 151 C287 86 233 32 178 32 L78 32 L147 425 L238 425 C298 425 337 372 325 306 L298 151 L298 151 Z " />
<glyph glyph-name="afii10095" unicode="&#x44d;" horiz-adv-x="404" d="M368 555 L354 473 L341 398 L120 398 L114 366 L335 366 L321 286 L310 222 C298 156 244 104 190 104 C134 104 99 156 111 222 L79 222 C64 140 110 71 184 71 C256 71 326 140 341 222 L352 286 L385 473 L399 555 C414 639 368 706 296 706 C222 706 152 639 137 555 L169 555 C181 621 235 675 291 675 C345 675 380 621 368 555 L368 555 Z " />
<glyph glyph-name="afii10096" unicode="&#x44e;" horiz-adv-x="522" d="M450 705 C383 705 316 638 301 555 L274 399 L141 399 L195 705 L164 705 L52 72 L83 72 L135 368 L268 368 L243 224 C228 141 272 74 339 74 C408 74 474 141 489 224 L547 555 C562 638 519 705 450 705 L450 705 Z M458 224 C447 159 395 105 344 105 C294 105 263 159 274 224 L332 555 C344 621 394 674 444 674 C495 674 528 621 516 555 L458 224 L458 224 Z " />
<glyph glyph-name="afii10097" unicode="&#x44f;" horiz-adv-x="359" d="M179 333 C136 308 99 258 89 201 L66 71 L97 71 L120 201 C132 267 186 320 239 320 L324 320 L280 71 L280 71 L311 71 L311 71 L355 320 L361 352 L424 710 L429 742 L430 743 L304 743 C239 743 177 683 164 611 L136 452 C127 400 145 354 179 333 L179 333 Z M330 352 L235 352 C188 352 157 396 167 452 L195 611 C205 666 251 710 298 710 L393 710 L330 352 Z " />
<glyph glyph-name="afii10071" unicode="&#x451;" horiz-adv-x="287" d="M238 786 L277 786 L285 833 L246 833 L238 786 L238 786 Z M302 786 L341 786 L349 833 L310 833 L302 786 L302 786 Z M67 76 L253 76 L258 107 L103 107 L149 364 L263 364 L268 396 L154 396 L210 712 L365 712 L371 743 L185 743 L67 76 L67 76 Z " />
<glyph glyph-name="afii10099" unicode="&#x452;" horiz-adv-x="448" d="M351 556 C312 556 272 535 242 503 L273 677 L426 677 L431 708 L278 708 L296 810 L264 810 L246 708 L164 708 L159 677 L241 677 L193 406 L124 13 L122 4 L154 4 L156 13 L225 406 C236 470 290 524 345 524 C400 524 435 470 424 406 L360 43 C349 -22 288 -76 228 -76 L223 -107 C301 -107 376 -40 391 43 L455 406 C470 488 423 556 351 556 L351 556 Z " />
<glyph glyph-name="afii10100" unicode="&#x453;" horiz-adv-x="295" d="M386 739 L207 739 L207 740 L176 740 L58 70 L89 70 L201 708 L380 708 L386 739 L386 739 Z M278 812 L305 812 L339 901 L304 901 L278 812 L278 812 Z " />
<glyph glyph-name="afii10101" unicode="&#x454;" horiz-adv-x="362" d="M315 706 C232 706 152 639 137 555 L131 520 C121 461 139 410 174 384 C130 360 94 309 84 250 L79 224 C64 141 119 74 200 74 L331 74 L336 105 L205 105 C142 105 99 158 111 224 L116 250 C127 315 177 369 225 369 L329 369 L329 369 L334 400 L334 401 L230 401 C182 401 152 454 163 520 L169 555 C181 621 244 675 310 675 L447 675 L452 706 L315 706 L315 706 Z " />
<glyph glyph-name="afii10102" unicode="&#x455;" horiz-adv-x="366" d="M264 419 C220 473 177 527 192 612 C203 667 253 709 306 709 C358 709 391 662 381 604 L413 604 C426 679 381 742 311 742 C240 742 175 684 161 612 C143 514 192 454 239 398 C284 342 328 291 310 202 C298 138 257 102 198 102 C147 102 112 149 122 208 L91 208 C78 132 124 71 193 71 C269 71 326 120 342 202 C361 304 314 363 264 419 L264 419 Z " />
<glyph glyph-name="afii10103" unicode="&#x456;" horiz-adv-x="132" d="M66 71 L97 71 L216 743 L185 743 L66 71 L66 71 Z " />
<glyph glyph-name="afii10104" unicode="&#x457;" horiz-adv-x="196" d="M69 709 L223 709 L109 67 L141 67 L260 740 L74 740 L69 709 L69 709 Z M134 787 L173 787 L181 834 L142 834 L134 787 L134 787 Z M198 787 L237 787 L245 834 L206 834 L198 787 L198 787 Z " />
<glyph glyph-name="afii10105" unicode="&#x458;" horiz-adv-x="203" d="M209 744 L240 744 L246 779 L215 779 L209 744 L209 744 Z M88 62 C76 -8 22 -63 -33 -63 C-54 -63 -73 -55 -86 -39 L-112 -62 C-93 -84 -66 -96 -38 -96 C33 -96 104 -25 119 62 L224 653 L193 653 L88 62 L88 62 Z " />
<glyph glyph-name="afii10106" unicode="&#x459;" horiz-adv-x="694" d="M546 527 L446 527 L476 694 L446 694 L445 694 L322 694 L230 174 C222 128 185 104 151 104 C134 104 121 110 112 120 C101 134 97 152 101 174 L70 174 C65 143 69 117 85 98 C99 82 120 72 145 72 C193 72 251 108 262 174 L348 663 L439 663 L336 74 L351 74 L367 74 L467 74 C539 74 609 142 623 225 L650 376 C664 459 618 527 546 527 L546 527 Z M592 225 C581 159 527 106 472 106 L372 106 L441 495 L541 495 C596 495 630 442 619 376 L592 225 L592 225 Z " />
<glyph glyph-name="afii10107" unicode="&#x45a;" horiz-adv-x="680" d="M544 527 L465 527 L495 694 L463 694 L433 527 L324 527 L354 693 L322 693 L230 174 C222 128 185 104 151 104 C134 104 121 110 112 120 C101 134 97 152 101 174 L70 174 C65 143 69 117 85 98 C99 82 120 72 145 72 C193 72 251 108 262 174 L319 495 L428 495 L354 74 L371 74 L386 74 L486 74 C558 74 629 142 643 225 L670 376 C684 459 628 527 544 527 L544 527 Z M611 225 C600 159 546 106 491 106 L391 106 L460 495 L539 495 C605 495 649 442 638 376 L611 225 L611 225 Z " />
<glyph glyph-name="afii10108" unicode="&#x45b;" horiz-adv-x="446" d="M351 556 C312 556 272 535 242 503 L275 689 L428 689 L433 720 L280 720 L296 810 L264 810 L248 720 L166 720 L161 689 L243 689 L193 406 L124 13 L122 4 L154 4 L156 13 L225 406 C236 470 290 524 345 524 C400 524 435 470 424 406 L353 5 L384 5 L455 406 C470 488 423 556 351 556 L351 556 Z " />
<glyph glyph-name="afii10109" unicode="&#x45c;" horiz-adv-x="390" d="M286 697 L313 697 L347 786 L312 786 L286 697 L286 697 Z " />
<glyph glyph-name="afii10110" unicode="&#x45e;" horiz-adv-x="374" d="M260 382 L216 742 L184 742 L234 322 L190 72 L190 71 L222 71 L222 72 L267 324 L459 742 L426 742 L260 382 L260 382 Z M346 799 C292 799 256 851 268 917 L237 917 C222 835 268 766 340 766 C414 766 484 835 499 917 L467 917 C455 851 402 799 346 799 L346 799 Z " />
<glyph glyph-name="afii10193" unicode="&#x45f;" horiz-adv-x="523" d="M440 294 L122 294 L193 694 L162 694 L86 263 L261 263 L228 74 L259 74 L292 263 L467 263 L543 694 L511 694 L440 294 L440 294 Z " />
<glyph glyph-name="afii10050" unicode="&#x490;" horiz-adv-x="464" d="M473 718 L166 718 L40 1 L71 1 L191 685 L499 685 L521 810 L489 810 L473 718 L473 718 Z " />
<glyph glyph-name="afii10098" unicode="&#x491;" horiz-adv-x="457" d="M456 626 L148 626 L39 6 L71 6 L174 595 L481 595 L503 720 L472 720 L456 626 L456 626 Z " />
<glyph glyph-name="endash" unicode="&#x2013;" horiz-adv-x="430" d="M109 392 L464 392 L469 425 L114 425 L109 392 L109 392 Z " />
<glyph glyph-name="emdash" unicode="&#x2014;" horiz-adv-x="619" d="M109 392 L632 392 L637 425 L114 425 L109 392 L109 392 Z " />
<glyph glyph-name="afii00208" unicode="&#x2015;" horiz-adv-x="619" d="M97 320 L620 320 L625 353 L102 353 L97 320 L97 320 Z " />
<glyph glyph-name="quoteleft" unicode="&#x2018;" horiz-adv-x="130" d="M178 784 L170 738 L209 738 L217 784 L199 784 L199 784 C202 803 214 802 214 802 L217 817 C184 817 178 784 178 784 L178 784 Z " />
<glyph glyph-name="quoteright" unicode="&#x2019;" horiz-adv-x="124" d="M222 811 L183 811 L176 774 L194 774 L194 774 C191 757 179 758 179 758 L177 745 C210 745 215 774 215 774 L222 811 L222 811 Z " />
<glyph glyph-name="quotesinglbase" unicode="&#x201a;" horiz-adv-x="128" d="M99 116 L60 116 L52 70 L70 70 C67 52 56 52 55 52 L51 34 C84 34 91 70 91 70 L99 116 Z " />
<glyph glyph-name="quotedblleft" unicode="&#x201c;" horiz-adv-x="214" d="M229 784 L221 738 L261 738 L269 784 L251 784 L251 784 C254 803 266 802 266 802 L269 817 C235 817 229 784 229 784 L229 784 Z M178 784 L170 738 L209 738 L217 784 L199 784 L199 784 C202 803 214 802 214 802 L217 817 C184 817 178 784 178 784 L178 784 Z " />
<glyph glyph-name="quotedblright" unicode="&#x201d;" horiz-adv-x="199" d="M223 817 L184 817 L176 773 L194 773 L194 773 C190 752 179 755 179 755 L176 738 C209 738 215 773 215 773 L223 817 L223 817 Z M275 817 L235 817 L227 773 L245 773 L245 773 C241 752 230 755 230 755 L227 738 C262 738 267 773 267 773 L275 817 L275 817 Z " />
<glyph glyph-name="quotedblbase" unicode="&#x201e;" horiz-adv-x="205" d="M152 116 L112 116 L104 70 L122 70 C119 52 109 52 107 52 L103 34 C137 34 144 69 144 70 L152 116 Z M99 116 L60 116 L52 70 L70 70 C67 52 56 52 55 52 L51 34 C84 34 91 70 91 70 L99 116 Z " />
<glyph glyph-name="dagger" unicode="&#x2020;" horiz-adv-x="372" d="M364 805 L333 805 L297 601 L145 601 L140 570 L292 570 L191 -1 L222 -1 L323 570 L464 570 L469 601 L328 601 L364 805 L364 805 Z " />
<glyph glyph-name="daggerdbl" unicode="&#x2021;" horiz-adv-x="374" d="M364 805 L333 805 L297 601 L145 601 L140 570 L292 570 L261 392 L109 392 L103 361 L255 361 L191 -1 L222 -1 L286 361 L427 361 L433 392 L292 392 L323 570 L464 570 L469 601 L328 601 L364 805 L364 805 Z " />
<glyph glyph-name="bullet" unicode="&#x2022;" horiz-adv-x="145" d="M144 458 C124 458 106 442 103 424 C100 406 112 390 132 390 C148 390 168 406 171 424 C174 442 160 458 144 458 L144 458 Z " />
<glyph glyph-name="onedotenleader" unicode="&#x2024;" horiz-adv-x="118" d="M40 5 L79 5 L86 44 L47 44 L40 5 L40 5 Z " />
<glyph glyph-name="twodotenleader" unicode="&#x2025;" horiz-adv-x="235" d="M40 5 L79 5 L86 44 L47 44 L40 5 L40 5 Z M157 5 L197 5 L204 44 L164 44 L157 5 L157 5 Z " />
<glyph glyph-name="ellipsis" unicode="&#x2026;" horiz-adv-x="325" d="M52 72 L91 72 L99 119 L60 119 L52 72 L52 72 Z M116 72 L155 72 L163 119 L124 119 L116 72 L116 72 Z M181 72 L220 72 L228 119 L189 119 L181 72 L181 72 Z " />
<glyph glyph-name="perthousand" unicode="&#x2030;" horiz-adv-x="1147" d="M401 566 L418 661 C433 744 387 812 313 812 C241 812 171 744 156 661 L139 566 C124 482 171 415 243 415 C317 415 386 482 401 566 L401 566 Z M248 446 C194 446 159 500 170 566 L187 661 C199 727 253 780 307 780 C363 780 398 727 386 661 L369 566 C358 500 304 446 248 446 L248 446 Z M585 398 C513 398 442 330 427 247 L410 152 C395 68 443 1 515 1 C588 1 658 68 673 152 L690 247 C705 330 658 398 585 398 L585 398 Z M640 152 C629 86 575 32 520 32 C466 32 430 86 441 152 L458 247 C470 313 525 367 579 367 C634 367 669 313 657 247 L640 152 L640 152 Z M927 398 C855 398 784 330 769 247 L752 152 C737 68 785 1 857 1 C930 1 1000 68 1015 152 L1032 247 C1047 330 1000 398 927 398 L927 398 Z M982 152 C971 86 917 32 862 32 C808 32 772 86 783 152 L800 247 C812 313 867 367 921 367 C976 367 1011 313 999 247 L982 152 L982 152 Z M613 811 L188 6 L219 6 L646 811 L613 811 L613 811 Z " />
<glyph glyph-name="guilsinglleft" unicode="&#x2039;" horiz-adv-x="259" d="M295 581 L272 598 L109 395 L198 187 L228 203 L146 394 L295 581 L295 581 Z " />
<glyph glyph-name="guilsinglright" unicode="&#x203a;" horiz-adv-x="266" d="M142 581 L225 394 L75 203 L99 187 L262 395 L171 598 L142 581 L142 581 Z " />
<glyph glyph-name="fraction" unicode="&#x2044;" horiz-adv-x="173" d="M464 804 L39 -1 L76 -1 L502 804 L464 804 Z " />
<glyph glyph-name="zerosuperior" unicode="&#x2070;" horiz-adv-x="304" d="M331 918 L294 918 C251 918 210 882 202 839 L153 559 C145 515 174 480 217 480 L254 480 C298 480 340 515 348 559 L397 839 C405 882 375 918 331 918 L331 918 Z M316 559 C311 533 287 511 260 511 L223 511 C198 511 179 533 184 559 L233 839 C238 865 264 886 289 886 L326 886 C353 886 370 865 365 839 L316 559 L316 559 Z " />
<glyph glyph-name="foursuperior" unicode="&#x2074;" horiz-adv-x="323" d="M375 918 L343 918 L166 632 L293 632 L266 480 L298 480 L325 632 L376 632 L382 664 L331 664 L375 918 L375 918 Z M299 664 L220 664 L330 841 L299 664 L299 664 Z " />
<glyph glyph-name="fivesuperior" unicode="&#x2075;" horiz-adv-x="278" d="M315 781 C296 797 271 800 236 793 L253 886 L370 886 L375 918 L227 918 L198 749 L219 757 C253 768 278 768 293 755 C314 738 319 697 309 636 C298 578 276 511 230 511 C214 511 199 523 191 544 C188 558 187 574 189 589 L158 589 C155 569 156 547 161 530 C171 498 196 480 224 480 C251 480 276 493 295 517 C315 544 330 583 340 636 C353 709 344 757 315 781 L315 781 Z " />
<glyph glyph-name="sixsuperior" unicode="&#x2076;" horiz-adv-x="263" d="M288 887 C313 887 330 858 324 824 L355 824 C364 876 336 918 293 918 C251 918 209 876 200 824 L176 688 L155 572 L154 564 C151 546 154 529 161 516 C172 494 191 480 216 480 C241 480 267 494 283 516 C297 529 306 546 309 564 L331 688 C338 731 310 767 267 767 C250 767 234 761 218 751 L231 824 C237 858 263 887 288 887 L288 887 Z M261 736 C286 736 304 714 300 688 L279 572 C277 558 269 544 262 534 C250 523 236 516 222 516 C209 516 198 523 191 534 C185 544 184 558 186 572 L207 688 C211 714 236 736 261 736 L261 736 Z " />
<glyph glyph-name="sevensuperior" unicode="&#x2077;" horiz-adv-x="300" d="M397 918 L216 918 L211 886 L358 886 C315 828 218 686 182 480 L214 480 C252 696 364 848 392 886 L397 918 L397 918 Z " />
<glyph glyph-name="eightsuperior" unicode="&#x2078;" horiz-adv-x="278" d="M321 766 C342 780 358 805 363 833 C371 878 343 918 301 918 C259 918 218 878 210 833 C205 805 213 780 230 766 C203 751 183 726 177 696 L153 559 C145 515 174 480 217 480 L232 480 C275 480 316 515 324 559 L348 696 C354 726 342 751 321 766 L321 766 Z M296 886 C322 886 337 862 332 833 C327 804 303 780 277 780 C252 780 236 804 241 833 C246 862 271 886 296 886 L296 886 Z M292 559 C287 533 263 511 238 511 L223 511 C198 511 179 533 184 559 L208 696 C213 722 239 744 264 744 L279 744 C304 744 321 722 316 696 L292 559 L292 559 Z " />
<glyph glyph-name="ninesuperior" unicode="&#x2079;" horiz-adv-x="257" d="M293 918 C293 918 293 918 293 918 L293 918 L293 918 C251 918 210 881 202 838 L180 713 C173 670 201 634 243 634 C261 634 278 640 293 649 L279 572 C274 539 247 511 222 511 C198 511 181 539 186 572 L155 572 C146 521 174 480 216 480 C259 480 301 521 310 572 L335 713 L355 824 L357 838 C365 881 336 918 293 918 L293 918 Z M249 666 C224 666 206 686 211 713 L231 824 C237 857 264 887 288 887 C288 887 288 887 288 887 C313 887 330 857 324 824 L304 713 C299 686 274 666 249 666 L249 666 Z " />
<glyph glyph-name="parenleftsuperior" unicode="&#x207d;" horiz-adv-x="184" d="M285 869 C268 869 282 869 264 869 C165 710 131 521 174 360 C191 360 177 360 195 360 C151 521 185 710 285 869 L285 869 Z " />
<glyph glyph-name="parenrightsuperior" unicode="&#x207e;" horiz-adv-x="178" d="M197 869 C240 710 206 521 107 360 C124 360 110 360 128 360 C227 521 261 710 218 869 C200 869 214 869 197 869 L197 869 Z " />
<glyph glyph-name="nsuperior" unicode="&#x207f;" horiz-adv-x="253" d="M321 742 L306 742 L254 445 L205 742 L188 742 L187 742 L187 742 L187 742 L128 400 L124 400 L124 400 L143 400 L195 695 L244 400 L261 400 L321 742 L321 742 Z " />
<glyph glyph-name="zeroinferior" unicode="&#x2080;" horiz-adv-x="304" d="M220 287 L183 287 C140 287 99 251 91 208 L42 -72 C34 -116 63 -151 106 -151 L143 -151 C187 -151 229 -116 237 -72 L286 208 C294 251 264 287 220 287 L220 287 Z M205 -72 C200 -98 175 -120 148 -120 L111 -120 C86 -120 68 -98 73 -72 L122 208 C127 234 152 254 177 254 L214 254 C241 254 259 234 254 208 L205 -72 L205 -72 Z " />
<glyph glyph-name="oneinferior" unicode="&#x2081;" horiz-adv-x="191" d="M139 287 L98 248 L118 227 L138 246 L68 -151 L99 -151 L176 287 L139 287 L139 287 Z " />
<glyph glyph-name="twoinferior" unicode="&#x2082;" horiz-adv-x="265" d="M259 182 C269 240 238 286 190 286 C144 286 96 236 86 176 L117 176 C124 218 156 254 184 254 C214 254 235 222 228 182 C216 118 176 77 134 35 C90 -10 44 -56 31 -136 L28 -151 L200 -151 L205 -120 L64 -120 C79 -61 116 -24 156 16 C200 60 246 106 259 182 L259 182 Z " />
<glyph glyph-name="threeinferior" unicode="&#x2083;" horiz-adv-x="284" d="M161 160 L274 287 L105 287 L99 254 L207 254 L97 131 L129 131 C185 131 210 83 196 0 C182 -78 145 -120 118 -120 C90 -120 71 -84 78 -41 L47 -41 C37 -102 67 -151 113 -151 C164 -151 211 -89 227 0 C242 89 218 145 161 160 L161 160 Z " />
<glyph glyph-name="fourinferior" unicode="&#x2084;" horiz-adv-x="323" d="M264 287 L232 287 L55 1 L182 1 L155 -151 L187 -151 L214 1 L265 1 L270 32 L219 32 L264 287 L264 287 Z M187 32 L108 32 L219 210 L187 32 L187 32 Z " />
<glyph glyph-name="fiveinferior" unicode="&#x2085;" horiz-adv-x="430" d="M204 150 C185 166 159 169 125 162 L141 254 L258 254 L264 287 L116 287 L86 118 L108 126 C142 137 167 137 181 124 C202 107 208 66 197 5 C187 -53 164 -120 118 -120 C102 -120 87 -108 80 -88 C77 -73 75 -58 78 -42 L47 -42 C44 -62 45 -84 50 -101 C60 -133 85 -151 113 -151 C140 -151 165 -138 183 -114 C204 -88 219 -48 228 5 C241 78 233 126 204 150 L204 150 Z " />
<glyph glyph-name="sixinferior" unicode="&#x2086;" horiz-adv-x="263" d="M177 256 C202 256 219 227 213 193 L244 193 C253 245 225 287 182 287 C140 287 98 245 89 193 L64 56 L44 -59 L43 -67 C40 -85 43 -102 50 -115 C60 -137 80 -151 105 -151 C130 -151 155 -137 172 -115 C186 -102 195 -85 198 -67 L219 56 C227 100 198 136 155 136 C138 136 122 130 107 120 L120 193 C126 227 152 256 177 256 L177 256 Z M150 104 C175 104 193 83 188 56 L168 -59 C166 -73 158 -88 150 -97 C138 -108 125 -115 111 -115 C98 -115 86 -108 79 -97 C74 -88 73 -73 75 -59 L95 56 C100 83 125 104 150 104 L150 104 Z " />
<glyph glyph-name="seveninferior" unicode="&#x2087;" horiz-adv-x="300" d="M286 287 L105 287 L99 254 L246 254 C204 197 107 55 71 -151 L103 -151 C141 65 253 217 280 254 L286 287 L286 287 Z " />
<glyph glyph-name="eightinferior" unicode="&#x2088;" horiz-adv-x="424" d="M209 134 C231 149 247 174 252 202 C260 247 232 287 190 287 C148 287 107 247 99 202 C94 174 102 149 118 134 C92 120 71 95 66 65 L42 -72 C34 -116 63 -151 106 -151 L121 -151 C164 -151 205 -116 213 -72 L237 65 C242 95 231 120 209 134 L209 134 Z M184 254 C210 254 226 230 221 202 C216 173 192 149 166 149 C141 149 125 173 130 202 C135 230 159 254 184 254 L184 254 Z M181 -72 C176 -98 151 -120 126 -120 L111 -120 C86 -120 68 -98 73 -72 L97 65 C102 91 127 113 152 113 L167 113 C192 113 210 91 205 65 L181 -72 L181 -72 Z " />
<glyph glyph-name="nineinferior" unicode="&#x2089;" horiz-adv-x="257" d="M182 287 C182 287 182 287 182 287 L182 287 L182 287 C140 287 99 250 91 206 L69 82 C61 38 90 2 132 2 C150 2 167 8 182 18 L168 -59 C162 -92 135 -120 110 -120 C86 -120 69 -92 75 -59 L44 -59 C35 -110 63 -151 105 -151 C148 -151 190 -110 199 -59 L224 82 L244 193 L246 206 C254 250 225 287 182 287 L182 287 Z M138 35 C113 35 95 55 100 82 L120 193 C125 226 153 256 177 256 C177 256 177 256 177 256 C202 256 218 226 213 193 L193 82 C188 55 163 35 138 35 L138 35 Z " />
<glyph glyph-name="parenleftinferior" unicode="&#x208d;" horiz-adv-x="167" d="M176 360 C162 360 173 360 159 360 C79 230 52 77 86 -52 C101 -52 90 -52 103 -52 C69 77 96 230 176 360 L176 360 Z " />
<glyph glyph-name="parenrightinferior" unicode="&#x208e;" horiz-adv-x="156" d="M102 360 C137 230 110 77 29 -52 C43 -52 32 -52 46 -52 C126 77 153 230 119 360 C105 360 116 360 102 360 L102 360 Z " />
<glyph glyph-name="colonmonetary" unicode="&#x20a1;" horiz-adv-x="422" d="M480 691 C479 706 475 719 471 732 L518 840 L479 840 L448 769 C442 778 433 785 423 791 L446 840 L407 840 L392 805 C381 809 368 810 356 810 L347 810 C263 810 183 737 168 647 L82 162 C78 137 78 113 84 91 L29 -37 L66 -37 L104 50 C111 41 119 32 128 25 L101 -37 L138 -37 L158 8 C172 2 188 0 205 0 L214 0 C277 0 342 43 374 107 L346 118 C319 66 269 31 219 31 L210 31 C196 31 183 34 170 38 L450 683 L480 691 L480 691 Z M113 162 L199 647 C211 719 276 778 342 778 L351 778 C360 778 369 776 378 774 L112 156 C112 158 113 160 113 162 L113 162 Z M121 89 L409 758 C416 754 423 748 428 740 C430 738 431 736 433 733 L142 58 C133 67 126 77 121 89 L121 89 Z " />
<glyph glyph-name="Euro" unicode="&#x20ac;" horiz-adv-x="460" d="M389 779 L397 779 C463 779 506 720 494 648 L526 648 C542 738 486 810 402 810 L394 810 C310 810 231 738 215 648 L191 514 L130 514 L124 482 L185 482 L159 334 L98 334 L93 302 L154 302 L130 166 C114 76 168 4 252 4 L260 4 C344 4 425 76 441 166 L409 166 C396 94 332 35 266 35 L258 35 C192 35 148 94 161 166 L185 302 L429 302 L434 334 L190 334 L216 482 L460 482 L466 514 L222 514 L246 648 C258 720 323 779 389 779 L389 779 Z " />
<glyph glyph-name="afii61352" unicode="&#x2116;" horiz-adv-x="797" d="M346 90 L231 810 L227 810 L200 810 L198 810 L198 810 L56 1 L54 1 L54 1 L85 1 L85 1 L88 1 L214 716 L329 1 L331 1 L331 1 L336 1 L364 1 L364 1 L506 809 L473 809 L346 90 Z M731 788 C659 788 589 721 574 638 L524 355 C509 272 557 205 629 205 C702 205 772 272 787 355 L837 638 C852 721 804 788 731 788 L731 788 Z M754 355 C742 289 689 236 634 236 C580 236 543 289 555 355 L605 638 C617 704 672 757 726 757 C781 757 816 704 804 638 L754 355 Z M480 116 L739 116 L745 149 L486 149 L480 116 Z " />
<glyph glyph-name="trademark" unicode="&#x2122;" horiz-adv-x="355" d="M463 818 L463 818 L460 818 L451 818 L446 818 L350 614 L325 818 L322 818 L308 818 L307 815 L248 481 L246 481 L246 481 L248 481 L248 480 L265 480 L315 762 L337 588 L337 581 L350 581 L353 588 L439 766 L388 481 L391 481 L391 481 L407 481 L407 481 L403 481 L463 818 L463 818 Z M171 802 L220 802 L163 480 L179 480 L236 802 L284 802 L287 817 L174 817 L171 802 L171 802 Z " />
<glyph glyph-name="onethird" unicode="&#x2153;" horiz-adv-x="508" d="M419 311 L532 438 L363 438 L357 406 L465 406 L354 282 L385 282 C443 282 467 234 452 151 C438 73 402 31 376 31 C347 31 328 67 336 110 L305 110 C294 49 324 0 371 0 C422 0 467 62 483 151 C499 240 476 296 419 311 L419 311 Z M218 809 L177 770 L197 749 L217 768 L147 371 L178 371 L255 809 L218 809 L218 809 Z M502 804 L76 -1 L39 -1 L464 804 L502 804 Z " />
<glyph glyph-name="twothirds" unicode="&#x2154;" horiz-adv-x="565" d="M479 311 L592 438 L423 438 L417 406 L525 406 L414 282 L445 282 C503 282 527 234 512 151 C498 73 462 31 436 31 C407 31 388 67 396 110 L365 110 C354 49 384 0 431 0 C482 0 527 62 543 151 C559 240 536 296 479 311 L479 311 Z M338 706 C346 763 316 809 268 809 C221 809 175 760 164 700 L195 700 C202 742 234 778 263 778 C294 778 312 745 305 706 C295 641 255 600 213 558 C168 514 122 467 109 388 L106 372 L277 372 L283 403 L144 403 C158 462 194 499 234 539 C278 583 324 629 338 706 L338 706 Z M582 804 L156 -1 L119 -1 L544 804 L582 804 Z " />
<glyph glyph-name="oneeighth" unicode="&#x215b;" horiz-adv-x="481" d="M231 810 L191 772 L210 750 L230 769 L160 372 L191 372 L268 810 L231 810 L231 810 Z M432 286 C453 300 470 325 475 353 C483 398 455 438 413 438 C371 438 329 398 321 353 C316 325 323 300 340 286 C313 271 294 246 289 216 L264 79 C257 35 286 0 329 0 L343 0 C386 0 427 35 434 79 L459 216 C464 246 453 271 432 286 L432 286 Z M407 406 C432 406 449 382 444 353 C439 324 413 300 388 300 C363 300 347 324 352 353 C357 382 382 406 407 406 L407 406 Z M403 79 C399 53 373 31 348 31 L334 31 C309 31 291 53 295 79 L320 216 C324 242 350 264 375 264 L389 264 C414 264 432 242 428 216 L403 79 L403 79 Z M502 804 L76 -1 L39 -1 L464 804 L502 804 Z " />
<glyph glyph-name="threeeighths" unicode="&#x215c;" horiz-adv-x="481" d="M468 286 C489 300 506 325 511 353 C519 398 491 438 449 438 C407 438 365 398 357 353 C352 325 359 300 376 286 C349 271 330 246 325 216 L300 79 C293 35 322 0 365 0 L379 0 C422 0 463 35 470 79 L495 216 C500 246 489 271 468 286 L468 286 Z M443 406 C468 406 485 382 480 353 C475 324 449 300 424 300 C399 300 383 324 388 353 C393 382 418 406 443 406 L443 406 Z M439 79 C435 53 409 31 384 31 L370 31 C345 31 327 53 331 79 L356 216 C360 242 386 264 411 264 L425 264 C450 264 468 242 464 216 L439 79 Z M256 680 L369 808 L200 808 L194 776 L302 776 L191 652 L222 652 C280 652 304 605 289 521 C276 443 239 402 213 402 C184 402 166 437 173 480 L142 480 C131 419 161 370 208 370 C259 370 305 432 320 521 C336 610 313 667 256 680 L256 680 Z M552 804 L126 -1 L89 -1 L514 804 L552 804 Z " />
<glyph glyph-name="fiveeighths" unicode="&#x215d;" horiz-adv-x="492" d="M456 286 C477 300 494 325 499 353 C507 398 479 438 437 438 C395 438 353 398 345 353 C340 325 347 300 364 286 C337 271 318 246 313 216 L288 79 C281 35 310 0 353 0 L367 0 C410 0 451 35 458 79 L483 216 C488 246 477 271 456 286 L456 286 Z M431 406 C456 406 473 382 468 353 C463 324 437 300 412 300 C387 300 371 324 376 353 C381 382 406 406 431 406 L431 406 Z M427 79 C423 53 397 31 372 31 L358 31 C333 31 315 53 319 79 L344 216 C348 242 374 264 399 264 L413 264 C438 264 456 242 452 216 L427 79 Z M278 671 C259 686 233 690 199 683 L215 776 L333 776 L339 808 L190 808 L160 640 L184 647 C217 658 241 658 255 646 C276 628 282 587 271 526 C261 469 239 401 192 401 C176 401 161 414 155 434 C150 448 149 463 152 479 L121 479 C117 458 119 438 124 420 C135 389 159 370 187 370 C215 370 239 383 258 407 C279 433 293 473 302 526 C315 599 307 648 278 671 L278 671 Z M552 804 L126 -1 L89 -1 L514 804 L552 804 Z " />
<glyph glyph-name="seveneighths" unicode="&#x215e;" horiz-adv-x="492" d="M456 286 C477 300 494 325 499 353 C507 398 479 438 437 438 C395 438 353 398 345 353 C340 325 347 300 364 286 C337 271 318 246 313 216 L288 79 C281 35 310 0 353 0 L367 0 C410 0 451 35 458 79 L483 216 C488 246 477 271 456 286 L456 286 Z M431 406 C456 406 473 382 468 353 C463 324 437 300 412 300 C387 300 371 324 376 353 C381 382 406 406 431 406 L431 406 Z M427 79 C423 53 397 31 372 31 L358 31 C333 31 315 53 319 79 L344 216 C348 242 374 264 399 264 L413 264 C438 264 456 242 452 216 L427 79 Z M378 810 L197 810 L192 778 L339 778 C296 720 199 578 163 372 L195 372 C233 588 345 740 373 778 L378 810 Z M545 804 L119 -1 L82 -1 L507 804 L545 804 Z " />
<glyph glyph-name="partialdiff" unicode="&#x2202;" horiz-adv-x="478" d="M455 784 C378 784 292 715 261 631 L292 631 C316 698 384 751 443 751 C503 751 532 698 508 631 L450 467 C437 500 405 522 362 522 C285 522 199 455 169 371 L107 197 C107 194 106 191 105 188 L105 188 C76 104 114 37 191 37 C268 37 354 104 383 188 L386 197 L448 371 L539 631 C570 715 532 784 455 784 L455 784 Z M354 197 C333 131 265 78 205 78 C146 78 117 131 138 197 L201 371 C225 437 292 491 351 491 C411 491 441 437 417 371 L354 197 L354 197 Z " />
<glyph glyph-name="product" unicode="&#x220f;" horiz-adv-x="466" d="M546 809 L530 809 L231 809 L208 809 L200 809 L58 2 L89 2 L226 778 L525 778 L388 2 L419 2 L561 809 L546 809 L546 809 Z " />
<glyph glyph-name="summation" unicode="&#x2211;" horiz-adv-x="438" d="M260 291 L40 1 L382 1 L388 29 L98 29 L296 291 L197 552 L487 552 L492 581 L150 581 L260 291 L260 291 Z " />
<glyph glyph-name="minus" unicode="&#x2212;" horiz-adv-x="539" d="M109 392 L485 392 L490 425 L114 425 L109 392 Z " />
<glyph glyph-name="radical" unicode="&#x221a;" horiz-adv-x="662" d="M240 349 L335 -26 L761 821 L733 830 L345 62 L262 394 L94 310 L104 282 L240 349 L240 349 Z " />
<glyph glyph-name="infinity" unicode="&#x221e;" horiz-adv-x="683" d="M610 497 C591 497 571 492 551 484 L398 424 C356 444 316 462 286 476 L271 484 C252 492 233 497 214 497 C163 497 121 461 111 407 C107 380 111 358 125 342 C137 326 158 318 184 318 C202 318 222 322 244 330 L392 390 C433 371 470 354 499 341 L522 330 C541 322 559 317 577 317 C577 317 577 317 577 317 C603 317 627 325 646 342 C665 358 678 380 682 407 C692 461 663 497 610 497 L610 497 Z M236 360 C219 353 203 349 189 349 C171 349 159 354 150 364 C142 374 139 389 142 407 C149 444 174 466 209 466 C224 466 238 462 253 455 L269 448 C292 436 324 422 355 407 L236 360 L236 360 Z M628 364 C616 354 601 349 583 349 C583 349 583 349 583 349 C570 349 555 353 541 359 L516 370 C494 380 466 392 436 407 L558 455 C574 462 591 466 605 466 C640 466 658 444 651 407 C648 389 639 374 628 364 L628 364 Z " />
<glyph glyph-name="integral" unicode="&#x222b;" horiz-adv-x="353" d="M226 607 L146 155 C133 84 83 35 46 35 L40 4 C68 4 99 20 126 48 C151 77 170 115 177 155 L257 607 C268 673 322 727 378 727 C399 727 418 719 431 703 L458 726 C438 748 411 758 383 758 C311 758 240 690 226 607 L226 607 Z " />
<glyph glyph-name="approxequal" unicode="&#x2248;" horiz-adv-x="486" d="M307 438 C330 422 353 406 387 406 C419 406 460 421 518 470 L499 493 C403 412 371 436 328 464 C285 496 235 532 115 430 L133 408 C231 491 267 467 307 438 L307 438 Z M104 240 C202 324 237 299 277 270 C300 254 323 238 357 238 C389 238 430 254 489 304 L470 325 C374 244 342 268 299 296 C256 329 206 364 86 263 L104 240 Z " />
<glyph glyph-name="notequal" unicode="&#x2260;" horiz-adv-x="356" d="M395 586 L368 599 L300 491 L126 491 L121 460 L280 460 L203 340 L99 340 L94 308 L184 308 L132 228 L158 215 L218 308 L398 308 L403 340 L238 340 L315 460 L425 460 L430 491 L334 491 L395 586 L395 586 Z " />
<glyph glyph-name="lessequal" unicode="&#x2264;" horiz-adv-x="366" d="M321 259 L239 451 L388 637 L365 654 L201 451 L291 244 L321 259 L321 259 Z M393 166 L69 166 L63 134 L387 134 L393 166 L393 166 Z " />
<glyph glyph-name="greaterequal" unicode="&#x2265;" horiz-adv-x="367" d="M172 259 L198 244 L360 451 L269 654 L239 637 L323 451 L172 259 Z M69 166 L63 134 L387 134 L393 166 L69 166 Z " />
<glyph glyph-name="lozenge" unicode="&#x25ca;" horiz-adv-x="390" d="M309 690 L290 690 L115 426 L196 157 L215 157 L392 420 L312 680 L309 690 L309 690 Z M215 209 L149 426 L291 638 L357 420 L215 209 L215 209 Z " />
<glyph glyph-name="fi" unicode="&#xfb01;" horiz-adv-x="448" d="M379 1 L410 1 L512 581 L481 581 L379 1 L379 1 Z M422 810 C348 810 278 738 262 649 L250 583 L157 583 L152 552 L245 552 L148 1 L180 1 L277 552 L373 552 L378 583 L282 583 L294 649 C307 721 361 779 417 779 C437 779 455 770 470 754 C492 728 500 690 493 649 L524 649 C533 700 522 745 496 776 C476 798 450 810 422 810 L422 810 Z " />
<glyph glyph-name="fl" unicode="&#xfb02;" horiz-adv-x="432" d="M419 810 C347 810 276 738 260 649 L248 583 L156 583 L151 552 L243 552 L146 1 L178 1 L275 552 L371 552 L376 583 L280 583 L292 649 C304 720 360 778 414 778 C436 778 454 769 468 752 C490 728 498 690 491 649 L377 1 L409 1 L523 649 C532 698 521 745 495 775 C475 798 449 810 419 810 L419 810 Z " />
</font>
</svg>
