<?xml version="1.0" encoding="UTF-8"?>
<svg xmlns="http://www.w3.org/2000/svg" xmlns:xlink="http://www.w3.org/1999/xlink" version="1.2" >
<font id="Maxwell Sans DemiBold">
<font-face  font-family="Maxwell Sans" units-per-em="1000" ascent="750" descent="-250" font-style="normal" font-weight="600" font-stretch="normal" cap-height="674" x-height="486" underline-position="-75" underline-thickness="50" />
<missing-glyph  horiz-adv-x="173" d="" />
<glyph glyph-name="space" unicode="&#x20;" horiz-adv-x="173" d="" />
<glyph glyph-name="exclam" unicode="&#x21;" horiz-adv-x="162" d="M31 161 L126 161 L126 820 L31 820 L31 161 L31 161 Z M31 1 L126 1 L126 90 L31 90 L31 1 L31 1 Z " />
<glyph glyph-name="quotedbl" unicode="&#x22;" horiz-adv-x="247" d="M143 683 L205 683 L215 815 L134 815 L143 683 L143 683 Z M41 683 L103 683 L112 815 L31 815 L41 683 L41 683 Z " />
<glyph glyph-name="numbersign" unicode="&#x23;" horiz-adv-x="598" d="M486 811 L391 811 L391 610 L215 610 L215 811 L120 811 L120 610 L31 610 L31 515 L120 515 L120 331 L31 331 L31 238 L120 238 L120 4 L215 4 L215 238 L391 238 L391 4 L486 4 L486 238 L556 238 L556 331 L486 331 L486 515 L556 515 L556 610 L486 610 L486 811 L486 811 Z M391 331 L215 331 L215 515 L391 515 L391 331 L391 331 Z " />
<glyph glyph-name="dollar" unicode="&#x24;" horiz-adv-x="438" d="M263 430 L263 702 C289 686 306 659 306 626 L401 626 C401 713 342 784 263 804 L263 886 L169 886 L169 804 C90 785 32 719 31 636 C31 521 101 449 169 388 L169 109 C144 126 127 154 127 186 L34 186 C34 100 91 29 169 7 L169 -70 L263 -70 L263 6 C347 23 398 86 401 178 C403 296 332 367 263 430 L263 430 Z M126 635 C126 665 143 690 169 703 L169 523 C142 556 126 590 126 635 L126 635 Z M306 179 C305 142 292 115 263 104 L263 296 C290 263 307 226 306 179 L306 179 Z " />
<glyph glyph-name="percent" unicode="&#x25;" horiz-adv-x="864" d="M358 533 L358 629 C358 730 284 811 196 811 C104 811 31 730 31 629 L31 533 C31 432 104 352 196 352 C284 352 358 432 358 533 L358 533 Z M262 533 C262 485 232 445 196 445 C158 445 126 485 126 533 L126 629 C126 677 158 716 196 716 C232 716 262 677 262 629 L262 533 L262 533 Z M670 463 C578 463 505 383 505 281 L505 186 C505 85 578 4 670 4 C758 4 832 85 832 186 L832 281 C832 383 758 463 670 463 L670 463 Z M737 186 C737 138 706 98 670 98 C632 98 600 138 600 186 L600 281 C600 328 632 368 670 368 C706 368 737 328 737 281 L737 186 L737 186 Z M527 811 L242 4 L337 4 L622 811 L527 811 L527 811 Z " />
<glyph glyph-name="ampersand" unicode="&#x26;" horiz-adv-x="551" d="M457 161 C474 236 487 355 487 450 L392 450 C392 397 386 332 379 276 C379 278 378 280 378 282 C329 366 294 431 269 484 C284 504 300 523 311 535 C319 546 326 554 331 560 C394 644 379 712 365 743 C347 786 307 818 262 824 C227 829 192 817 162 792 C126 761 103 712 103 661 C103 636 112 593 158 493 C89 400 31 295 31 197 C31 66 122 -4 214 -14 C278 -22 352 1 402 54 C446 -20 479 -71 480 -72 L559 -22 C559 -20 514 52 455 149 C456 154 457 157 457 161 L457 161 Z M224 721 C229 725 238 730 246 730 C247 730 248 730 250 730 C259 730 271 722 278 707 C288 683 278 650 254 616 C252 612 245 604 238 595 C234 590 229 584 223 580 C202 631 199 653 199 661 C199 683 209 707 224 721 L224 721 Z M223 80 C178 85 126 119 126 197 C126 258 163 332 205 397 C229 352 259 298 295 234 C313 203 331 170 349 142 C320 92 269 74 223 80 L223 80 Z " />
<glyph glyph-name="quotesingle" unicode="&#x27;" horiz-adv-x="144" d="M41 683 L103 683 L112 815 L31 815 L41 683 L41 683 Z " />
<glyph glyph-name="parenleft" unicode="&#x28;" horiz-adv-x="292" d="M256 868 C223 868 192 868 160 868 C31 580 31 236 160 -52 C192 -52 223 -52 256 -52 C126 236 126 580 256 868 L256 868 Z " />
<glyph glyph-name="parenright" unicode="&#x29;" horiz-adv-x="265" d="M31 868 C161 580 161 236 31 -52 C64 -52 95 -52 126 -52 C256 236 256 580 126 868 C95 868 64 868 31 868 L31 868 Z " />
<glyph glyph-name="asterisk" unicode="&#x2a;" horiz-adv-x="286" d="M227 782 L178 754 L178 811 L114 811 L114 754 L64 784 L31 730 L83 700 L32 670 L64 616 L114 643 L114 587 L178 587 L178 644 L227 617 L259 671 L209 700 L259 728 L227 782 L227 782 Z " />
<glyph glyph-name="plus" unicode="&#x2b;" horiz-adv-x="396" d="M241 493 L146 493 L146 379 L31 379 L31 286 L146 286 L146 169 L241 169 L241 286 L356 286 L356 379 L241 379 L241 493 L241 493 Z " />
<glyph glyph-name="comma" unicode="&#x2c;" horiz-adv-x="156" d="M120 83 L31 83 L31 1 L71 1 L71 1 C71 -37 44 -35 44 -35 L44 -67 C121 -67 120 1 120 1 L120 83 L120 83 Z " />
<glyph glyph-name="hyphen" unicode="&#x2d;" horiz-adv-x="380" d="M31 360 L337 360 L337 455 L31 455 L31 360 L31 360 Z " />
<glyph glyph-name="period" unicode="&#x2e;" horiz-adv-x="160" d="M31 1 L120 1 L120 90 L31 90 L31 1 L31 1 Z " />
<glyph glyph-name="slash" unicode="&#x2f;" horiz-adv-x="446" d="M31 4 L126 4 L410 811 L316 811 L31 4 L31 4 Z " />
<glyph glyph-name="zero" unicode="0" horiz-adv-x="484" d="M270 809 L214 809 C114 809 31 727 31 626 L31 182 C31 82 114 0 214 0 L270 0 C371 0 454 82 454 182 L454 626 C454 727 371 809 270 809 L270 809 Z M358 182 C358 133 318 94 270 94 L214 94 C166 94 126 133 126 182 L126 626 C126 674 166 714 214 714 L270 714 C318 714 358 674 358 626 L358 182 L358 182 Z " />
<glyph glyph-name="one" unicode="1" horiz-adv-x="281" d="M31 719 L100 650 L150 702 L150 -1 L245 -1 L245 809 L122 809 L31 719 L31 719 Z " />
<glyph glyph-name="two" unicode="2" horiz-adv-x="456" d="M408 606 C407 721 324 809 220 809 C116 809 31 713 31 595 L126 595 C126 661 168 714 220 714 C271 714 313 667 313 605 C314 499 254 436 186 362 C112 284 29 194 31 46 L32 -1 L391 -1 L391 94 L130 94 C142 178 196 233 256 298 C328 374 410 462 408 606 L408 606 Z " />
<glyph glyph-name="three" unicode="3" horiz-adv-x="468" d="M48 809 L48 714 L227 714 L49 493 L149 493 C199 493 239 479 266 448 C298 413 313 359 313 287 C313 161 264 92 220 92 C168 92 126 146 126 212 L31 212 C31 94 116 -2 220 -2 C275 -2 324 29 359 84 C391 136 408 205 408 287 C408 438 346 541 236 576 L425 809 L48 809 L48 809 Z " />
<glyph glyph-name="four" unicode="4" horiz-adv-x="517" d="M395 809 L299 809 L31 269 L299 269 L299 0 L395 0 L395 269 L481 269 L481 365 L395 365 L395 809 L395 809 Z M299 365 L184 365 L299 596 L299 365 L299 365 Z " />
<glyph glyph-name="five" unicode="5" horiz-adv-x="454" d="M311 564 C268 595 214 607 148 598 L148 714 L366 714 L366 809 L54 809 L54 473 L115 492 C178 511 223 510 256 487 C294 460 316 392 316 296 C316 198 296 150 280 127 C265 106 245 94 220 94 C190 94 161 113 144 144 C133 164 126 187 126 214 L31 214 C31 172 41 131 61 97 C96 36 156 -1 220 -1 C277 -1 325 25 359 73 C394 124 410 197 410 296 C410 425 377 517 311 564 L311 564 Z " />
<glyph glyph-name="six" unicode="6" horiz-adv-x="407" d="M203 714 C245 714 278 674 278 626 L373 626 C373 727 298 809 203 809 C108 809 31 727 31 626 L31 366 L31 191 L31 182 C31 82 108 -1 203 -1 C298 -1 373 82 373 182 L373 182 C373 186 373 187 373 191 L373 366 C373 466 298 548 203 548 C175 548 150 541 126 528 L126 626 C126 674 160 714 203 714 L203 714 Z M203 454 C245 454 278 414 278 366 L278 191 C278 143 245 103 203 103 C160 103 126 143 126 191 L126 366 C126 414 160 454 203 454 L203 454 Z " />
<glyph glyph-name="seven" unicode="7" horiz-adv-x="422" d="M31 809 L31 722 L271 722 C200 612 84 378 84 42 L84 -1 L169 -1 L169 42 C169 478 384 736 386 738 L386 809 L31 809 L31 809 Z " />
<glyph glyph-name="eight" unicode="8" horiz-adv-x="448" d="M337 518 C368 548 388 593 388 641 C388 733 312 809 220 809 C126 809 49 733 49 641 C49 593 70 548 102 518 C60 485 31 433 31 376 L31 182 C31 82 114 0 214 0 L223 0 C324 0 406 82 406 182 L406 376 C406 433 378 485 337 518 L337 518 Z M220 714 C260 714 294 682 294 641 C294 600 260 566 220 566 C178 566 144 600 144 641 C144 682 178 714 220 714 L220 714 Z M311 182 C311 133 272 94 223 94 L214 94 C166 94 126 133 126 182 L126 376 C126 424 166 463 214 463 L223 463 C272 463 311 424 311 376 L311 182 L311 182 Z " />
<glyph glyph-name="nine" unicode="9" horiz-adv-x="412" d="M205 809 C205 809 204 809 203 809 L203 809 L203 809 C108 809 31 727 31 626 L31 455 C31 355 108 272 203 272 C229 272 257 280 278 292 L278 182 C278 133 245 94 203 94 C160 94 126 133 126 182 L31 182 C31 82 108 -1 203 -1 C298 -1 373 82 373 182 L373 455 L373 625 L373 626 C373 726 299 808 205 809 L205 809 Z M278 455 C278 407 245 367 203 367 C160 367 126 407 126 455 L126 625 C126 674 160 714 203 714 C203 714 204 714 204 714 C245 714 278 674 278 625 L278 455 L278 455 Z " />
<glyph glyph-name="colon" unicode="&#x3a;" horiz-adv-x="162" d="M31 1 L120 1 L120 90 L31 90 L31 1 L31 1 Z M31 290 L120 290 L120 380 L31 380 L31 290 L31 290 Z " />
<glyph glyph-name="semicolon" unicode="&#x3b;" horiz-adv-x="163" d="M120 380 L31 380 L31 290 L120 290 L120 380 L120 380 Z M120 83 L31 83 L31 1 L71 1 L71 1 C71 -37 44 -35 44 -35 L44 -67 C121 -67 120 1 120 1 L120 83 L120 83 Z " />
<glyph glyph-name="less" unicode="&#x3c;" horiz-adv-x="373" d="M326 678 L246 728 L31 394 L234 65 L316 114 L142 392 L326 678 L326 678 Z " />
<glyph glyph-name="equal" unicode="&#x3d;" horiz-adv-x="380" d="M31 426 L337 426 L337 522 L31 522 L31 426 L31 426 Z M31 275 L337 275 L337 370 L31 370 L31 275 L31 275 Z " />
<glyph glyph-name="greater" unicode="&#x3e;" horiz-adv-x="373" d="M31 678 L216 392 L43 114 L125 65 L326 394 L112 728 L31 678 L31 678 Z " />
<glyph glyph-name="question" unicode="&#x3f;" horiz-adv-x="422" d="M115 1 L210 1 L210 90 L115 90 L115 1 L115 1 Z M203 817 C100 817 16 722 16 604 L110 604 C110 668 151 722 203 722 C254 722 296 674 298 614 C299 506 262 468 220 419 C168 364 113 301 116 152 L210 154 C208 265 244 305 289 355 C338 408 394 469 392 614 C390 728 308 817 203 817 L203 817 Z " />
<glyph glyph-name="at" unicode="&#x40;" horiz-adv-x="673" d="M631 398 C631 564 497 698 331 698 C166 698 31 564 31 398 L31 193 C31 29 166 -107 331 -107 L331 -12 C220 -12 126 80 126 193 L126 398 C126 511 220 604 331 604 C444 604 536 511 536 398 L536 193 L536 193 L536 155 C536 138 518 114 494 109 C490 108 484 109 480 113 C474 119 470 130 470 143 L470 227 L470 368 L470 539 L379 539 C362 547 343 552 324 552 C283 552 245 530 217 493 C193 460 180 415 180 368 L180 227 C180 180 193 137 217 103 C245 66 283 43 324 43 C350 43 374 52 396 67 C402 56 410 48 420 40 C440 24 464 14 490 14 C497 14 505 16 514 17 C578 29 631 91 631 155 L631 230 L631 230 L631 398 L631 398 Z M324 138 C300 138 275 176 275 227 L275 368 C275 420 300 457 324 457 C348 457 376 420 376 368 L376 227 C376 176 348 138 324 138 L324 138 Z " />
<glyph glyph-name="A" unicode="A" horiz-adv-x="498" d="M289 809 L208 809 L52 0 L148 0 L190 214 L308 214 L349 0 L446 0 L289 809 L289 809 Z M208 308 L248 522 L290 308 L208 308 L208 308 Z " />
<glyph glyph-name="B" unicode="B" horiz-adv-x="472" d="M340 491 C370 524 386 569 386 619 L386 635 C384 731 314 809 228 809 L70 809 L70 0 L240 0 C336 0 413 79 413 176 L413 347 C413 407 384 460 340 491 L340 491 Z M164 715 L228 715 C262 715 293 676 293 629 L293 616 C292 571 262 534 229 534 L164 534 L164 715 L164 715 Z M318 176 C318 131 283 94 240 94 L164 94 L164 428 L240 428 C283 428 318 391 318 347 L318 176 L318 176 Z " />
<glyph glyph-name="C" unicode="C" horiz-adv-x="476" d="M234 714 L244 714 C266 714 288 706 305 689 C316 678 324 665 328 650 L419 677 C410 707 395 734 371 756 C337 791 292 809 244 809 L234 809 C134 809 52 727 52 626 L52 182 C52 83 134 0 234 0 L244 0 C319 0 389 49 415 121 L325 152 C313 118 280 95 244 95 L234 95 C185 95 146 134 146 182 L146 626 C146 674 185 714 234 714 L234 714 Z " />
<glyph glyph-name="D" unicode="D" horiz-adv-x="488" d="M253 809 L71 809 L71 -1 L256 -1 C350 -1 427 78 427 175 L427 635 C427 731 349 809 253 809 L253 809 Z M334 175 C334 130 299 94 256 94 L166 94 L166 714 L253 714 C298 714 334 679 334 635 L334 175 L334 175 Z " />
<glyph glyph-name="E" unicode="E" horiz-adv-x="398" d="M52 0 L340 0 L340 94 L146 94 L146 323 L262 323 L262 418 L146 418 L146 714 L340 714 L340 809 L52 809 L52 0 L52 0 Z " />
<glyph glyph-name="F" unicode="F" horiz-adv-x="402" d="M70 0 L164 0 L164 323 L280 323 L280 418 L164 418 L164 714 L358 714 L358 809 L70 809 L70 0 L70 0 Z " />
<glyph glyph-name="G" unicode="G" horiz-adv-x="480" d="M221 324 L331 324 L331 182 C331 133 292 94 244 94 L234 94 C185 94 146 133 146 182 L146 626 C146 674 185 714 234 714 L244 714 C266 714 288 706 305 689 C316 678 324 665 328 650 L419 677 C410 707 395 734 371 756 C337 790 292 809 244 809 L234 809 C134 809 52 727 52 626 L52 182 C52 82 134 0 234 0 L244 0 C343 0 426 82 426 182 L426 418 L221 418 L221 324 L221 324 Z " />
<glyph glyph-name="H" unicode="H" horiz-adv-x="492" d="M336 418 L163 418 L163 809 L68 809 L68 0 L163 0 L163 323 L336 323 L336 0 L430 0 L430 809 L336 809 L336 418 L336 418 Z " />
<glyph glyph-name="I" unicode="I" horiz-adv-x="222" d="M64 0 L158 0 L158 809 L64 809 L64 0 L64 0 Z " />
<glyph glyph-name="J" unicode="J" horiz-adv-x="470" d="M323 187 C323 136 283 92 235 92 C186 92 146 136 146 187 L146 373 L52 373 L52 187 C52 83 134 -1 235 -1 C336 -1 418 83 418 187 L418 809 L323 809 L323 187 L323 187 Z " />
<glyph glyph-name="K" unicode="K" horiz-adv-x="498" d="M334 809 L143 509 L143 809 L52 809 L52 0 L143 0 L143 336 L191 413 L342 0 L440 0 L253 509 L442 809 L334 809 L334 809 Z " />
<glyph glyph-name="L" unicode="L" horiz-adv-x="398" d="M146 809 L52 809 L52 0 L340 0 L340 95 L146 95 L146 809 L146 809 Z " />
<glyph glyph-name="M" unicode="M" horiz-adv-x="581" d="M163 809 L71 809 L71 0 L166 0 L166 493 L253 227 L328 227 L418 502 L418 0 L511 0 L512 808 L512 809 L418 809 L290 418 L163 809 Z " />
<glyph glyph-name="N" unicode="N" horiz-adv-x="540" d="M173 809 L71 809 L71 809 L71 0 L166 0 L166 550 L368 0 L466 0 L466 809 L371 809 L371 266 L173 809 Z " />
<glyph glyph-name="O" unicode="O" horiz-adv-x="478" d="M244 809 L235 809 C134 809 52 726 52 625 L52 184 C52 84 134 0 234 0 L244 0 C343 0 426 84 426 184 L426 625 C426 726 344 809 244 809 L244 809 Z M331 184 C331 134 292 96 244 96 L234 96 C185 96 146 134 146 184 L146 625 C146 674 185 714 234 714 L244 714 C292 714 331 674 331 625 L331 184 L331 184 Z " />
<glyph glyph-name="P" unicode="P" horiz-adv-x="455" d="M236 809 L52 809 L52 808 L52 714 L52 380 L52 286 L52 0 L146 0 L146 286 L236 286 C331 286 407 365 407 462 L407 634 C407 730 331 809 236 809 L236 809 Z M313 462 C313 416 278 380 236 380 L146 380 L146 714 L236 714 C278 714 313 678 313 634 L313 462 L313 462 Z " />
<glyph glyph-name="Q" unicode="Q" horiz-adv-x="488" d="M426 182 L426 626 C426 727 343 809 244 809 L234 809 C134 809 52 727 52 626 L52 182 C52 82 134 0 234 0 L244 0 C276 0 306 8 331 23 L383 -29 L450 38 L400 89 C418 115 426 148 426 182 L426 182 Z M331 182 C331 175 330 168 329 161 L280 209 L214 142 L259 96 C253 95 248 94 244 94 L234 94 C185 94 146 133 146 182 L146 626 C146 674 185 714 234 714 L244 714 C292 714 331 674 331 626 L331 182 L331 182 Z " />
<glyph glyph-name="R" unicode="R" horiz-adv-x="484" d="M365 332 C398 365 420 410 420 462 L420 634 C420 730 344 809 250 809 L65 809 L65 0 L160 0 L160 287 L240 287 C289 287 329 247 329 198 L329 0 L424 0 L424 198 C424 251 401 299 365 332 L365 332 Z M326 462 C326 418 292 382 250 382 L160 382 L160 714 L250 714 C292 714 326 678 326 634 L326 462 L326 462 Z " />
<glyph glyph-name="S" unicode="S" horiz-adv-x="488" d="M268 444 C202 502 145 552 146 635 C146 679 186 714 236 714 C286 714 325 674 325 625 L420 625 C420 726 338 809 236 809 C134 809 53 732 52 635 C50 510 132 438 204 373 C270 313 328 264 325 179 C324 124 295 95 236 95 C188 95 148 134 148 185 L54 185 C54 84 136 0 236 0 C347 0 418 70 420 176 C424 305 340 378 268 444 L268 444 Z " />
<glyph glyph-name="T" unicode="T" horiz-adv-x="445" d="M52 714 L173 714 L173 0 L268 0 L268 714 L386 714 L386 809 L52 809 L52 714 L52 714 Z " />
<glyph glyph-name="U" unicode="U" horiz-adv-x="486" d="M331 184 C331 134 292 95 244 95 L234 95 C185 95 146 134 146 184 L146 809 L52 809 L52 184 C52 83 134 0 234 0 L244 0 C343 0 426 83 426 184 L426 809 L331 809 L331 184 L331 184 Z " />
<glyph glyph-name="V" unicode="V" horiz-adv-x="488" d="M148 809 L52 809 L209 0 L290 0 L446 809 L349 809 L250 288 L148 809 Z " />
<glyph glyph-name="W" unicode="W" horiz-adv-x="725" d="M462 364 L408 702 L324 702 L268 365 L247 233 C247 233 227 364 227 364 L149 809 L53 809 L206 0 L289 0 L365 409 L442 0 L523 0 L678 809 L582 809 L503 364 L482 233 L462 364 L462 364 Z " />
<glyph glyph-name="X" unicode="X" horiz-adv-x="506" d="M355 809 L253 524 L152 809 L52 809 L203 383 L66 0 L167 0 L253 242 L340 0 L440 0 L304 383 L456 809 L355 809 L355 809 Z " />
<glyph glyph-name="Y" unicode="Y" horiz-adv-x="505" d="M254 480 L150 809 L52 809 L209 312 L209 0 L302 0 L302 313 L456 809 L355 809 L254 480 L254 480 Z " />
<glyph glyph-name="Z" unicode="Z" horiz-adv-x="502" d="M84 809 L84 714 L308 714 L52 0 L419 0 L419 95 L186 95 L444 809 L84 809 Z " />
<glyph glyph-name="bracketleft" unicode="&#x5b;" horiz-adv-x="317" d="M283 763 L283 859 L31 859 L31 -43 L283 -43 L283 52 L126 52 L126 763 L283 763 L283 763 Z " />
<glyph glyph-name="backslash" unicode="&#x5c;" horiz-adv-x="462" d="M31 811 L316 4 L410 4 L126 811 L31 811 L31 811 Z " />
<glyph glyph-name="bracketright" unicode="&#x5d;" horiz-adv-x="320" d="M31 763 L190 763 L190 52 L31 52 L31 -43 L283 -43 L283 859 L31 859 L31 763 L31 763 Z " />
<glyph glyph-name="asciicircum" unicode="&#x5e;" horiz-adv-x="533" d="M31 701 L94 628 L258 768 L426 628 L487 702 L257 890 L31 701 L31 701 Z " />
<glyph glyph-name="underscore" unicode="&#x5f;" horiz-adv-x="551" d="M31 -94 L506 -94 L506 0 L31 0 L31 -94 L31 -94 Z " />
<glyph glyph-name="grave" unicode="&#x60;" horiz-adv-x="169" d="M31 794 L72 662 L134 662 L112 794 L31 794 L31 794 Z " />
<glyph glyph-name="a" unicode="a" horiz-adv-x="433" d="M244 583 L239 583 C162 581 103 521 103 448 L198 448 C198 469 217 486 241 488 C265 486 286 467 286 443 L286 388 C272 411 240 422 216 422 C125 422 52 341 52 240 L52 184 C52 83 125 0 216 0 C256 0 272 17 284 35 L284 0 L380 0 L380 443 C380 518 320 581 244 583 L244 583 L244 583 Z M282 164 C282 114 252 95 216 95 C178 95 146 134 146 184 L146 240 C146 287 178 328 216 328 C252 328 282 307 282 260 L282 164 L282 164 Z " />
<glyph glyph-name="b" unicode="b" horiz-adv-x="425" d="M212 583 C187 583 157 574 143 545 L143 809 L49 809 L49 0 L143 0 L143 37 C157 14 187 0 212 0 C301 0 374 83 374 184 L374 401 C374 502 301 583 212 583 L212 583 L212 583 Z M280 184 C280 134 248 95 212 95 C175 95 143 134 143 184 L143 401 C143 448 175 487 212 487 C248 487 280 448 280 401 L280 184 L280 184 Z " />
<glyph glyph-name="c" unicode="c" horiz-adv-x="405" d="M277 151 C268 118 243 95 215 95 C178 95 145 134 145 182 L145 401 C145 448 178 487 215 487 C243 487 269 463 278 429 L366 468 C342 536 283 583 215 583 C124 583 52 502 52 401 L52 182 C52 83 124 0 215 0 C282 0 340 47 364 112 L277 151 L277 151 Z " />
<glyph glyph-name="d" unicode="d" horiz-adv-x="446" d="M293 553 C276 573 247 583 222 583 C132 583 59 502 59 401 L59 184 C59 83 132 0 222 0 C247 0 279 14 293 39 L293 0 L388 0 L388 809 L293 809 L293 564 L293 553 Z M289 184 C289 134 259 95 222 95 C184 95 154 134 154 184 L154 401 C154 448 184 487 222 487 C259 487 289 448 289 401 L289 184 L289 184 Z " />
<glyph glyph-name="e" unicode="e" horiz-adv-x="433" d="M216 583 C126 583 53 502 53 400 L53 184 C53 83 126 0 216 0 C305 0 379 83 379 184 L283 184 C283 136 253 95 216 95 C179 95 148 136 148 184 L148 272 L379 272 L379 400 C379 502 305 583 216 583 L216 583 Z M283 367 L148 367 L148 400 C148 448 179 487 216 487 C253 487 283 448 283 400 L283 367 L283 367 Z " />
<glyph glyph-name="f" unicode="f" horiz-adv-x="364" d="M100 625 L100 583 L38 583 L38 487 L100 487 L100 0 L193 0 L193 487 L259 487 L259 583 L193 583 L193 625 C193 673 226 714 262 714 C278 714 292 706 300 698 L364 769 C335 794 299 809 262 809 C172 809 100 726 100 625 L100 625 Z " />
<glyph glyph-name="g" unicode="g" horiz-adv-x="438" d="M286 549 C269 571 242 583 218 583 C128 583 55 502 55 401 L55 181 C55 82 128 0 218 0 C242 0 264 6 286 16 L286 10 C286 -37 256 -78 218 -78 C202 -78 187 -70 180 -62 L116 -133 C145 -158 181 -173 218 -173 C307 -173 382 -91 382 10 L382 181 L382 401 L382 583 L286 583 L286 565 L286 549 Z M286 181 C286 134 256 94 218 94 C181 94 150 134 150 181 L150 401 C150 448 181 487 218 487 C256 487 286 448 286 401 L286 181 L286 181 Z " />
<glyph glyph-name="h" unicode="h" horiz-adv-x="438" d="M220 583 C194 583 172 577 150 565 L150 809 L56 809 L56 401 L56 0 L150 0 L150 401 C150 448 182 487 220 487 C256 487 287 448 287 401 L287 0 L382 0 L382 401 C382 502 308 583 220 583 L220 583 Z " />
<glyph glyph-name="i" unicode="i" horiz-adv-x="206" d="M55 0 L150 0 L150 583 L55 583 L55 0 L55 0 Z M55 626 L150 626 L150 724 L55 724 L55 626 L55 626 Z " />
<glyph glyph-name="j" unicode="j" horiz-adv-x="227" d="M67 626 L162 626 L162 724 L67 724 L67 626 L67 626 Z M67 10 C67 -37 36 -78 -2 -78 C-19 -78 -31 -70 -40 -62 L-102 -133 C-74 -158 -38 -173 -2 -173 C89 -173 162 -91 162 10 L162 583 L67 583 L67 10 L67 10 Z " />
<glyph glyph-name="k" unicode="k" horiz-adv-x="434" d="M310 583 L140 371 L140 809 L48 809 L48 0 L140 0 L140 224 L200 304 L312 0 L409 0 L268 388 L418 583 L310 583 L310 583 Z " />
<glyph glyph-name="l" unicode="l" horiz-adv-x="204" d="M54 0 L149 0 L149 809 L54 809 L54 0 L54 0 Z " />
<glyph glyph-name="m" unicode="m" horiz-adv-x="652" d="M440 583 C396 583 354 563 325 528 C295 563 264 583 220 583 C195 583 163 575 142 545 L142 583 L47 583 L47 401 L47 48 L47 0 L142 0 L142 48 L142 401 C142 448 173 487 210 487 C247 487 277 448 277 401 L277 0 L373 0 L373 48 L373 48 L373 401 C373 448 404 487 440 487 C478 487 509 448 509 401 L509 0 L604 0 L604 401 C604 502 532 583 440 583 L440 583 Z " />
<glyph glyph-name="n" unicode="n" horiz-adv-x="431" d="M221 583 C196 583 161 570 146 545 L146 583 L52 583 L52 401 L52 42 L52 0 L146 0 L146 42 L146 401 C146 448 178 487 215 487 C252 487 282 448 282 401 L282 0 L378 0 L378 401 C378 502 310 583 221 583 L221 583 Z " />
<glyph glyph-name="o" unicode="o" horiz-adv-x="428" d="M215 583 C124 583 52 502 52 401 L52 182 C52 83 124 0 215 0 C304 0 377 83 377 182 L377 401 C377 502 304 583 215 583 L215 583 Z M282 182 C282 134 251 95 215 95 C178 95 145 134 145 182 L145 401 C145 448 178 487 215 487 C251 487 282 448 282 401 L282 182 Z " />
<glyph glyph-name="p" unicode="p" horiz-adv-x="431" d="M228 583 C203 583 167 579 146 544 L146 583 L52 583 L52 -170 L146 -170 L146 18 C167 7 192 0 217 0 C307 0 379 83 379 182 L379 401 C379 502 309 583 228 583 L228 583 Z M284 182 C284 134 254 95 217 95 C180 95 150 134 150 182 L150 401 C150 448 180 488 217 488 C254 488 284 448 284 401 L284 182 L284 182 Z " />
<glyph glyph-name="q" unicode="q" horiz-adv-x="446" d="M376 -61 L376 583 L281 583 L281 544 C258 576 225 583 201 583 C123 583 48 502 48 401 L48 182 C48 83 120 0 211 0 C235 0 260 7 281 18 L281 -61 C281 -126 332 -178 397 -178 L397 -83 C386 -83 376 -73 376 -61 L376 -61 Z M277 182 C277 134 247 95 211 95 C173 95 143 134 143 182 L143 401 C143 448 173 487 211 487 C247 487 277 448 277 401 L277 182 L277 182 Z " />
<glyph glyph-name="r" unicode="r" horiz-adv-x="336" d="M215 583 C190 583 156 578 140 550 L140 583 L46 583 L46 401 L46 0 L140 0 L140 401 C140 448 172 487 209 487 C227 487 246 478 258 460 L335 515 C305 558 264 583 215 583 L215 583 Z " />
<glyph glyph-name="s" unicode="s" horiz-adv-x="377" d="M218 330 C166 374 131 403 132 446 C132 469 158 487 191 487 C212 487 233 478 242 462 L325 508 C298 554 247 583 191 583 C107 583 38 524 37 449 C36 355 106 301 161 257 C215 212 248 185 247 138 C247 126 247 95 191 95 C167 95 145 108 137 126 L50 88 C73 35 128 0 191 0 C280 0 341 53 343 134 C346 232 275 287 218 330 L218 330 Z " />
<glyph glyph-name="t" unicode="t" horiz-adv-x="344" d="M232 95 C214 95 188 131 188 184 L188 488 L299 488 L299 583 L188 583 L188 722 L92 722 L92 583 L36 583 L36 488 L92 488 L92 184 C92 82 154 0 232 0 C274 0 312 24 338 65 L259 115 C251 103 241 95 232 95 L232 95 Z " />
<glyph glyph-name="u" unicode="u" horiz-adv-x="421" d="M278 184 C278 136 247 95 211 95 C174 95 143 136 143 184 L143 583 L48 583 L48 184 C48 83 121 0 211 0 C235 0 258 7 278 17 L278 0 L373 0 L373 184 L373 583 L278 583 L278 184 Z " />
<glyph glyph-name="v" unicode="v" horiz-adv-x="418" d="M272 583 L209 272 L144 583 L48 583 L168 0 L250 0 L368 583 L272 583 L272 583 Z " />
<glyph glyph-name="w" unicode="w" horiz-adv-x="611" d="M422 306 L407 182 L391 306 L341 583 L264 583 L212 306 L198 182 L182 307 L133 583 L37 583 L162 0 L234 0 L302 377 L371 0 L443 0 L569 583 L473 583 L422 306 L422 306 Z " />
<glyph glyph-name="x" unicode="x" horiz-adv-x="437" d="M306 583 L216 390 L125 583 L20 583 L163 283 L28 0 L131 0 L216 175 L301 0 L407 0 L268 283 L410 583 L306 583 L306 583 Z " />
<glyph glyph-name="y" unicode="y" horiz-adv-x="415" d="M278 182 C278 134 247 94 211 94 C174 94 144 134 144 182 L144 583 L48 583 L48 182 C48 82 121 0 211 0 C235 0 258 6 278 17 L278 11 C278 -36 247 -77 211 -77 C193 -77 181 -68 173 -61 L109 -132 C138 -157 175 -172 211 -172 C301 -172 373 -90 373 11 L373 583 L278 583 L278 182 Z " />
<glyph glyph-name="z" unicode="z" horiz-adv-x="421" d="M62 583 L62 488 L230 488 L31 0 L347 0 L347 95 L173 95 L372 583 L62 583 Z " />
<glyph glyph-name="braceleft" unicode="&#x7b;" horiz-adv-x="320" d="M78 493 C48 475 31 446 31 414 C31 383 49 354 80 335 C100 323 120 278 120 240 L120 145 C120 66 166 4 226 4 L283 4 L283 97 L229 97 C224 102 215 118 215 145 L215 240 C215 307 180 383 132 414 C131 414 130 414 130 415 C130 415 130 415 130 415 C175 446 211 522 211 589 L211 668 C211 695 221 712 226 716 L283 716 L283 810 L222 810 C163 810 116 748 116 668 L116 589 C116 551 95 505 78 493 L78 493 Z " />
<glyph glyph-name="bar" unicode="&#x7c;" horiz-adv-x="163" d="M31 -70 L126 -70 L126 886 L31 886 L31 -70 L31 -70 Z " />
<glyph glyph-name="braceright" unicode="&#x7d;" horiz-adv-x="320" d="M238 493 C221 505 199 551 199 589 L199 668 C199 748 151 810 92 810 L31 810 L31 716 L89 716 C95 712 103 695 103 668 L103 589 C103 522 140 446 185 415 C185 415 185 415 185 415 C185 414 184 414 182 414 C136 383 101 307 101 240 L101 145 C101 118 90 102 86 97 L31 97 L31 4 L89 4 C149 4 194 66 194 145 L194 240 C194 278 216 323 235 335 C265 354 283 383 283 414 C283 446 268 475 238 493 L238 493 Z " />
<glyph glyph-name="asciitilde" unicode="&#x7e;" horiz-adv-x="510" d="M328 264 C328 264 328 264 329 264 C376 264 420 287 473 338 L406 406 C383 384 353 359 328 358 C312 358 295 367 276 380 C250 397 217 416 174 416 C174 416 174 416 174 416 C127 416 82 392 31 343 L100 276 C120 296 150 323 174 323 C174 323 174 323 174 323 C190 323 205 312 226 300 C252 283 284 264 328 264 L328 264 Z " />
<glyph glyph-name="exclamdown" unicode="&#xa1;" horiz-adv-x="162" d="M126 462 L31 462 L31 -197 L126 -197 L126 462 Z M126 622 L31 622 L31 533 L126 533 L126 622 Z " />
<glyph glyph-name="cent" unicode="&#xa2;" horiz-adv-x="388" d="M239 612 C245 605 251 598 253 590 L342 619 C335 643 320 665 300 683 C278 702 253 714 222 720 L222 782 L143 782 L143 716 C79 700 31 643 31 578 L31 260 C31 193 79 138 143 122 L143 55 L222 55 L222 119 C276 128 319 162 340 209 L252 245 C246 233 236 223 222 217 L222 622 C229 619 234 616 239 612 L239 612 Z M126 260 L126 578 C126 592 134 604 143 612 L143 226 C134 234 126 247 126 260 L126 260 Z " />
<glyph glyph-name="sterling" unicode="&#xa3;" horiz-adv-x="494" d="M358 118 C349 100 338 92 318 92 C277 92 221 91 172 91 C181 116 188 146 188 178 L188 286 L308 286 L308 379 L188 379 L188 630 C188 678 220 719 257 719 C275 719 287 710 295 702 L358 774 C330 800 293 814 257 814 C167 814 95 731 95 630 L95 379 L31 379 L31 286 L95 286 L95 178 C95 122 64 90 48 89 C47 89 46 89 46 89 L47 -5 C48 -5 48 -5 49 -5 C72 -5 230 -2 318 -2 C422 -2 460 90 460 152 L365 152 C365 152 365 134 358 118 L358 118 Z " />
<glyph glyph-name="currency" unicode="&#xa4;" horiz-adv-x="446" d="M325 588 L288 518 C269 532 245 540 221 540 C197 540 174 532 152 518 L116 588 L31 544 L89 434 C80 410 76 384 76 358 L76 214 C76 186 80 161 89 136 L31 26 L116 -18 L152 52 C174 38 197 31 221 31 C245 31 269 38 288 52 L325 -18 L409 26 L352 136 C361 161 365 186 365 214 L365 358 C365 384 361 410 352 434 L409 544 L325 588 L325 588 Z M221 126 C198 126 170 163 170 214 L170 358 C170 407 198 445 221 445 C245 445 271 407 271 358 L271 214 C271 163 245 126 221 126 L221 126 Z " />
<glyph glyph-name="yen" unicode="&#xa5;" horiz-adv-x="481" d="M442 810 L342 810 L242 484 L139 810 L40 810 L160 426 L102 426 L102 332 L190 332 L193 323 L193 310 L102 310 L102 215 L193 215 L193 1 L288 1 L288 215 L379 215 L379 310 L288 310 L295 332 L379 332 L379 426 L324 426 L442 810 L442 810 Z " />
<glyph glyph-name="brokenbar" unicode="&#xa6;" horiz-adv-x="185" d="M31 462 L126 462 L126 778 L31 778 L31 462 L31 462 Z M31 80 L126 80 L126 395 L31 395 L31 80 L31 80 Z " />
<glyph glyph-name="section" unicode="&#xa7;" horiz-adv-x="592" d="M396 478 C331 533 276 580 276 653 C276 694 316 725 366 725 C416 725 456 690 456 644 L551 644 C551 742 468 821 366 821 C263 821 181 746 181 654 C181 622 187 592 198 565 C103 557 32 487 31 401 C31 282 112 212 184 152 C250 97 307 49 305 -28 C302 -77 274 -103 216 -103 C167 -103 127 -67 127 -23 L34 -23 C34 -119 115 -198 216 -198 C324 -198 397 -131 398 -30 C400 2 395 30 385 56 C484 65 547 128 551 224 C553 346 469 416 396 478 L396 478 Z M456 227 C455 176 425 150 366 150 C342 150 319 160 301 175 L301 175 C283 193 264 209 245 224 C181 280 126 326 126 400 C126 440 166 472 216 472 C241 472 270 462 286 446 L286 446 C301 433 318 420 335 406 C401 350 457 304 456 227 L456 227 Z " />
<glyph glyph-name="dieresis" unicode="&#xa8;" horiz-adv-x="304" d="M174 661 L260 661 L260 750 L174 750 L174 661 L174 661 Z M31 661 L120 661 L120 750 L31 750 L31 661 L31 661 Z " />
<glyph glyph-name="copyright" unicode="&#xa9;" horiz-adv-x="635" d="M331 628 C349 628 368 618 380 599 L458 654 C427 698 380 722 331 722 C241 722 168 642 168 540 L168 322 C168 222 241 139 331 139 C379 139 426 163 457 206 L379 263 C367 245 349 234 331 234 C294 234 263 274 263 322 L263 540 C263 588 294 628 331 628 L331 628 Z M314 856 C158 856 31 721 31 556 L31 307 C31 143 158 8 314 8 C468 8 595 143 595 307 L595 556 C595 721 468 856 314 856 L314 856 Z M499 307 C499 193 418 102 314 102 C210 102 126 193 126 307 L126 556 C126 667 210 761 314 761 C418 761 499 667 499 556 L499 307 L499 307 Z " />
<glyph glyph-name="ordfeminine" unicode="&#xaa;" horiz-adv-x="250" d="M125 790 L122 790 C79 788 46 755 46 714 L99 714 C99 726 110 735 123 736 C136 735 148 725 148 711 L148 681 C140 693 122 700 109 700 C58 700 17 654 17 598 L17 567 C17 510 58 464 109 464 C131 464 140 473 147 484 L147 464 L201 464 L201 711 C201 753 167 788 125 790 L125 790 L125 790 Z M146 556 C146 528 129 517 109 517 C88 517 70 539 70 567 L70 598 C70 624 88 647 109 647 C129 647 146 635 146 609 L146 556 L146 556 Z " />
<glyph glyph-name="guillemotleft" unicode="&#xab;" horiz-adv-x="443" d="M169 613 L31 394 L168 169 L250 218 L142 392 L250 564 L169 613 Z M328 613 L190 394 L326 169 L408 218 L300 392 L408 564 L328 613 Z " />
<glyph glyph-name="logicalnot" unicode="&#xac;" horiz-adv-x="628" d="M31 313 L497 313 L497 190 L592 190 L592 408 L31 408 L31 313 L31 313 Z " />
<glyph glyph-name="uni00AD" unicode="&#xad;" horiz-adv-x="373" d="M31 360 L337 360 L337 455 L31 455 L31 360 Z " />
<glyph glyph-name="registered" unicode="&#xae;" horiz-adv-x="568" d="M332 830 L236 830 C124 830 31 738 31 625 L31 280 C31 166 124 73 236 73 L332 73 C446 73 538 166 538 280 L538 625 C538 738 446 830 332 830 L332 830 Z M443 280 C443 217 395 168 332 168 L236 168 C176 168 126 217 126 280 L126 625 C126 686 176 737 236 737 L332 737 C395 737 443 686 443 625 L443 280 L443 280 Z M377 406 C394 426 402 452 402 481 L402 576 C402 642 352 695 287 695 L166 695 L166 694 L166 600 L166 457 L166 364 L166 223 L259 223 L259 364 L280 364 C294 364 310 343 310 318 L310 226 L404 226 L404 318 C404 352 395 383 377 406 L377 406 Z M308 481 C308 468 299 457 287 457 L259 457 L259 600 L287 600 C299 600 308 588 308 576 L308 481 L308 481 Z " />
<glyph glyph-name="macron" unicode="&#xaf;" horiz-adv-x="402" d="M31 622 L337 622 L337 716 L31 716 L31 622 Z " />
<glyph glyph-name="degree" unicode="&#xb0;" horiz-adv-x="241" d="M208 724 C208 773 168 812 120 812 C71 812 31 773 31 724 C31 676 71 636 120 636 C168 636 208 676 208 724 L208 724 Z M120 698 C106 698 95 710 95 724 C95 738 106 749 120 749 C134 749 145 738 145 724 C145 710 134 698 120 698 L120 698 Z " />
<glyph glyph-name="plusminus" unicode="&#xb1;" horiz-adv-x="392" d="M31 102 L356 102 L356 196 L31 196 L31 102 L31 102 Z M241 557 L146 557 L146 443 L31 443 L31 347 L146 347 L146 233 L241 233 L241 347 L356 347 L356 443 L241 443 L241 557 L241 557 Z " />
<glyph glyph-name="twosuperior" unicode="&#xb2;" horiz-adv-x="260" d="M230 701 C229 764 185 815 127 815 C72 815 26 760 26 695 L90 695 C90 725 107 752 127 752 C149 752 167 728 167 701 C168 647 138 614 106 577 C67 535 25 488 26 408 L28 377 L214 377 L214 440 L92 440 C101 478 125 505 152 535 C188 576 230 623 230 701 L230 701 Z " />
<glyph glyph-name="threesuperior" unicode="&#xb3;" horiz-adv-x="258" d="M48 809 L48 746 L122 746 L34 630 L97 630 C146 630 172 595 172 528 C172 463 148 434 132 434 C112 434 94 460 94 490 L31 490 C31 425 77 371 132 371 C163 371 191 389 209 420 C226 448 234 485 234 528 C234 606 205 660 154 682 L251 809 L48 809 Z " />
<glyph glyph-name="acute" unicode="&#xb4;" horiz-adv-x="170" d="M31 662 L95 662 L134 794 L55 794 L31 662 L31 662 Z " />
<glyph glyph-name="&amp;#xb5;" unicode="&#xb5;" horiz-adv-x="392" d="M262 542 L262 180 C262 132 232 92 196 92 C158 92 126 132 126 180 L126 582 L126 582 L31 582 L31 582 L31 180 L31 -130 L126 -130 L126 14 C148 4 170 -2 196 -2 C220 -2 241 4 262 14 L262 -2 L358 -2 L358 180 L358 542 L358 582 L262 582 L262 542 L262 542 Z " />
<glyph glyph-name="&amp;#x3bc;" unicode="&#x3bc;" horiz-adv-x="392" d="M262 542 L262 180 C262 132 232 92 196 92 C158 92 126 132 126 180 L126 582 L126 582 L31 582 L31 582 L31 180 L31 -130 L126 -130 L126 14 C148 4 170 -2 196 -2 C220 -2 241 4 262 14 L262 -2 L358 -2 L358 180 L358 542 L358 582 L262 582 L262 542 L262 542 Z " />
<glyph glyph-name="paragraph" unicode="&#xb6;" horiz-adv-x="556" d="M203 805 C109 805 31 726 31 629 L31 458 C31 361 109 282 203 282 L293 282 L293 -5 L386 -5 L386 709 L426 709 L426 -5 L520 -5 L520 804 L203 805 Z " />
<glyph glyph-name="periodcentered" unicode="&#xb7;" horiz-adv-x="170" d="M84 476 C55 476 31 452 31 422 C31 394 55 370 84 370 C113 370 137 394 137 422 C137 452 113 476 84 476 L84 476 Z " />
<glyph glyph-name="cedilla" unicode="&#xb8;" horiz-adv-x="206" d="M126 49 L31 49 C31 -2 55 -30 68 -49 C71 -50 71 -52 73 -53 C66 -56 55 -60 37 -60 L37 -154 C116 -154 170 -114 170 -54 C170 -24 154 -4 142 11 C133 25 126 31 126 49 L126 49 Z " />
<glyph glyph-name="onesuperior" unicode="&#xb9;" horiz-adv-x="221" d="M80 812 L32 762 L78 719 L104 746 L104 374 L167 374 L167 812 L80 812 Z " />
<glyph glyph-name="ordmasculine" unicode="&#xba;" horiz-adv-x="391" d="M196 617 C104 617 31 534 31 434 L31 215 C31 114 104 32 196 32 C284 32 358 114 358 215 L358 434 C358 534 284 617 196 617 L196 617 Z M262 215 C262 168 232 128 196 128 C158 128 126 168 126 215 L126 434 C126 482 158 522 196 522 C232 522 262 482 262 434 L262 215 L262 215 Z " />
<glyph glyph-name="guillemotright" unicode="&#xbb;" horiz-adv-x="449" d="M190 564 L298 392 L190 218 L271 169 L408 394 L270 613 L190 564 Z M31 564 L139 392 L31 218 L113 169 L250 394 L112 613 L31 564 Z " />
<glyph glyph-name="onequarter" unicode="&#xbc;" horiz-adv-x="556" d="M80 812 L32 762 L78 719 L104 746 L104 374 L167 374 L167 812 L80 812 Z M473 437 L407 437 L274 140 L409 140 L409 -1 L473 -1 L473 140 L509 140 L509 203 L473 203 L473 437 Z M409 203 L371 203 L409 288 L409 203 Z M62 4 L157 4 L441 811 L347 811 L62 4 L62 4 Z " />
<glyph glyph-name="onehalf" unicode="&#xbd;" horiz-adv-x="574" d="M80 812 L32 762 L78 719 L104 746 L104 374 L167 374 L167 812 L80 812 Z M520 324 C518 388 474 438 416 438 C361 438 316 383 316 318 L379 318 C379 348 396 376 416 376 C438 376 456 352 456 324 C457 270 427 238 395 200 C356 158 314 112 316 31 L317 0 L503 0 L503 64 L382 64 C390 101 414 128 442 158 C478 199 520 246 520 324 L520 324 Z M49 4 L144 4 L428 811 L334 811 L49 4 L49 4 Z " />
<glyph glyph-name="threequarters" unicode="&#xbe;" horiz-adv-x="553" d="M48 809 L48 746 L122 746 L34 630 L97 630 C146 630 172 595 172 528 C172 463 148 434 132 434 C112 434 94 460 94 490 L31 490 C31 425 77 371 132 371 C163 371 191 389 209 420 C226 448 234 485 234 528 C234 606 205 660 154 682 L251 809 L48 809 Z M497 437 L431 437 L298 140 L433 140 L433 -1 L497 -1 L497 140 L533 140 L533 203 L497 203 L497 437 Z M433 203 L395 203 L433 288 L433 203 Z M90 4 L185 4 L469 811 L375 811 L90 4 L90 4 Z " />
<glyph glyph-name="questiondown" unicode="&#xbf;" horiz-adv-x="422" d="M293 650 L198 650 L198 562 L293 562 L293 650 L293 650 Z M205 -167 C308 -167 394 -70 394 49 L299 49 C299 -18 257 -71 205 -71 C154 -71 112 -24 110 36 C110 145 145 184 190 233 C239 288 295 350 292 499 L198 498 C199 385 164 346 119 296 C71 242 16 181 16 36 C18 -77 101 -167 205 -167 L205 -167 Z " />
<glyph glyph-name="Agrave" unicode="&#xc0;" horiz-adv-x="458" d="M270 809 L189 809 L33 0 L129 0 L171 214 L289 214 L330 0 L427 0 L270 809 L270 809 Z M189 308 L229 522 L271 308 L189 308 L189 308 Z M177 1018 L218 886 L280 886 L258 1018 L177 1018 L177 1018 Z " />
<glyph glyph-name="Aacute" unicode="&#xc1;" horiz-adv-x="458" d="M270 809 L189 809 L33 0 L129 0 L171 214 L289 214 L330 0 L427 0 L270 809 L270 809 Z M189 308 L229 522 L271 308 L189 308 L189 308 Z M177 886 L241 886 L280 1018 L201 1018 L177 886 L177 886 Z " />
<glyph glyph-name="Acircumflex" unicode="&#xc2;" horiz-adv-x="458" d="M270 809 L189 809 L33 0 L129 0 L171 214 L289 214 L330 0 L427 0 L270 809 L270 809 Z M189 308 L229 522 L271 308 L189 308 L189 308 Z M50 834 L111 762 L225 862 L345 762 L406 835 L225 983 L50 834 Z " />
<glyph glyph-name="Atilde" unicode="&#xc3;" horiz-adv-x="458" d="M270 809 L189 809 L33 0 L129 0 L171 214 L289 214 L330 0 L427 0 L270 809 L270 809 Z M189 308 L229 522 L271 308 L189 308 L189 308 Z M307 952 C293 952 276 962 255 975 C230 991 197 1011 152 1011 C105 1011 60 986 8 936 L77 868 C97 891 128 916 153 916 C153 916 153 916 155 916 C169 916 186 907 206 895 C231 878 264 858 307 858 C307 858 307 858 308 858 C355 859 398 882 450 931 L383 999 C361 978 331 952 307 952 L307 952 Z " />
<glyph glyph-name="Adieresis" unicode="&#xc4;" horiz-adv-x="458" d="M270 809 L189 809 L33 0 L129 0 L171 214 L289 214 L330 0 L427 0 L270 809 L270 809 Z M189 308 L229 522 L271 308 L189 308 L189 308 Z M257 885 L343 885 L343 974 L257 974 L257 885 L257 885 Z M114 885 L203 885 L203 974 L114 974 L114 885 L114 885 Z " />
<glyph glyph-name="Aring" unicode="&#xc5;" horiz-adv-x="458" d="M270 809 L189 809 L33 0 L129 0 L171 214 L289 214 L330 0 L427 0 L270 809 L270 809 Z M189 308 L229 522 L271 308 L189 308 L189 308 Z M316 886 C316 935 276 975 228 975 C179 975 139 935 139 886 C139 838 179 798 228 798 C276 798 316 838 316 886 L316 886 Z M228 861 C214 861 203 873 203 886 C203 900 214 911 228 911 C242 911 253 900 253 886 C253 873 242 861 228 861 L228 861 Z " />
<glyph glyph-name="AE" unicode="&#xc6;" horiz-adv-x="629" d="M602 714 L602 809 L390 809 L316 809 L308 809 L10 0 L104 0 L184 214 L304 214 L307 0 L316 0 L403 0 L602 0 L602 94 L410 94 L410 323 L526 323 L526 418 L410 418 L410 714 L602 714 L602 714 Z M220 308 L299 522 L301 308 L220 308 L220 308 Z " />
<glyph glyph-name="Ccedilla" unicode="&#xc7;" horiz-adv-x="437" d="M215 714 L225 714 C247 714 269 706 286 689 C297 678 305 665 309 650 L400 677 C391 707 376 734 352 756 C318 791 273 809 225 809 L215 809 C115 809 33 727 33 626 L33 182 C33 83 115 0 215 0 L225 0 C300 0 370 49 396 121 L306 152 C294 118 261 95 225 95 L215 95 C166 95 127 134 127 182 L127 626 C127 674 166 714 215 714 L215 714 Z M253 19 L158 19 C158 -32 182 -60 195 -79 C198 -80 198 -82 200 -83 C193 -86 182 -90 164 -90 L164 -184 C243 -184 297 -144 297 -84 C297 -54 281 -34 269 -19 C260 -5 253 1 253 19 L253 19 Z " />
<glyph glyph-name="Egrave" unicode="&#xc8;" horiz-adv-x="359" d="M33 0 L321 0 L321 94 L127 94 L127 323 L243 323 L243 418 L127 418 L127 714 L321 714 L321 809 L33 809 L33 0 L33 0 Z M127 1018 L168 886 L230 886 L208 1018 L127 1018 L127 1018 Z " />
<glyph glyph-name="Eacute" unicode="&#xc9;" horiz-adv-x="359" d="M33 0 L321 0 L321 94 L127 94 L127 323 L243 323 L243 418 L127 418 L127 714 L321 714 L321 809 L33 809 L33 0 L33 0 Z M127 886 L191 886 L230 1018 L151 1018 L127 886 L127 886 Z " />
<glyph glyph-name="Ecircumflex" unicode="&#xca;" horiz-adv-x="359" d="M33 0 L321 0 L321 94 L127 94 L127 323 L243 323 L243 418 L127 418 L127 714 L321 714 L321 809 L33 809 L33 0 L33 0 Z M2 915 L63 843 L177 943 L297 843 L358 916 L177 1064 L2 915 Z " />
<glyph glyph-name="Edieresis" unicode="&#xcb;" horiz-adv-x="359" d="M33 0 L321 0 L321 94 L127 94 L127 323 L243 323 L243 418 L127 418 L127 714 L321 714 L321 809 L33 809 L33 0 L33 0 Z M206 885 L292 885 L292 974 L206 974 L206 885 L206 885 Z M63 885 L152 885 L152 974 L63 974 L63 885 L63 885 Z " />
<glyph glyph-name="Igrave" unicode="&#xcc;" horiz-adv-x="169" d="M45 0 L139 0 L139 809 L45 809 L45 0 L45 0 Z M32 1018 L73 886 L135 886 L113 1018 L32 1018 L32 1018 Z " />
<glyph glyph-name="Iacute" unicode="&#xcd;" horiz-adv-x="169" d="M45 0 L139 0 L139 809 L45 809 L45 0 L45 0 Z M32 886 L96 886 L135 1018 L56 1018 L32 886 L32 886 Z " />
<glyph glyph-name="Icircumflex" unicode="&#xce;" horiz-adv-x="169" d="M45 0 L139 0 L139 809 L45 809 L45 0 L45 0 Z M-94 915 L-33 843 L81 943 L201 843 L262 916 L81 1064 L-94 915 Z " />
<glyph glyph-name="Idieresis" unicode="&#xcf;" horiz-adv-x="169" d="M45 0 L139 0 L139 809 L45 809 L45 0 L45 0 Z M112 885 L198 885 L198 974 L112 974 L112 885 L112 885 Z M-31 885 L58 885 L58 974 L-31 974 L-31 885 L-31 885 Z " />
<glyph glyph-name="Eth" unicode="&#xd0;" horiz-adv-x="463" d="M253 809 L167 809 L167 809 L72 809 L72 443 L38 443 L38 347 L72 347 L72 -1 L83 -1 L257 -1 C352 -1 428 78 428 175 L428 635 C428 731 350 809 253 809 L253 809 Z M335 175 C335 130 299 94 257 94 L167 94 L167 347 L244 347 L244 443 L167 443 L167 714 L253 714 C299 714 335 679 335 635 L335 175 L335 175 Z " />
<glyph glyph-name="Ntilde" unicode="&#xd1;" horiz-adv-x="454" d="M154 809 L52 809 L52 809 L52 0 L147 0 L147 550 L349 0 L447 0 L447 809 L352 809 L352 266 L154 809 Z M305 952 C291 952 274 962 253 975 C228 991 195 1011 150 1011 C103 1011 58 986 6 936 L75 868 C95 891 126 916 151 916 C151 916 151 916 153 916 C167 916 184 907 204 895 C229 878 262 858 305 858 C305 858 305 858 306 858 C353 859 396 882 448 931 L381 999 C359 978 329 952 305 952 L305 952 Z " />
<glyph glyph-name="Ograve" unicode="&#xd2;" horiz-adv-x="438" d="M225 809 L216 809 C115 809 33 726 33 625 L33 184 C33 84 115 0 215 0 L225 0 C324 0 407 84 407 184 L407 625 C407 726 325 809 225 809 L225 809 Z M312 184 C312 134 273 96 225 96 L215 96 C166 96 127 134 127 184 L127 625 C127 674 166 714 215 714 L225 714 C273 714 312 674 312 625 L312 184 L312 184 Z M167 1018 L208 886 L270 886 L248 1018 L167 1018 L167 1018 Z " />
<glyph glyph-name="Oacute" unicode="&#xd3;" horiz-adv-x="438" d="M225 809 L216 809 C115 809 33 726 33 625 L33 184 C33 84 115 0 215 0 L225 0 C324 0 407 84 407 184 L407 625 C407 726 325 809 225 809 L225 809 Z M312 184 C312 134 273 96 225 96 L215 96 C166 96 127 134 127 184 L127 625 C127 674 166 714 215 714 L225 714 C273 714 312 674 312 625 L312 184 L312 184 Z M167 866 L231 866 L270 998 L191 998 L167 866 L167 866 Z " />
<glyph glyph-name="Ocircumflex" unicode="&#xd4;" horiz-adv-x="438" d="M225 809 L216 809 C115 809 33 726 33 625 L33 184 C33 84 115 0 215 0 L225 0 C324 0 407 84 407 184 L407 625 C407 726 325 809 225 809 L225 809 Z M312 184 C312 134 273 96 225 96 L215 96 C166 96 127 134 127 184 L127 625 C127 674 166 714 215 714 L225 714 C273 714 312 674 312 625 L312 184 L312 184 Z M41 915 L102 843 L216 943 L336 843 L397 916 L216 1064 L41 915 Z " />
<glyph glyph-name="Otilde" unicode="&#xd5;" horiz-adv-x="438" d="M225 809 L216 809 C115 809 33 726 33 625 L33 184 C33 84 115 0 215 0 L225 0 C324 0 407 84 407 184 L407 625 C407 726 325 809 225 809 L225 809 Z M312 184 C312 134 273 96 225 96 L215 96 C166 96 127 134 127 184 L127 625 C127 674 166 714 215 714 L225 714 C273 714 312 674 312 625 L312 184 L312 184 Z M298 952 C284 952 267 962 246 975 C221 991 188 1011 143 1011 C96 1011 51 986 -1 936 L68 868 C88 891 119 916 144 916 C144 916 144 916 146 916 C160 916 177 907 197 895 C222 878 255 858 298 858 C298 858 298 858 299 858 C346 859 389 882 441 931 L374 999 C352 978 322 952 298 952 L298 952 Z " />
<glyph glyph-name="Odieresis" unicode="&#xd6;" horiz-adv-x="438" d="M251 845 L338 845 L338 935 L251 935 L251 845 Z M109 845 L198 845 L198 935 L109 935 L109 845 Z M225 809 L216 809 C115 809 33 726 33 625 L33 184 C33 84 115 0 215 0 L225 0 C324 0 407 84 407 184 L407 625 C407 726 325 809 225 809 L225 809 Z M312 184 C312 134 273 96 225 96 L215 96 C166 96 127 134 127 184 L127 625 C127 674 166 714 215 714 L225 714 C273 714 312 674 312 625 L312 184 L312 184 Z " />
<glyph glyph-name="multiply" unicode="&#xd7;" horiz-adv-x="365" d="M260 480 L180 398 L100 480 L31 413 L113 331 L31 250 L100 185 L180 265 L260 185 L328 250 L246 331 L328 413 L260 480 L260 480 Z " />
<glyph glyph-name="Oslash" unicode="&#xd8;" horiz-adv-x="452" d="M329 853 L308 788 C283 802 254 810 223 810 L214 810 C114 810 31 728 31 628 L31 185 C31 138 49 95 79 62 L47 -36 L138 -65 L160 10 C178 5 197 2 214 2 L223 2 C324 2 406 83 406 185 L406 628 C406 659 397 689 384 714 L419 824 L329 853 L329 853 Z M126 628 C126 676 166 715 214 715 L223 715 C245 715 263 707 278 696 L126 215 L126 628 L126 628 Z M311 185 C311 136 272 96 223 96 L214 96 C205 96 198 98 190 100 L311 485 L311 185 L311 185 Z " />
<glyph glyph-name="Ugrave" unicode="&#xd9;" horiz-adv-x="446" d="M312 184 C312 134 273 95 225 95 L215 95 C166 95 127 134 127 184 L127 809 L33 809 L33 184 C33 83 115 0 215 0 L225 0 C324 0 407 83 407 184 L407 809 L312 809 L312 184 L312 184 Z M170 1018 L211 886 L273 886 L251 1018 L170 1018 L170 1018 Z " />
<glyph glyph-name="Uacute" unicode="&#xda;" horiz-adv-x="446" d="M312 184 C312 134 273 95 225 95 L215 95 C166 95 127 134 127 184 L127 809 L33 809 L33 184 C33 83 115 0 215 0 L225 0 C324 0 407 83 407 184 L407 809 L312 809 L312 184 L312 184 Z M170 886 L234 886 L273 1018 L194 1018 L170 886 L170 886 Z " />
<glyph glyph-name="Ucircumflex" unicode="&#xdb;" horiz-adv-x="446" d="M312 184 C312 134 273 95 225 95 L215 95 C166 95 127 134 127 184 L127 809 L33 809 L33 184 C33 83 115 0 215 0 L225 0 C324 0 407 83 407 184 L407 809 L312 809 L312 184 L312 184 Z M44 915 L105 843 L219 943 L339 843 L400 916 L219 1064 L44 915 Z " />
<glyph glyph-name="Udieresis" unicode="&#xdc;" horiz-adv-x="446" d="M312 184 C312 134 273 95 225 95 L215 95 C166 95 127 134 127 184 L127 809 L33 809 L33 184 C33 83 115 0 215 0 L225 0 C324 0 407 83 407 184 L407 809 L312 809 L312 184 L312 184 Z M250 885 L336 885 L336 974 L250 974 L250 885 L250 885 Z M107 885 L196 885 L196 974 L107 974 L107 885 L107 885 Z " />
<glyph glyph-name="Yacute" unicode="&#xdd;" horiz-adv-x="466" d="M235 480 L131 809 L33 809 L190 312 L190 0 L283 0 L283 313 L437 809 L336 809 L235 480 L235 480 Z M180 886 L244 886 L283 1018 L204 1018 L180 886 L180 886 Z " />
<glyph glyph-name="Thorn" unicode="&#xde;" horiz-adv-x="390" d="M198 702 C173 702 148 696 126 683 L126 811 L31 811 L31 -122 L126 -122 L126 137 C148 126 173 119 198 119 C287 119 360 202 360 301 L360 520 C360 619 287 702 198 702 L198 702 Z M265 301 C265 253 235 214 198 214 C160 214 130 253 130 301 L130 520 C130 566 160 607 198 607 C235 607 265 566 265 520 L265 301 Z " />
<glyph glyph-name="germandbls" unicode="&#xdf;" horiz-adv-x="468" d="M342 485 C336 490 329 496 322 500 C353 527 378 565 384 619 C397 732 346 787 313 810 C259 848 182 852 121 821 C64 791 31 738 31 673 L31 -5 L126 -5 L126 673 C126 708 148 727 166 737 C196 752 233 750 259 733 C292 709 294 665 290 631 C284 596 268 571 236 554 C209 540 182 536 181 536 C180 535 180 535 180 535 L190 442 C191 442 191 442 192 443 C199 443 245 445 281 413 C317 380 335 324 335 245 C335 176 322 128 296 103 C269 76 224 77 190 78 C184 79 179 79 173 79 L173 -16 C176 -16 181 -16 188 -16 C194 -16 202 -17 210 -17 C254 -17 316 -11 362 36 C407 79 430 148 430 245 C430 353 400 433 342 485 L342 485 Z " />
<glyph glyph-name="agrave" unicode="&#xe0;" horiz-adv-x="400" d="M224 583 L219 583 C142 581 83 521 83 448 L178 448 C178 469 197 486 221 488 C245 486 266 467 266 443 L266 388 C252 411 220 422 196 422 C105 422 32 341 32 240 L32 184 C32 83 105 0 196 0 C236 0 252 17 264 35 L264 0 L360 0 L360 443 C360 518 300 581 224 583 L224 583 L224 583 Z M262 164 C262 114 232 95 196 95 C158 95 126 134 126 184 L126 240 C126 287 158 328 196 328 C232 328 262 307 262 260 L262 164 L262 164 Z M147 794 L188 662 L250 662 L228 794 L147 794 L147 794 Z " />
<glyph glyph-name="aacute" unicode="&#xe1;" horiz-adv-x="400" d="M224 583 L219 583 C142 581 83 521 83 448 L178 448 C178 469 197 486 221 488 C245 486 266 467 266 443 L266 388 C252 411 220 422 196 422 C105 422 32 341 32 240 L32 184 C32 83 105 0 196 0 C236 0 252 17 264 35 L264 0 L360 0 L360 443 C360 518 300 581 224 583 L224 583 L224 583 Z M262 164 C262 114 232 95 196 95 C158 95 126 134 126 184 L126 240 C126 287 158 328 196 328 C232 328 262 307 262 260 L262 164 L262 164 Z M197 662 L261 662 L300 794 L221 794 L197 662 L197 662 Z " />
<glyph glyph-name="acircumflex" unicode="&#xe2;" horiz-adv-x="400" d="M224 583 L219 583 C142 581 83 521 83 448 L178 448 C178 469 197 486 221 488 C245 486 266 467 266 443 L266 388 C252 411 220 422 196 422 C105 422 32 341 32 240 L32 184 C32 83 105 0 196 0 C236 0 252 17 264 35 L264 0 L360 0 L360 443 C360 518 300 581 224 583 L224 583 L224 583 Z M262 164 C262 114 232 95 196 95 C158 95 126 134 126 184 L126 240 C126 287 158 328 196 328 C232 328 262 307 262 260 L262 164 L262 164 Z M22 691 L83 619 L197 719 L317 619 L378 692 L197 840 L22 691 Z " />
<glyph glyph-name="atilde" unicode="&#xe3;" horiz-adv-x="400" d="M224 583 L219 583 C142 581 83 521 83 448 L178 448 C178 469 197 486 221 488 C245 486 266 467 266 443 L266 388 C252 411 220 422 196 422 C105 422 32 341 32 240 L32 184 C32 83 105 0 196 0 C236 0 252 17 264 35 L264 0 L360 0 L360 443 C360 518 300 581 224 583 L224 583 L224 583 Z M262 164 C262 114 232 95 196 95 C158 95 126 134 126 184 L126 240 C126 287 158 328 196 328 C232 328 262 307 262 260 L262 164 L262 164 Z M276 708 C265 708 251 715 235 726 C216 738 190 753 155 753 C119 753 84 734 43 695 L97 643 C112 660 136 680 156 680 C156 680 156 680 157 680 C168 680 182 673 197 663 C216 650 242 635 276 635 C276 635 276 635 276 635 C313 636 346 653 387 691 L335 744 C318 728 294 708 276 708 L276 708 Z " />
<glyph glyph-name="adieresis" unicode="&#xe4;" horiz-adv-x="400" d="M224 583 L219 583 C142 581 83 521 83 448 L178 448 C178 469 197 486 221 488 C245 486 266 467 266 443 L266 388 C252 411 220 422 196 422 C105 422 32 341 32 240 L32 184 C32 83 105 0 196 0 C236 0 252 17 264 35 L264 0 L360 0 L360 443 C360 518 300 581 224 583 L224 583 L224 583 Z M262 164 C262 114 232 95 196 95 C158 95 126 134 126 184 L126 240 C126 287 158 328 196 328 C232 328 262 307 262 260 L262 164 L262 164 Z M227 661 L313 661 L313 750 L227 750 L227 661 L227 661 Z M84 661 L173 661 L173 750 L84 750 L84 661 L84 661 Z " />
<glyph glyph-name="aring" unicode="&#xe5;" horiz-adv-x="400" d="M224 583 L219 583 C142 581 83 521 83 448 L178 448 C178 469 197 486 221 488 C245 486 266 467 266 443 L266 388 C252 411 220 422 196 422 C105 422 32 341 32 240 L32 184 C32 83 105 0 196 0 C236 0 252 17 264 35 L264 0 L360 0 L360 443 C360 518 300 581 224 583 L224 583 L224 583 Z M262 164 C262 114 232 95 196 95 C158 95 126 134 126 184 L126 240 C126 287 158 328 196 328 C232 328 262 307 262 260 L262 164 L262 164 Z M316 725 C316 774 276 814 228 814 C179 814 139 774 139 725 C139 677 179 637 228 637 C276 637 316 677 316 725 L316 725 Z M228 700 C214 700 203 712 203 725 C203 739 214 750 228 750 C242 750 253 739 253 725 C253 712 242 700 228 700 L228 700 Z " />
<glyph glyph-name="ae" unicode="&#xe6;" horiz-adv-x="619" d="M589 272 L589 400 C589 502 516 583 426 583 C386 583 349 566 322 540 C298 564 262 582 223 583 L220 583 L220 583 C142 581 82 521 82 448 L178 448 C178 469 198 486 221 488 C245 486 265 467 265 443 L265 428 C264 421 263 413 263 406 C242 415 220 422 196 422 C104 422 31 341 31 240 L31 184 C31 83 104 0 196 0 C220 0 244 7 264 18 L264 -1 L359 -1 L359 14 C379 5 402 -1 426 -1 C516 -1 589 82 589 182 L494 182 C494 134 463 94 426 94 C395 94 366 125 359 166 L360 272 L589 272 L589 272 Z M426 487 C463 487 494 448 494 400 L494 367 L360 367 L360 421 C367 460 395 487 426 487 L426 487 Z M262 184 C262 134 232 95 196 95 C158 95 126 134 126 184 L126 240 C126 287 158 328 196 328 C232 328 262 287 262 240 L262 184 L262 184 Z " />
<glyph glyph-name="ccedilla" unicode="&#xe7;" horiz-adv-x="352" d="M263 151 C254 118 229 95 201 95 C164 95 131 134 131 182 L131 401 C131 448 164 487 201 487 C229 487 255 463 264 429 L352 468 C328 536 269 583 201 583 C110 583 38 502 38 401 L38 182 C38 83 110 0 201 0 C268 0 326 47 350 112 L263 151 L263 151 Z M234 19 L139 19 C139 -32 163 -60 176 -79 C179 -80 179 -82 181 -83 C174 -86 163 -90 145 -90 L145 -184 C224 -184 278 -144 278 -84 C278 -54 262 -34 250 -19 C241 -5 234 1 234 19 L234 19 Z " />
<glyph glyph-name="egrave" unicode="&#xe8;" horiz-adv-x="391" d="M196 583 C106 583 33 502 33 400 L33 184 C33 83 106 0 196 0 C285 0 359 83 359 184 L263 184 C263 136 233 95 196 95 C159 95 128 136 128 184 L128 272 L359 272 L359 400 C359 502 285 583 196 583 L196 583 Z M263 367 L128 367 L128 400 C128 448 159 487 196 487 C233 487 263 448 263 400 L263 367 L263 367 Z M143 794 L184 662 L246 662 L224 794 L143 794 L143 794 Z " />
<glyph glyph-name="eacute" unicode="&#xe9;" horiz-adv-x="391" d="M196 583 C106 583 33 502 33 400 L33 184 C33 83 106 0 196 0 C285 0 359 83 359 184 L263 184 C263 136 233 95 196 95 C159 95 128 136 128 184 L128 272 L359 272 L359 400 C359 502 285 583 196 583 L196 583 Z M263 367 L128 367 L128 400 C128 448 159 487 196 487 C233 487 263 448 263 400 L263 367 L263 367 Z M143 662 L207 662 L246 794 L167 794 L143 662 L143 662 Z " />
<glyph glyph-name="ecircumflex" unicode="&#xea;" horiz-adv-x="391" d="M196 583 C106 583 33 502 33 400 L33 184 C33 83 106 0 196 0 C285 0 359 83 359 184 L263 184 C263 136 233 95 196 95 C159 95 128 136 128 184 L128 272 L359 272 L359 400 C359 502 285 583 196 583 L196 583 Z M263 367 L128 367 L128 400 C128 448 159 487 196 487 C233 487 263 448 263 400 L263 367 L263 367 Z M18 691 L79 619 L193 719 L313 619 L374 692 L193 840 L18 691 Z " />
<glyph glyph-name="edieresis" unicode="&#xeb;" horiz-adv-x="391" d="M196 583 C106 583 33 502 33 400 L33 184 C33 83 106 0 196 0 C285 0 359 83 359 184 L263 184 C263 136 233 95 196 95 C159 95 128 136 128 184 L128 272 L359 272 L359 400 C359 502 285 583 196 583 L196 583 Z M263 367 L128 367 L128 400 C128 448 159 487 196 487 C233 487 263 448 263 400 L263 367 L263 367 Z M223 661 L309 661 L309 750 L223 750 L223 661 L223 661 Z M80 661 L169 661 L169 750 L80 750 L80 661 L80 661 Z " />
<glyph glyph-name="igrave" unicode="&#xec;" horiz-adv-x="220" d="M65 0 L160 0 L160 583 L65 583 L65 0 Z M38 794 L79 662 L141 662 L119 794 L38 794 L38 794 Z " />
<glyph glyph-name="iacute" unicode="&#xed;" horiz-adv-x="220" d="M65 0 L160 0 L160 583 L65 583 L65 0 Z M84 662 L148 662 L187 794 L108 794 L84 662 L84 662 Z " />
<glyph glyph-name="icircumflex" unicode="&#xee;" horiz-adv-x="220" d="M65 0 L160 0 L160 583 L65 583 L65 0 Z M-61 728 L0 656 L114 756 L234 656 L295 729 L114 877 L-61 728 Z " />
<glyph glyph-name="idieresis" unicode="&#xef;" horiz-adv-x="212" d="M65 0 L160 0 L160 583 L65 583 L65 0 Z M150 661 L236 661 L236 750 L150 750 L150 661 L150 661 Z M7 661 L96 661 L96 750 L7 750 L7 661 L7 661 Z " />
<glyph glyph-name="eth" unicode="&#xf0;" horiz-adv-x="402" d="M248 808 L248 880 L154 880 L154 806 C83 784 31 714 31 631 L126 631 C126 659 137 683 154 698 L154 629 L248 629 L248 702 C266 685 278 660 278 631 L278 533 C257 546 229 553 203 553 C108 553 31 470 31 370 L31 196 C31 193 31 190 31 187 L31 187 C31 86 108 4 203 4 C298 4 373 86 373 187 L373 196 L373 370 L373 631 C373 715 320 786 248 808 L248 808 Z M126 370 C126 419 160 458 203 458 C245 458 278 419 278 370 L278 196 C278 148 245 108 203 108 C160 108 126 148 126 196 L126 370 L126 370 Z " />
<glyph glyph-name="ntilde" unicode="&#xf1;" horiz-adv-x="396" d="M202 583 C177 583 142 570 127 545 L127 583 L33 583 L33 401 L33 42 L33 0 L127 0 L127 42 L127 401 C127 448 159 487 196 487 C233 487 263 448 263 401 L263 0 L359 0 L359 401 C359 502 291 583 202 583 L202 583 Z M277 728 C263 728 246 738 225 751 C200 767 167 787 122 787 C75 787 30 762 -22 712 L47 644 C67 667 98 692 123 692 C123 692 123 692 125 692 C139 692 156 683 176 671 C201 654 234 634 277 634 C277 634 277 634 278 634 C325 635 368 658 420 707 L353 775 C331 754 301 728 277 728 L277 728 Z " />
<glyph glyph-name="ograve" unicode="&#xf2;" horiz-adv-x="391" d="M196 583 C105 583 33 502 33 401 L33 182 C33 83 105 0 196 0 C285 0 358 83 358 182 L358 401 C358 502 285 583 196 583 L196 583 Z M263 182 C263 134 232 95 196 95 C159 95 126 134 126 182 L126 401 C126 448 159 487 196 487 C232 487 263 448 263 401 L263 182 Z M143 794 L184 662 L246 662 L224 794 L143 794 L143 794 Z " />
<glyph glyph-name="oacute" unicode="&#xf3;" horiz-adv-x="391" d="M196 583 C105 583 33 502 33 401 L33 182 C33 83 105 0 196 0 C285 0 358 83 358 182 L358 401 C358 502 285 583 196 583 L196 583 Z M263 182 C263 134 232 95 196 95 C159 95 126 134 126 182 L126 401 C126 448 159 487 196 487 C232 487 263 448 263 401 L263 182 Z M143 662 L207 662 L246 794 L167 794 L143 662 L143 662 Z " />
<glyph glyph-name="ocircumflex" unicode="&#xf4;" horiz-adv-x="391" d="M196 583 C105 583 33 502 33 401 L33 182 C33 83 105 0 196 0 C285 0 358 83 358 182 L358 401 C358 502 285 583 196 583 L196 583 Z M263 182 C263 134 232 95 196 95 C159 95 126 134 126 182 L126 401 C126 448 159 487 196 487 C232 487 263 448 263 401 L263 182 Z M18 691 L79 619 L193 719 L313 619 L374 692 L193 840 L18 691 Z " />
<glyph glyph-name="otilde" unicode="&#xf5;" horiz-adv-x="391" d="M196 583 C105 583 33 502 33 401 L33 182 C33 83 105 0 196 0 C285 0 358 83 358 182 L358 401 C358 502 285 583 196 583 L196 583 Z M263 182 C263 134 232 95 196 95 C159 95 126 134 126 182 L126 401 C126 448 159 487 196 487 C232 487 263 448 263 401 L263 182 Z M274 728 C260 728 243 738 222 751 C197 767 164 787 119 787 C72 787 27 762 -25 712 L44 644 C64 667 95 692 120 692 C120 692 120 692 122 692 C136 692 153 683 173 671 C198 654 231 634 274 634 C274 634 274 634 275 634 C322 635 365 658 417 707 L350 775 C328 754 298 728 274 728 L274 728 Z " />
<glyph glyph-name="odieresis" unicode="&#xf6;" horiz-adv-x="391" d="M196 583 C105 583 33 502 33 401 L33 182 C33 83 105 0 196 0 C285 0 358 83 358 182 L358 401 C358 502 285 583 196 583 L196 583 Z M263 182 C263 134 232 95 196 95 C159 95 126 134 126 182 L126 401 C126 448 159 487 196 487 C232 487 263 448 263 401 L263 182 Z M223 661 L309 661 L309 750 L223 750 L223 661 L223 661 Z M80 661 L169 661 L169 750 L80 750 L80 661 L80 661 Z " />
<glyph glyph-name="divide" unicode="&#xf7;" horiz-adv-x="396" d="M194 425 C222 425 246 448 246 478 C246 506 222 530 194 530 C164 530 142 506 142 478 C142 448 164 425 194 425 L194 425 Z M194 240 C164 240 142 217 142 187 C142 158 164 134 194 134 C222 134 246 158 246 187 C246 217 222 240 194 240 L194 240 Z M31 286 L356 286 L356 380 L31 380 L31 286 L31 286 Z " />
<glyph glyph-name="oslash" unicode="&#xf8;" horiz-adv-x="390" d="M338 610 L246 638 L229 581 C218 583 205 584 196 584 C104 584 31 503 31 402 L31 184 C31 140 44 101 66 70 L34 -34 L124 -62 L146 10 C161 4 179 1 196 1 C284 1 358 83 358 184 L358 402 C358 451 340 496 312 528 L338 610 L338 610 Z M126 402 C126 449 158 490 196 490 C197 490 198 490 199 490 L126 258 L126 402 L126 402 Z M262 184 C262 136 232 95 196 95 C188 95 181 97 175 98 L262 374 L262 184 L262 184 Z " />
<glyph glyph-name="ugrave" unicode="&#xf9;" horiz-adv-x="391" d="M276 184 C276 136 245 95 209 95 C172 95 141 136 141 184 L141 583 L46 583 L46 184 C46 83 119 0 209 0 C233 0 256 7 276 17 L276 0 L371 0 L371 184 L371 583 L276 583 L276 184 Z M143 794 L184 662 L246 662 L224 794 L143 794 L143 794 Z " />
<glyph glyph-name="uacute" unicode="&#xfa;" horiz-adv-x="391" d="M276 184 C276 136 245 95 209 95 C172 95 141 136 141 184 L141 583 L46 583 L46 184 C46 83 119 0 209 0 C233 0 256 7 276 17 L276 0 L371 0 L371 184 L371 583 L276 583 L276 184 Z M143 662 L207 662 L246 794 L167 794 L143 662 L143 662 Z " />
<glyph glyph-name="ucircumflex" unicode="&#xfb;" horiz-adv-x="391" d="M276 184 C276 136 245 95 209 95 C172 95 141 136 141 184 L141 583 L46 583 L46 184 C46 83 119 0 209 0 C233 0 256 7 276 17 L276 0 L371 0 L371 184 L371 583 L276 583 L276 184 Z M18 691 L79 619 L193 719 L313 619 L374 692 L193 840 L18 691 Z " />
<glyph glyph-name="udieresis" unicode="&#xfc;" horiz-adv-x="391" d="M276 184 C276 136 245 95 209 95 C172 95 141 136 141 184 L141 583 L46 583 L46 184 C46 83 119 0 209 0 C233 0 256 7 276 17 L276 0 L371 0 L371 184 L371 583 L276 583 L276 184 Z M223 661 L309 661 L309 750 L223 750 L223 661 L223 661 Z M80 661 L169 661 L169 750 L80 750 L80 661 L80 661 Z " />
<glyph glyph-name="yacute" unicode="&#xfd;" horiz-adv-x="398" d="M261 182 C261 134 230 94 194 94 C157 94 127 134 127 182 L127 583 L31 583 L31 182 C31 82 104 0 194 0 C218 0 241 6 261 17 L261 11 C261 -36 230 -77 194 -77 C176 -77 164 -68 156 -61 L92 -132 C121 -157 158 -172 194 -172 C284 -172 356 -90 356 11 L356 583 L261 583 L261 182 Z M146 662 L210 662 L249 794 L170 794 L146 662 L146 662 Z " />
<glyph glyph-name="thorn" unicode="&#xfe;" horiz-adv-x="406" d="M198 583 C173 583 148 577 126 564 L126 713 L31 713 L31 -170 L126 -170 L126 18 C148 7 173 0 198 0 C287 0 360 83 360 182 L360 401 C360 502 287 583 198 583 L198 583 Z M265 182 C265 134 235 95 198 95 C160 95 130 134 130 182 L130 401 C130 448 160 488 198 488 C235 488 265 448 265 401 L265 182 Z " />
<glyph glyph-name="ydieresis" unicode="&#xff;" horiz-adv-x="398" d="M261 182 C261 134 230 94 194 94 C157 94 127 134 127 182 L127 583 L31 583 L31 182 C31 82 104 0 194 0 C218 0 241 6 261 17 L261 11 C261 -36 230 -77 194 -77 C176 -77 164 -68 156 -61 L92 -132 C121 -157 158 -172 194 -172 C284 -172 356 -90 356 11 L356 583 L261 583 L261 182 Z M226 661 L312 661 L312 750 L226 750 L226 661 L226 661 Z M83 661 L172 661 L172 750 L83 750 L83 661 L83 661 Z " />
<glyph glyph-name="Amacron" unicode="&#x100;" horiz-adv-x="458" d="M270 809 L189 809 L33 0 L129 0 L171 214 L289 214 L330 0 L427 0 L270 809 L270 809 Z M189 308 L229 522 L271 308 L189 308 L189 308 Z M228 981 L116 1028 L79 940 L228 878 L379 944 L341 1030 L228 981 L228 981 Z " />
<glyph glyph-name="amacron" unicode="&#x101;" horiz-adv-x="400" d="M220 738 L108 785 L71 697 L220 635 L371 700 L332 786 L220 738 Z M224 583 L219 583 C142 581 83 521 83 448 L178 448 C178 469 197 486 221 488 C245 486 266 467 266 443 L266 388 C252 411 220 422 196 422 C105 422 32 341 32 240 L32 184 C32 83 105 0 196 0 C236 0 252 17 264 35 L264 0 L360 0 L360 443 C360 518 300 581 224 583 L224 583 L224 583 Z M262 164 C262 114 232 95 196 95 C158 95 126 134 126 184 L126 240 C126 287 158 328 196 328 C232 328 262 307 262 260 L262 164 L262 164 Z " />
<glyph glyph-name="Abreve" unicode="&#x102;" horiz-adv-x="458" d="M270 809 L189 809 L33 0 L129 0 L171 214 L289 214 L330 0 L427 0 L270 809 L270 809 Z M189 308 L229 522 L271 308 L189 308 L189 308 Z M231 948 C193 948 161 987 161 1035 L66 1035 C66 936 139 853 231 853 C319 853 393 936 393 1035 L297 1035 C297 987 267 948 231 948 L231 948 Z " />
<glyph glyph-name="abreve" unicode="&#x103;" horiz-adv-x="400" d="M224 583 L219 583 C142 581 83 521 83 448 L178 448 C178 469 197 486 221 488 C245 486 266 467 266 443 L266 388 C252 411 220 422 196 422 C105 422 32 341 32 240 L32 184 C32 83 105 0 196 0 C236 0 252 17 264 35 L264 0 L360 0 L360 443 C360 518 300 581 224 583 L224 583 L224 583 Z M262 164 C262 114 232 95 196 95 C158 95 126 134 126 184 L126 240 C126 287 158 328 196 328 C232 328 262 307 262 260 L262 164 L262 164 Z M201 724 C163 724 131 763 131 811 L36 811 C36 712 109 629 201 629 C289 629 363 712 363 811 L267 811 C267 763 237 724 201 724 L201 724 Z " />
<glyph glyph-name="Aogonek" unicode="&#x104;" horiz-adv-x="458" d="M270 809 L189 809 L33 0 L129 0 L171 214 L289 214 L330 0 L427 0 L270 809 L270 809 Z M189 308 L229 522 L271 308 L189 308 L189 308 Z M333 -1 L427 -1 C427 -52 405 -80 391 -99 C389 -100 388 -102 385 -103 C393 -106 405 -110 423 -110 L423 -204 C343 -204 288 -164 288 -104 C288 -74 305 -54 317 -39 C327 -25 333 -19 333 -1 L333 -1 Z " />
<glyph glyph-name="aogonek" unicode="&#x105;" horiz-adv-x="400" d="M224 583 L219 583 C142 581 83 521 83 448 L178 448 C178 469 197 486 221 488 C245 486 266 467 266 443 L266 388 C252 411 220 422 196 422 C105 422 32 341 32 240 L32 184 C32 83 105 0 196 0 C236 0 252 17 264 35 L264 0 L360 0 L360 443 C360 518 300 581 224 583 L224 583 L224 583 Z M262 164 C262 114 232 95 196 95 C158 95 126 134 126 184 L126 240 C126 287 158 328 196 328 C232 328 262 307 262 260 L262 164 L262 164 Z M266 0 L360 0 C360 -51 338 -79 324 -98 C322 -99 321 -101 318 -102 C326 -105 338 -109 356 -109 L356 -203 C276 -203 221 -163 221 -103 C221 -73 238 -53 250 -38 C260 -24 266 -18 266 0 L266 0 Z " />
<glyph glyph-name="Cacute" unicode="&#x106;" horiz-adv-x="437" d="M215 714 L225 714 C247 714 269 706 286 689 C297 678 305 665 309 650 L400 677 C391 707 376 734 352 756 C318 791 273 809 225 809 L215 809 C115 809 33 727 33 626 L33 182 C33 83 115 0 215 0 L225 0 C300 0 370 49 396 121 L306 152 C294 118 261 95 225 95 L215 95 C166 95 127 134 127 182 L127 626 C127 674 166 714 215 714 L215 714 Z M165 886 L229 886 L268 1018 L189 1018 L165 886 L165 886 Z " />
<glyph glyph-name="cacute" unicode="&#x107;" horiz-adv-x="352" d="M263 151 C254 118 229 95 201 95 C164 95 131 134 131 182 L131 401 C131 448 164 487 201 487 C229 487 255 463 264 429 L352 468 C328 536 269 583 201 583 C110 583 38 502 38 401 L38 182 C38 83 110 0 201 0 C268 0 326 47 350 112 L263 151 L263 151 Z M123 662 L187 662 L226 794 L147 794 L123 662 L123 662 Z " />
<glyph glyph-name="Ccircumflex" unicode="&#x108;" horiz-adv-x="437" d="M215 714 L225 714 C247 714 269 706 286 689 C297 678 305 665 309 650 L400 677 C391 707 376 734 352 756 C318 791 273 809 225 809 L215 809 C115 809 33 727 33 626 L33 182 C33 83 115 0 215 0 L225 0 C300 0 370 49 396 121 L306 152 C294 118 261 95 225 95 L215 95 C166 95 127 134 127 182 L127 626 C127 674 166 714 215 714 L215 714 Z M40 915 L101 843 L215 943 L335 843 L396 916 L215 1064 L40 915 Z " />
<glyph glyph-name="ccircumflex" unicode="&#x109;" horiz-adv-x="352" d="M263 151 C254 118 229 95 201 95 C164 95 131 134 131 182 L131 401 C131 448 164 487 201 487 C229 487 255 463 264 429 L352 468 C328 536 269 583 201 583 C110 583 38 502 38 401 L38 182 C38 83 110 0 201 0 C268 0 326 47 350 112 L263 151 L263 151 Z M-1 691 L60 619 L174 719 L294 619 L355 692 L174 840 L-1 691 Z " />
<glyph glyph-name="Cdotaccent" unicode="&#x10a;" horiz-adv-x="437" d="M215 714 L225 714 C247 714 269 706 286 689 C297 678 305 665 309 650 L400 677 C391 707 376 734 352 756 C318 791 273 809 225 809 L215 809 C115 809 33 727 33 626 L33 182 C33 83 115 0 215 0 L225 0 C300 0 370 49 396 121 L306 152 C294 118 261 95 225 95 L215 95 C166 95 127 134 127 182 L127 626 C127 674 166 714 215 714 L215 714 Z M217 927 C246 927 270 951 270 980 C270 1009 246 1033 217 1033 C188 1033 164 1009 164 980 C164 951 188 927 217 927 L217 927 Z " />
<glyph glyph-name="cdotaccent" unicode="&#x10b;" horiz-adv-x="352" d="M263 151 C254 118 229 95 201 95 C164 95 131 134 131 182 L131 401 C131 448 164 487 201 487 C229 487 255 463 264 429 L352 468 C328 536 269 583 201 583 C110 583 38 502 38 401 L38 182 C38 83 110 0 201 0 C268 0 326 47 350 112 L263 151 L263 151 Z M175 703 C204 703 228 727 228 756 C228 785 204 809 175 809 C146 809 122 785 122 756 C122 727 146 703 175 703 L175 703 Z " />
<glyph glyph-name="Ccaron" unicode="&#x10c;" horiz-adv-x="437" d="M215 714 L225 714 C247 714 269 706 286 689 C297 678 305 665 309 650 L400 677 C391 707 376 734 352 756 C318 791 273 809 225 809 L215 809 C115 809 33 727 33 626 L33 182 C33 83 115 0 215 0 L225 0 C300 0 370 49 396 121 L306 152 C294 118 261 95 225 95 L215 95 C166 95 127 134 127 182 L127 626 C127 674 166 714 215 714 L215 714 Z M216 981 L104 1028 L67 940 L216 878 L367 944 L329 1030 L216 981 L216 981 Z " />
<glyph glyph-name="ccaron" unicode="&#x10d;" horiz-adv-x="352" d="M263 151 C254 118 229 95 201 95 C164 95 131 134 131 182 L131 401 C131 448 164 487 201 487 C229 487 255 463 264 429 L352 468 C328 536 269 583 201 583 C110 583 38 502 38 401 L38 182 C38 83 110 0 201 0 C268 0 326 47 350 112 L263 151 L263 151 Z M175 757 L63 804 L26 716 L175 654 L326 720 L288 806 L175 757 L175 757 Z " />
<glyph glyph-name="Dcaron" unicode="&#x10e;" horiz-adv-x="422" d="M234 809 L52 809 L52 -1 L237 -1 C331 -1 408 78 408 175 L408 635 C408 731 330 809 234 809 L234 809 Z M315 175 C315 130 280 94 237 94 L147 94 L147 714 L234 714 C279 714 315 679 315 635 L315 175 L315 175 Z M209 981 L97 1028 L60 940 L209 878 L360 944 L322 1030 L209 981 L209 981 Z " />
<glyph glyph-name="dcaron" unicode="&#x10f;" horiz-adv-x="520" d="M265 553 C248 573 219 583 194 583 C104 583 31 502 31 401 L31 184 C31 83 104 0 194 0 C219 0 251 14 265 39 L265 0 L360 0 L360 809 L265 809 L265 564 L265 553 Z M261 184 C261 134 231 95 194 95 C156 95 126 134 126 184 L126 401 C126 448 156 487 194 487 C231 487 261 448 261 401 L261 184 L261 184 Z M416 691 L416 660 C493 660 492 726 492 726 L492 809 L403 809 L403 726 L443 726 L443 726 C443 688 416 691 416 691 L416 691 Z " />
<glyph glyph-name="Dcroat" unicode="&#x110;" horiz-adv-x="466" d="M253 809 L167 809 L167 809 L72 809 L72 443 L38 443 L38 347 L72 347 L72 -1 L83 -1 L257 -1 C352 -1 428 78 428 175 L428 635 C428 731 350 809 253 809 L253 809 Z M335 175 C335 130 299 94 257 94 L167 94 L167 347 L244 347 L244 443 L167 443 L167 714 L253 714 C299 714 335 679 335 635 L335 175 L335 175 Z " />
<glyph glyph-name="dcroat" unicode="&#x111;" horiz-adv-x="421" d="M265 553 C248 573 219 583 194 583 C104 583 31 502 31 401 L31 184 C31 83 104 0 194 0 C219 0 251 14 265 39 L265 0 L360 0 L360 809 L265 809 L265 564 L265 553 Z M261 184 C261 134 231 95 194 95 C156 95 126 134 126 184 L126 401 C126 448 156 487 194 487 C231 487 261 448 261 401 L261 184 L261 184 Z M197 626 L380 626 L380 727 L197 727 L197 626 L197 626 Z " />
<glyph glyph-name="Emacron" unicode="&#x112;" horiz-adv-x="359" d="M180 944 L68 992 L31 904 L180 841 L331 907 L293 995 L180 944 Z M33 0 L321 0 L321 94 L127 94 L127 323 L243 323 L243 418 L127 418 L127 714 L321 714 L321 809 L33 809 L33 0 L33 0 Z " />
<glyph glyph-name="emacron" unicode="&#x113;" horiz-adv-x="391" d="M190 746 L79 794 L41 707 L190 643 L340 709 L302 797 L190 746 Z M196 583 C106 583 33 502 33 400 L33 184 C33 83 106 0 196 0 C285 0 359 83 359 184 L263 184 C263 136 233 95 196 95 C159 95 128 136 128 184 L128 272 L359 272 L359 400 C359 502 285 583 196 583 L196 583 Z M263 367 L128 367 L128 400 C128 448 159 487 196 487 C233 487 263 448 263 400 L263 367 L263 367 Z " />
<glyph glyph-name="Edotaccent" unicode="&#x116;" horiz-adv-x="359" d="M33 0 L321 0 L321 94 L127 94 L127 323 L243 323 L243 418 L127 418 L127 714 L321 714 L321 809 L33 809 L33 0 L33 0 Z M179 927 C208 927 232 951 232 980 C232 1009 208 1033 179 1033 C150 1033 126 1009 126 980 C126 951 150 927 179 927 L179 927 Z " />
<glyph glyph-name="edotaccent" unicode="&#x117;" horiz-adv-x="391" d="M196 583 C106 583 33 502 33 400 L33 184 C33 83 106 0 196 0 C285 0 359 83 359 184 L263 184 C263 136 233 95 196 95 C159 95 128 136 128 184 L128 272 L359 272 L359 400 C359 502 285 583 196 583 L196 583 Z M263 367 L128 367 L128 400 C128 448 159 487 196 487 C233 487 263 448 263 400 L263 367 L263 367 Z M194 703 C223 703 247 727 247 756 C247 785 223 809 194 809 C165 809 141 785 141 756 C141 727 165 703 194 703 L194 703 Z " />
<glyph glyph-name="Eogonek" unicode="&#x118;" horiz-adv-x="359" d="M33 0 L321 0 L321 94 L127 94 L127 323 L243 323 L243 418 L127 418 L127 714 L321 714 L321 809 L33 809 L33 0 L33 0 Z M141 -1 L235 -1 C235 -52 213 -80 199 -99 C197 -100 196 -102 193 -103 C201 -106 213 -110 231 -110 L231 -204 C151 -204 96 -164 96 -104 C96 -74 113 -54 125 -39 C135 -25 141 -19 141 -1 L141 -1 Z " />
<glyph glyph-name="eogonek" unicode="&#x119;" horiz-adv-x="391" d="M358 272 L358 400 C358 502 284 583 196 583 C104 583 31 502 31 400 L31 182 C31 98 83 26 152 5 C150 -4 145 -10 139 -19 C127 -32 110 -53 110 -84 C110 -144 166 -185 245 -185 L245 -90 C227 -90 215 -86 208 -83 C210 -82 211 -79 214 -78 C226 -61 246 -36 250 10 C312 35 358 103 358 182 L262 182 C262 134 232 94 196 94 C158 94 126 134 126 182 L126 272 L358 272 L358 272 Z M126 400 C126 448 158 487 196 487 C232 487 262 448 262 400 L262 367 L126 367 L126 400 L126 400 Z " />
<glyph glyph-name="Ecaron" unicode="&#x11a;" horiz-adv-x="359" d="M33 0 L321 0 L321 94 L127 94 L127 323 L243 323 L243 418 L127 418 L127 714 L321 714 L321 809 L33 809 L33 0 L33 0 Z M179 981 L67 1028 L30 940 L179 878 L330 944 L292 1030 L179 981 L179 981 Z " />
<glyph glyph-name="ecaron" unicode="&#x11b;" horiz-adv-x="391" d="M196 583 C106 583 33 502 33 400 L33 184 C33 83 106 0 196 0 C285 0 359 83 359 184 L263 184 C263 136 233 95 196 95 C159 95 128 136 128 184 L128 272 L359 272 L359 400 C359 502 285 583 196 583 L196 583 Z M263 367 L128 367 L128 400 C128 448 159 487 196 487 C233 487 263 448 263 400 L263 367 L263 367 Z M193 757 L81 804 L44 716 L193 654 L344 720 L306 806 L193 757 L193 757 Z " />
<glyph glyph-name="Gcircumflex" unicode="&#x11c;" horiz-adv-x="440" d="M202 324 L312 324 L312 182 C312 133 273 94 225 94 L215 94 C166 94 127 133 127 182 L127 626 C127 674 166 714 215 714 L225 714 C247 714 269 706 286 689 C297 678 305 665 309 650 L400 677 C391 707 376 734 352 756 C318 790 273 809 225 809 L215 809 C115 809 33 727 33 626 L33 182 C33 82 115 0 215 0 L225 0 C324 0 407 82 407 182 L407 418 L202 418 L202 324 L202 324 Z M42 915 L103 843 L217 943 L337 843 L398 916 L217 1064 L42 915 Z " />
<glyph glyph-name="gcircumflex" unicode="&#x11d;" horiz-adv-x="402" d="M263 549 C246 571 219 583 195 583 C105 583 32 502 32 401 L32 181 C32 82 105 0 195 0 C219 0 241 6 263 16 L263 10 C263 -37 233 -78 195 -78 C179 -78 164 -70 157 -62 L93 -133 C122 -158 158 -173 195 -173 C284 -173 359 -91 359 10 L359 181 L359 401 L359 583 L263 583 L263 565 L263 549 Z M263 181 C263 134 233 94 195 94 C158 94 127 134 127 181 L127 401 C127 448 158 487 195 487 C233 487 263 448 263 401 L263 181 L263 181 Z M23 691 L84 619 L198 719 L318 619 L379 692 L198 840 L23 691 Z " />
<glyph glyph-name="Gbreve" unicode="&#x11e;" horiz-adv-x="440" d="M202 324 L312 324 L312 182 C312 133 273 94 225 94 L215 94 C166 94 127 133 127 182 L127 626 C127 674 166 714 215 714 L225 714 C247 714 269 706 286 689 C297 678 305 665 309 650 L400 677 C391 707 376 734 352 756 C318 790 273 809 225 809 L215 809 C115 809 33 727 33 626 L33 182 C33 82 115 0 215 0 L225 0 C324 0 407 82 407 182 L407 418 L202 418 L202 324 L202 324 Z M222 948 C184 948 152 987 152 1035 L57 1035 C57 936 130 853 222 853 C310 853 384 936 384 1035 L288 1035 C288 987 258 948 222 948 L222 948 Z " />
<glyph glyph-name="gbreve" unicode="&#x11f;" horiz-adv-x="402" d="M263 549 C246 571 219 583 195 583 C105 583 32 502 32 401 L32 181 C32 82 105 0 195 0 C219 0 241 6 263 16 L263 10 C263 -37 233 -78 195 -78 C179 -78 164 -70 157 -62 L93 -133 C122 -158 158 -173 195 -173 C284 -173 359 -91 359 10 L359 181 L359 401 L359 583 L263 583 L263 565 L263 549 Z M263 181 C263 134 233 94 195 94 C158 94 127 134 127 181 L127 401 C127 448 158 487 195 487 C233 487 263 448 263 401 L263 181 L263 181 Z M202 724 C164 724 132 763 132 811 L37 811 C37 712 110 629 202 629 C290 629 364 712 364 811 L268 811 C268 763 238 724 202 724 L202 724 Z " />
<glyph glyph-name="Gdotaccent" unicode="&#x120;" horiz-adv-x="440" d="M202 324 L312 324 L312 182 C312 133 273 94 225 94 L215 94 C166 94 127 133 127 182 L127 626 C127 674 166 714 215 714 L225 714 C247 714 269 706 286 689 C297 678 305 665 309 650 L400 677 C391 707 376 734 352 756 C318 790 273 809 225 809 L215 809 C115 809 33 727 33 626 L33 182 C33 82 115 0 215 0 L225 0 C324 0 407 82 407 182 L407 418 L202 418 L202 324 L202 324 Z M220 927 C249 927 273 951 273 980 C273 1009 249 1033 220 1033 C191 1033 167 1009 167 980 C167 951 191 927 220 927 L220 927 Z " />
<glyph glyph-name="gdotaccent" unicode="&#x121;" horiz-adv-x="402" d="M263 549 C246 571 219 583 195 583 C105 583 32 502 32 401 L32 181 C32 82 105 0 195 0 C219 0 241 6 263 16 L263 10 C263 -37 233 -78 195 -78 C179 -78 164 -70 157 -62 L93 -133 C122 -158 158 -173 195 -173 C284 -173 359 -91 359 10 L359 181 L359 401 L359 583 L263 583 L263 565 L263 549 Z M263 181 C263 134 233 94 195 94 C158 94 127 134 127 181 L127 401 C127 448 158 487 195 487 C233 487 263 448 263 401 L263 181 L263 181 Z M200 703 C229 703 253 727 253 756 C253 785 229 809 200 809 C171 809 147 785 147 756 C147 727 171 703 200 703 L200 703 Z " />
<glyph glyph-name="Gcommaaccent" unicode="&#x122;" horiz-adv-x="440" d="M274 -42 L185 -42 L185 -124 L224 -124 L224 -124 C224 -162 198 -160 198 -160 L198 -191 C276 -191 274 -124 274 -124 L274 -42 Z M202 324 L312 324 L312 182 C312 133 273 94 225 94 L215 94 C166 94 127 133 127 182 L127 626 C127 674 166 714 215 714 L225 714 C247 714 269 706 286 689 C297 678 305 665 309 650 L400 677 C391 707 376 734 352 756 C318 790 273 809 225 809 L215 809 C115 809 33 727 33 626 L33 182 C33 82 115 0 215 0 L225 0 C324 0 407 82 407 182 L407 418 L202 418 L202 324 L202 324 Z " />
<glyph glyph-name="gcommaaccent" unicode="&#x123;" horiz-adv-x="390" d="M263 549 C246 571 219 583 195 583 C105 583 32 502 32 401 L32 181 C32 82 105 0 195 0 C219 0 241 6 263 16 L263 10 C263 -37 233 -78 195 -78 C179 -78 164 -70 157 -62 L93 -133 C122 -158 158 -173 195 -173 C284 -173 359 -91 359 10 L359 181 L359 401 L359 583 L263 583 L263 565 L263 549 Z M263 181 C263 134 233 94 195 94 C158 94 127 134 127 181 L127 401 C127 448 158 487 195 487 C233 487 263 448 263 401 L263 181 L263 181 Z M177 724 L177 640 L266 640 L266 724 L226 724 L226 724 C226 762 253 758 253 758 L253 789 C176 789 177 724 177 724 L177 724 Z " />
<glyph glyph-name="Hcircumflex" unicode="&#x124;" horiz-adv-x="430" d="M317 418 L144 418 L144 809 L49 809 L49 0 L144 0 L144 323 L317 323 L317 0 L411 0 L411 809 L317 809 L317 418 L317 418 Z M37 915 L98 843 L212 943 L332 843 L393 916 L212 1064 L37 915 Z " />
<glyph glyph-name="hcircumflex" unicode="&#x125;" horiz-adv-x="391" d="M196 583 C170 583 148 577 126 565 L126 809 L32 809 L32 401 L32 0 L126 0 L126 401 C126 448 158 487 196 487 C232 487 263 448 263 401 L263 0 L358 0 L358 401 C358 502 284 583 196 583 L196 583 Z M18 901 L79 829 L193 929 L313 829 L374 902 L193 1050 L18 901 Z " />
<glyph glyph-name="Hbar" unicode="&#x126;" horiz-adv-x="578" d="M52 509 L541 509 L541 604 L52 604 L52 509 Z M392 418 L219 418 L219 809 L124 809 L124 0 L219 0 L219 323 L392 323 L392 0 L486 0 L486 809 L392 809 L392 418 L392 418 Z " />
<glyph glyph-name="hbar" unicode="&#x127;" horiz-adv-x="391" d="M196 583 C170 583 148 577 126 565 L126 809 L32 809 L32 401 L32 0 L126 0 L126 401 C126 448 158 487 196 487 C232 487 263 448 263 401 L263 0 L358 0 L358 401 C358 502 284 583 196 583 L196 583 Z M-17 637 L289 637 L289 732 L-17 732 L-17 637 L-17 637 Z " />
<glyph glyph-name="Itilde" unicode="&#x128;" horiz-adv-x="169" d="M45 0 L139 0 L139 809 L45 809 L45 0 L45 0 Z M162 952 C148 952 131 962 110 975 C85 991 52 1011 7 1011 C-40 1011 -85 986 -137 936 L-68 868 C-48 891 -17 916 8 916 C8 916 8 916 10 916 C24 916 41 907 61 895 C86 878 119 858 162 858 C162 858 162 858 163 858 C210 859 253 882 305 931 L238 999 C216 978 186 952 162 952 L162 952 Z " />
<glyph glyph-name="itilde" unicode="&#x129;" horiz-adv-x="220" d="M65 0 L160 0 L160 583 L65 583 L65 0 Z M160 771 C146 771 129 781 108 794 C83 810 50 830 5 830 C-42 830 -87 805 -139 755 L-70 687 C-50 710 -19 735 6 735 C6 735 6 735 8 735 C22 735 39 726 59 714 C84 697 117 677 160 677 C160 677 160 677 161 677 C208 678 251 701 303 750 L236 818 C214 797 184 771 160 771 L160 771 Z " />
<glyph glyph-name="imacron" unicode="&#x12b;" horiz-adv-x="220" d="M111 778 L0 824 L-38 737 L111 674 L261 739 L224 826 L111 778 Z M65 0 L160 0 L160 583 L65 583 L65 0 Z " />
<glyph glyph-name="Iogonek" unicode="&#x12e;" horiz-adv-x="169" d="M45 0 L139 0 L139 809 L45 809 L45 0 L45 0 Z M33 -1 L127 -1 C127 -52 105 -80 91 -99 C89 -100 88 -102 85 -103 C93 -106 105 -110 123 -110 L123 -204 C43 -204 -12 -164 -12 -104 C-12 -74 5 -54 17 -39 C27 -25 33 -19 33 -1 L33 -1 Z " />
<glyph glyph-name="iogonek" unicode="&#x12f;" horiz-adv-x="163" d="M57 0 L152 0 L152 583 L57 583 L57 0 L57 0 Z M57 626 L152 626 L152 724 L57 724 L57 626 L57 626 Z M33 -1 L127 -1 C127 -52 105 -80 91 -99 C89 -100 88 -102 85 -103 C93 -106 105 -110 123 -110 L123 -204 C43 -204 -12 -164 -12 -104 C-12 -74 5 -54 17 -39 C27 -25 33 -19 33 -1 L33 -1 Z " />
<glyph glyph-name="Idotaccent" unicode="&#x130;" horiz-adv-x="169" d="M45 0 L139 0 L139 809 L45 809 L45 0 L45 0 Z M84 927 C113 927 137 951 137 980 C137 1009 113 1033 84 1033 C55 1033 31 1009 31 980 C31 951 55 927 84 927 L84 927 Z " />
<glyph glyph-name="dotlessi" unicode="&#x131;" horiz-adv-x="220" d="M65 0 L160 0 L160 583 L65 583 L65 0 Z " />
<glyph glyph-name="Jcircumflex" unicode="&#x134;" horiz-adv-x="431" d="M304 187 C304 136 264 92 216 92 C167 92 127 136 127 187 L127 373 L33 373 L33 187 C33 83 115 -1 216 -1 C317 -1 399 83 399 187 L399 809 L304 809 L304 187 L304 187 Z M178 915 L239 843 L353 943 L473 843 L534 916 L353 1064 L178 915 Z " />
<glyph glyph-name="jcircumflex" unicode="&#x135;" horiz-adv-x="174" d="M-43 626 L52 626 L52 724 L-43 724 L-43 626 L-43 626 Z M-43 10 C-43 -37 -74 -78 -112 -78 C-129 -78 -141 -70 -150 -62 L-212 -133 C-184 -158 -148 -173 -112 -173 C-21 -173 52 -91 52 10 L52 583 L-43 583 L-43 10 L-43 10 Z M-91 691 L-30 619 L84 719 L204 619 L265 692 L84 840 L-91 691 Z " />
<glyph glyph-name="Kcommaaccent" unicode="&#x136;" horiz-adv-x="458" d="M274 -42 L185 -42 L185 -124 L224 -124 L224 -124 C224 -162 198 -160 198 -160 L198 -191 C276 -191 274 -124 274 -124 L274 -42 Z M315 809 L124 509 L124 809 L33 809 L33 0 L124 0 L124 336 L172 413 L323 0 L421 0 L234 509 L423 809 L315 809 L315 809 Z " />
<glyph glyph-name="kcommaaccent" unicode="&#x137;" horiz-adv-x="440" d="M253 -42 L166 -42 L166 -124 L205 -124 L205 -124 C205 -162 179 -160 179 -160 L179 -191 C256 -191 253 -124 253 -124 L253 -42 Z M293 583 L123 371 L123 809 L31 809 L31 0 L123 0 L123 224 L183 304 L295 0 L392 0 L251 388 L401 583 L293 583 L293 583 Z " />
<glyph glyph-name="kgreenlandic" unicode="&#x138;" horiz-adv-x="415" d="M269 584 L124 359 L124 583 L31 583 L31 -2 L124 -2 L124 187 L172 263 L268 0 L365 0 L234 360 L378 584 L269 584 Z " />
<glyph glyph-name="Lacute" unicode="&#x139;" horiz-adv-x="359" d="M127 809 L33 809 L33 0 L321 0 L321 95 L127 95 L127 809 L127 809 Z M49 886 L113 886 L152 1018 L73 1018 L49 886 L49 886 Z " />
<glyph glyph-name="lacute" unicode="&#x13a;" horiz-adv-x="163" d="M54 0 L149 0 L149 809 L54 809 L54 0 L54 0 Z M55 847 L119 847 L158 979 L79 979 L55 847 L55 847 Z " />
<glyph glyph-name="Lcommaaccent" unicode="&#x13b;" horiz-adv-x="359" d="M229 -36 L140 -36 L140 -118 L180 -118 L180 -118 C180 -156 154 -154 154 -154 L154 -186 C230 -186 229 -118 229 -118 L229 -36 Z M127 809 L33 809 L33 0 L321 0 L321 95 L127 95 L127 809 L127 809 Z " />
<glyph glyph-name="lcommaaccent" unicode="&#x13c;" horiz-adv-x="163" d="M144 -119 L144 -36 L55 -36 L55 -119 L95 -119 L95 -119 C95 -157 68 -154 68 -154 L68 -186 C145 -186 144 -119 144 -119 L144 -119 Z M54 0 L149 0 L149 809 L54 809 L54 0 L54 0 Z " />
<glyph glyph-name="Lcaron" unicode="&#x13d;" horiz-adv-x="359" d="M127 809 L33 809 L33 0 L321 0 L321 95 L127 95 L127 809 L127 809 Z M50 860 L50 829 C127 829 126 895 126 895 L126 978 L37 978 L37 895 L77 895 L77 895 C77 857 50 860 50 860 L50 860 Z " />
<glyph glyph-name="lcaron" unicode="&#x13e;" horiz-adv-x="288" d="M54 0 L149 0 L149 809 L54 809 L54 0 L54 0 Z M183 691 L183 660 C260 660 259 726 259 726 L259 809 L170 809 L170 726 L210 726 L210 726 C210 688 183 691 183 691 L183 691 Z " />
<glyph glyph-name="Lslash" unicode="&#x141;" horiz-adv-x="391" d="M158 94 L158 359 L264 359 L264 455 L158 455 L158 809 L64 809 L64 455 L40 455 L40 359 L64 359 L64 -1 L352 -1 L352 94 L158 94 L158 94 Z " />
<glyph glyph-name="lslash" unicode="&#x142;" horiz-adv-x="290" d="M101 0 L196 0 L196 809 L101 809 L101 0 L101 0 Z M35 351 L266 351 L266 455 L35 455 L35 351 L35 351 Z " />
<glyph glyph-name="Nacute" unicode="&#x143;" horiz-adv-x="454" d="M154 809 L52 809 L52 809 L52 0 L147 0 L147 550 L349 0 L447 0 L447 809 L352 809 L352 266 L154 809 Z M175 886 L239 886 L278 1018 L199 1018 L175 886 L175 886 Z " />
<glyph glyph-name="nacute" unicode="&#x144;" horiz-adv-x="396" d="M202 583 C177 583 142 570 127 545 L127 583 L33 583 L33 401 L33 42 L33 0 L127 0 L127 42 L127 401 C127 448 159 487 196 487 C233 487 263 448 263 401 L263 0 L359 0 L359 401 C359 502 291 583 202 583 L202 583 Z M145 662 L209 662 L248 794 L169 794 L145 662 L145 662 Z " />
<glyph glyph-name="Ncommaaccent" unicode="&#x145;" horiz-adv-x="454" d="M274 -42 L185 -42 L185 -124 L224 -124 L224 -124 C224 -162 198 -160 198 -160 L198 -191 C276 -191 274 -124 274 -124 L274 -42 Z M154 809 L52 809 L52 809 L52 0 L147 0 L147 550 L349 0 L447 0 L447 809 L352 809 L352 266 L154 809 Z " />
<glyph glyph-name="ncommaaccent" unicode="&#x146;" horiz-adv-x="396" d="M234 -42 L145 -42 L145 -124 L185 -124 L185 -124 C185 -162 158 -160 158 -160 L158 -191 C236 -191 234 -124 234 -124 L234 -42 Z M202 583 C177 583 142 570 127 545 L127 583 L33 583 L33 401 L33 42 L33 0 L127 0 L127 42 L127 401 C127 448 159 487 196 487 C233 487 263 448 263 401 L263 0 L359 0 L359 401 C359 502 291 583 202 583 L202 583 Z " />
<glyph glyph-name="Ncaron" unicode="&#x147;" horiz-adv-x="454" d="M154 809 L52 809 L52 809 L52 0 L147 0 L147 550 L349 0 L447 0 L447 809 L352 809 L352 266 L154 809 Z M226 981 L114 1028 L77 940 L226 878 L377 944 L339 1030 L226 981 L226 981 Z " />
<glyph glyph-name="ncaron" unicode="&#x148;" horiz-adv-x="396" d="M202 583 C177 583 142 570 127 545 L127 583 L33 583 L33 401 L33 42 L33 0 L127 0 L127 42 L127 401 C127 448 159 487 196 487 C233 487 263 448 263 401 L263 0 L359 0 L359 401 C359 502 291 583 202 583 L202 583 Z M197 757 L85 804 L48 716 L197 654 L348 720 L310 806 L197 757 L197 757 Z " />
<glyph glyph-name="Eng" unicode="&#x14a;" horiz-adv-x="454" d="M331 -132 C331 -185 292 -227 244 -227 C196 -227 156 -185 156 -132 L156 -55 L61 -55 L61 -132 C61 -236 142 -320 244 -320 C344 -320 426 -236 426 -132 L426 488 L331 488 L331 -132 L331 -132 Z M154 809 L52 809 L52 809 L52 0 L147 0 L147 550 L349 0 L447 0 L447 809 L352 809 L352 266 L154 809 Z " />
<glyph glyph-name="eng" unicode="&#x14b;" horiz-adv-x="396" d="M196 583 C170 583 148 577 126 565 L126 583 L31 583 L31 401 L31 41 L31 -1 L126 -1 L126 41 L126 401 C126 448 158 487 196 487 C232 487 262 448 262 401 L262 -1 L358 -1 L358 401 C358 502 284 583 196 583 L196 583 Z M263 10 C263 -37 233 -78 196 -78 C179 -78 166 -70 158 -62 L95 -133 C122 -158 158 -173 196 -173 C284 -173 358 -91 358 10 L358 355 L263 355 L263 10 Z " />
<glyph glyph-name="Omacron" unicode="&#x14c;" horiz-adv-x="438" d="M220 956 L108 1003 L71 916 L220 853 L371 919 L332 1006 L220 956 Z M225 809 L216 809 C115 809 33 726 33 625 L33 184 C33 84 115 0 215 0 L225 0 C324 0 407 84 407 184 L407 625 C407 726 325 809 225 809 L225 809 Z M312 184 C312 134 273 96 225 96 L215 96 C166 96 127 134 127 184 L127 625 C127 674 166 714 215 714 L225 714 C273 714 312 674 312 625 L312 184 L312 184 Z " />
<glyph glyph-name="omacron" unicode="&#x14d;" horiz-adv-x="391" d="M199 757 L88 804 L52 716 L199 654 L350 720 L313 806 L199 757 Z M196 583 C105 583 33 502 33 401 L33 182 C33 83 105 0 196 0 C285 0 358 83 358 182 L358 401 C358 502 285 583 196 583 L196 583 Z M263 182 C263 134 232 95 196 95 C159 95 126 134 126 182 L126 401 C126 448 159 487 196 487 C232 487 263 448 263 401 L263 182 Z " />
<glyph glyph-name="Ohungarumlaut" unicode="&#x150;" horiz-adv-x="438" d="M225 809 L216 809 C115 809 33 726 33 625 L33 184 C33 84 115 0 215 0 L225 0 C324 0 407 84 407 184 L407 625 C407 726 325 809 225 809 L225 809 Z M312 184 C312 134 273 96 225 96 L215 96 C166 96 127 134 127 184 L127 625 C127 674 166 714 215 714 L225 714 C273 714 312 674 312 625 L312 184 L312 184 Z M114 907 L178 907 L217 1039 L138 1039 L114 907 L114 907 Z M222 907 L285 907 L324 1039 L245 1039 L222 907 L222 907 Z " />
<glyph glyph-name="ohungarumlaut" unicode="&#x151;" horiz-adv-x="391" d="M196 583 C105 583 33 502 33 401 L33 182 C33 83 105 0 196 0 C285 0 358 83 358 182 L358 401 C358 502 285 583 196 583 L196 583 Z M263 182 C263 134 232 95 196 95 C159 95 126 134 126 182 L126 401 C126 448 159 487 196 487 C232 487 263 448 263 401 L263 182 Z M113 683 L177 683 L216 815 L137 815 L113 683 L113 683 Z M221 683 L284 683 L323 815 L244 815 L221 683 L221 683 Z " />
<glyph glyph-name="OE" unicode="&#x152;" horiz-adv-x="632" d="M598 714 L598 809 L310 809 L310 786 C284 800 254 809 223 809 L215 809 C114 809 31 726 31 625 L31 182 C31 83 114 -1 214 -1 L223 -1 C254 -1 284 7 310 20 L310 0 L598 0 L598 94 L404 94 L404 163 C406 169 406 176 406 182 L406 323 L521 323 L521 418 L406 418 L406 625 C406 631 406 638 404 643 L404 714 L598 714 L598 714 Z M223 95 L214 95 C166 95 126 133 126 182 L126 625 C126 674 166 714 214 714 L223 714 C268 714 304 682 310 638 L310 168 C304 127 268 95 223 95 L223 95 Z " />
<glyph glyph-name="oe" unicode="&#x153;" horiz-adv-x="626" d="M590 272 L590 400 C590 502 516 583 427 583 C382 583 340 563 311 527 C281 563 240 583 196 583 C104 583 31 502 31 401 L31 181 C31 82 104 -1 196 -1 C240 -1 281 19 311 54 C340 19 382 -1 427 -1 C516 -1 590 82 590 182 L496 182 C496 134 464 94 427 94 C390 94 359 134 359 182 L359 272 L590 272 L590 272 Z M359 400 C359 448 390 487 427 487 C464 487 496 448 496 400 L496 367 L359 367 L359 400 L359 400 Z M262 181 C262 133 232 94 196 94 C158 94 126 133 126 181 L126 401 C126 448 158 487 196 487 C232 487 262 448 262 401 L262 181 L262 181 Z " />
<glyph glyph-name="Racute" unicode="&#x154;" horiz-adv-x="425" d="M346 332 C379 365 401 410 401 462 L401 634 C401 730 325 809 231 809 L46 809 L46 0 L141 0 L141 287 L221 287 C270 287 310 247 310 198 L310 0 L405 0 L405 198 C405 251 382 299 346 332 L346 332 Z M307 462 C307 418 273 382 231 382 L141 382 L141 714 L231 714 C273 714 307 678 307 634 L307 462 L307 462 Z M159 886 L223 886 L262 1018 L183 1018 L159 886 L159 886 Z " />
<glyph glyph-name="racute" unicode="&#x155;" horiz-adv-x="349" d="M202 583 C177 583 143 578 127 550 L127 583 L33 583 L33 401 L33 0 L127 0 L127 401 C127 448 159 487 196 487 C214 487 233 478 245 460 L322 515 C292 558 251 583 202 583 L202 583 Z M122 662 L186 662 L225 794 L146 794 L122 662 L122 662 Z " />
<glyph glyph-name="Rcommaaccent" unicode="&#x156;" horiz-adv-x="425" d="M274 -42 L185 -42 L185 -124 L224 -124 L224 -124 C224 -162 198 -160 198 -160 L198 -191 C276 -191 274 -124 274 -124 L274 -42 Z M346 332 C379 365 401 410 401 462 L401 634 C401 730 325 809 231 809 L46 809 L46 0 L141 0 L141 287 L221 287 C270 287 310 247 310 198 L310 0 L405 0 L405 198 C405 251 382 299 346 332 L346 332 Z M307 462 C307 418 273 382 231 382 L141 382 L141 714 L231 714 C273 714 307 678 307 634 L307 462 L307 462 Z " />
<glyph glyph-name="rcommaaccent" unicode="&#x157;" horiz-adv-x="349" d="M125 -42 L37 -42 L37 -124 L77 -124 L77 -124 C77 -162 49 -160 49 -160 L49 -191 C126 -191 125 -124 125 -124 L125 -42 Z M202 583 C177 583 143 578 127 550 L127 583 L33 583 L33 401 L33 0 L127 0 L127 401 C127 448 159 487 196 487 C214 487 233 478 245 460 L322 515 C292 558 251 583 202 583 L202 583 Z " />
<glyph glyph-name="Rcaron" unicode="&#x158;" horiz-adv-x="425" d="M346 332 C379 365 401 410 401 462 L401 634 C401 730 325 809 231 809 L46 809 L46 0 L141 0 L141 287 L221 287 C270 287 310 247 310 198 L310 0 L405 0 L405 198 C405 251 382 299 346 332 L346 332 Z M307 462 C307 418 273 382 231 382 L141 382 L141 714 L231 714 C273 714 307 678 307 634 L307 462 L307 462 Z M210 981 L98 1028 L61 940 L210 878 L361 944 L323 1030 L210 981 L210 981 Z " />
<glyph glyph-name="rcaron" unicode="&#x159;" horiz-adv-x="349" d="M202 583 C177 583 143 578 127 550 L127 583 L33 583 L33 401 L33 0 L127 0 L127 401 C127 448 159 487 196 487 C214 487 233 478 245 460 L322 515 C292 558 251 583 202 583 L202 583 Z M173 757 L61 804 L24 716 L173 654 L324 720 L286 806 L173 757 L173 757 Z " />
<glyph glyph-name="Sacute" unicode="&#x15a;" horiz-adv-x="449" d="M249 444 C183 502 126 552 127 635 C127 679 167 714 217 714 C267 714 306 674 306 625 L401 625 C401 726 319 809 217 809 C115 809 34 732 33 635 C31 510 113 438 185 373 C251 313 309 264 306 179 C305 124 276 95 217 95 C169 95 129 134 129 185 L35 185 C35 84 117 0 217 0 C328 0 399 70 401 176 C405 305 321 378 249 444 L249 444 Z M173 886 L237 886 L276 1018 L197 1018 L173 886 L173 886 Z " />
<glyph glyph-name="sacute" unicode="&#x15b;" horiz-adv-x="368" d="M212 330 C160 374 125 403 126 446 C126 469 152 487 185 487 C206 487 227 478 236 462 L319 508 C292 554 241 583 185 583 C101 583 32 524 31 449 C30 355 100 301 155 257 C209 212 242 185 241 138 C241 126 241 95 185 95 C161 95 139 108 131 126 L44 88 C67 35 122 0 185 0 C274 0 335 53 337 134 C340 232 269 287 212 330 L212 330 Z M132 662 L196 662 L235 794 L156 794 L132 662 L132 662 Z " />
<glyph glyph-name="Scircumflex" unicode="&#x15c;" horiz-adv-x="449" d="M249 444 C183 502 126 552 127 635 C127 679 167 714 217 714 C267 714 306 674 306 625 L401 625 C401 726 319 809 217 809 C115 809 34 732 33 635 C31 510 113 438 185 373 C251 313 309 264 306 179 C305 124 276 95 217 95 C169 95 129 134 129 185 L35 185 C35 84 117 0 217 0 C328 0 399 70 401 176 C405 305 321 378 249 444 L249 444 Z M47 915 L108 843 L222 943 L342 843 L403 916 L222 1064 L47 915 Z " />
<glyph glyph-name="scircumflex" unicode="&#x15d;" horiz-adv-x="368" d="M212 330 C160 374 125 403 126 446 C126 469 152 487 185 487 C206 487 227 478 236 462 L319 508 C292 554 241 583 185 583 C101 583 32 524 31 449 C30 355 100 301 155 257 C209 212 242 185 241 138 C241 126 241 95 185 95 C161 95 139 108 131 126 L44 88 C67 35 122 0 185 0 C274 0 335 53 337 134 C340 232 269 287 212 330 L212 330 Z M6 691 L67 619 L181 719 L301 619 L362 692 L181 840 L6 691 Z " />
<glyph glyph-name="Scedilla" unicode="&#x15e;" horiz-adv-x="449" d="M249 444 C183 502 126 552 127 635 C127 679 167 714 217 714 C267 714 306 674 306 625 L401 625 C401 726 319 809 217 809 C115 809 34 732 33 635 C31 510 113 438 185 373 C251 313 309 264 306 179 C305 124 276 95 217 95 C169 95 129 134 129 185 L35 185 C35 84 117 0 217 0 C328 0 399 70 401 176 C405 305 321 378 249 444 L249 444 Z M250 49 L155 49 C155 -2 179 -30 192 -49 C195 -50 195 -52 197 -53 C190 -56 179 -60 161 -60 L161 -154 C240 -154 294 -114 294 -54 C294 -24 278 -4 266 11 C257 25 250 31 250 49 L250 49 Z " />
<glyph glyph-name="scedilla" unicode="&#x15f;" horiz-adv-x="368" d="M212 330 C160 374 125 403 126 446 C126 469 152 487 185 487 C206 487 227 478 236 462 L319 508 C292 554 241 583 185 583 C101 583 32 524 31 449 C30 355 100 301 155 257 C209 212 242 185 241 138 C241 126 241 95 185 95 C161 95 139 108 131 126 L44 88 C67 35 122 0 185 0 C274 0 335 53 337 134 C340 232 269 287 212 330 L212 330 Z M209 49 L114 49 C114 -2 138 -30 151 -49 C154 -50 154 -52 156 -53 C149 -56 138 -60 120 -60 L120 -154 C199 -154 253 -114 253 -54 C253 -24 237 -4 225 11 C216 25 209 31 209 49 L209 49 Z " />
<glyph glyph-name="Scaron" unicode="&#x160;" horiz-adv-x="449" d="M249 444 C183 502 126 552 127 635 C127 679 167 714 217 714 C267 714 306 674 306 625 L401 625 C401 726 319 809 217 809 C115 809 34 732 33 635 C31 510 113 438 185 373 C251 313 309 264 306 179 C305 124 276 95 217 95 C169 95 129 134 129 185 L35 185 C35 84 117 0 217 0 C328 0 399 70 401 176 C405 305 321 378 249 444 L249 444 Z M223 981 L111 1028 L74 940 L223 878 L374 944 L336 1030 L223 981 L223 981 Z " />
<glyph glyph-name="scaron" unicode="&#x161;" horiz-adv-x="368" d="M212 330 C160 374 125 403 126 446 C126 469 152 487 185 487 C206 487 227 478 236 462 L319 508 C292 554 241 583 185 583 C101 583 32 524 31 449 C30 355 100 301 155 257 C209 212 242 185 241 138 C241 126 241 95 185 95 C161 95 139 108 131 126 L44 88 C67 35 122 0 185 0 C274 0 335 53 337 134 C340 232 269 287 212 330 L212 330 Z M184 757 L72 804 L35 716 L184 654 L335 720 L297 806 L184 757 L184 757 Z " />
<glyph glyph-name="Tcommaaccent" unicode="&#x162;" horiz-adv-x="406" d="M244 -42 L156 -42 L156 -124 L196 -124 L196 -124 C196 -162 168 -160 168 -160 L168 -191 C245 -191 244 -124 244 -124 L244 -42 Z M33 714 L154 714 L154 0 L249 0 L249 714 L367 714 L367 809 L33 809 L33 714 L33 714 Z " />
<glyph glyph-name="tcommaaccent" unicode="&#x163;" horiz-adv-x="367" d="M228 95 C210 95 184 131 184 184 L184 488 L295 488 L295 583 L184 583 L184 722 L88 722 L88 583 L32 583 L32 488 L88 488 L88 184 C88 82 150 0 228 0 C270 0 308 24 334 65 L255 115 C247 103 237 95 228 95 L228 95 Z " />
<glyph glyph-name="Tcaron" unicode="&#x164;" horiz-adv-x="406" d="M33 714 L154 714 L154 0 L249 0 L249 714 L367 714 L367 809 L33 809 L33 714 L33 714 Z M200 981 L88 1028 L51 940 L200 878 L351 944 L313 1030 L200 981 L200 981 Z " />
<glyph glyph-name="tcaron" unicode="&#x165;" horiz-adv-x="490" d="M228 95 C210 95 184 131 184 184 L184 488 L295 488 L295 583 L184 583 L184 722 L88 722 L88 583 L32 583 L32 488 L88 488 L88 184 C88 82 150 0 228 0 C270 0 308 24 334 65 L255 115 C247 103 237 95 228 95 L228 95 Z M387 691 L387 660 C464 660 463 726 463 726 L463 809 L374 809 L374 726 L414 726 L414 726 C414 688 387 691 387 691 L387 691 Z " />
<glyph glyph-name="Tbar" unicode="&#x166;" horiz-adv-x="406" d="M49 518 L355 518 L355 613 L49 613 L49 518 Z M33 714 L154 714 L154 0 L249 0 L249 714 L367 714 L367 809 L33 809 L33 714 L33 714 Z " />
<glyph glyph-name="tbar" unicode="&#x167;" horiz-adv-x="367" d="M228 95 C210 95 184 131 184 184 L184 488 L295 488 L295 583 L184 583 L184 722 L88 722 L88 583 L32 583 L32 488 L88 488 L88 184 C88 82 150 0 228 0 C270 0 308 24 334 65 L255 115 C247 103 237 95 228 95 L228 95 Z M31 343 L298 343 L298 435 L31 435 L31 343 L31 343 Z " />
<glyph glyph-name="Utilde" unicode="&#x168;" horiz-adv-x="446" d="M312 184 C312 134 273 95 225 95 L215 95 C166 95 127 134 127 184 L127 809 L33 809 L33 184 C33 83 115 0 215 0 L225 0 C324 0 407 83 407 184 L407 809 L312 809 L312 184 L312 184 Z M301 952 C287 952 270 962 249 975 C224 991 191 1011 146 1011 C99 1011 54 986 2 936 L71 868 C91 891 122 916 147 916 C147 916 147 916 149 916 C163 916 180 907 200 895 C225 878 258 858 301 858 C301 858 301 858 302 858 C349 859 392 882 444 931 L377 999 C355 978 325 952 301 952 L301 952 Z " />
<glyph glyph-name="utilde" unicode="&#x169;" horiz-adv-x="412" d="M276 184 C276 136 245 95 209 95 C172 95 141 136 141 184 L141 583 L46 583 L46 184 C46 83 119 0 209 0 C233 0 256 7 276 17 L276 0 L371 0 L371 184 L371 583 L276 583 L276 184 Z M284 728 C270 728 253 738 232 751 C207 767 174 787 129 787 C82 787 37 762 -15 712 L54 644 C74 667 105 692 130 692 C130 692 130 692 132 692 C146 692 163 683 183 671 C208 654 241 634 284 634 C284 634 284 634 285 634 C332 635 375 658 427 707 L360 775 C338 754 308 728 284 728 L284 728 Z " />
<glyph glyph-name="Umacron" unicode="&#x16a;" horiz-adv-x="446" d="M226 955 L115 1002 L79 914 L226 852 L378 918 L340 1004 L226 955 Z M312 184 C312 134 273 95 225 95 L215 95 C166 95 127 134 127 184 L127 809 L33 809 L33 184 C33 83 115 0 215 0 L225 0 C324 0 407 83 407 184 L407 809 L312 809 L312 184 L312 184 Z " />
<glyph glyph-name="umacron" unicode="&#x16b;" horiz-adv-x="391" d="M190 754 L79 800 L41 713 L190 650 L340 715 L302 802 L190 754 Z M276 184 C276 136 245 95 209 95 C172 95 141 136 141 184 L141 583 L46 583 L46 184 C46 83 119 0 209 0 C233 0 256 7 276 17 L276 0 L371 0 L371 184 L371 583 L276 583 L276 184 Z " />
<glyph glyph-name="Ubreve" unicode="&#x16c;" horiz-adv-x="446" d="M312 184 C312 134 273 95 225 95 L215 95 C166 95 127 134 127 184 L127 809 L33 809 L33 184 C33 83 115 0 215 0 L225 0 C324 0 407 83 407 184 L407 809 L312 809 L312 184 L312 184 Z M224 948 C186 948 154 987 154 1035 L59 1035 C59 936 132 853 224 853 C312 853 386 936 386 1035 L290 1035 C290 987 260 948 224 948 L224 948 Z " />
<glyph glyph-name="ubreve" unicode="&#x16d;" horiz-adv-x="412" d="M276 184 C276 136 245 95 209 95 C172 95 141 136 141 184 L141 583 L46 583 L46 184 C46 83 119 0 209 0 C233 0 256 7 276 17 L276 0 L371 0 L371 184 L371 583 L276 583 L276 184 Z M207 724 C169 724 137 763 137 811 L42 811 C42 712 115 629 207 629 C295 629 369 712 369 811 L273 811 C273 763 243 724 207 724 L207 724 Z " />
<glyph glyph-name="Uring" unicode="&#x16e;" horiz-adv-x="446" d="M312 184 C312 134 273 95 225 95 L215 95 C166 95 127 134 127 184 L127 809 L33 809 L33 184 C33 83 115 0 215 0 L225 0 C324 0 407 83 407 184 L407 809 L312 809 L312 184 L312 184 Z M311 908 C311 957 271 997 223 997 C174 997 134 957 134 908 C134 860 174 820 223 820 C271 820 311 860 311 908 L311 908 Z M223 883 C209 883 198 895 198 908 C198 922 209 933 223 933 C237 933 248 922 248 908 C248 895 237 883 223 883 L223 883 Z " />
<glyph glyph-name="uring" unicode="&#x16f;" horiz-adv-x="391" d="M276 184 C276 136 245 95 209 95 C172 95 141 136 141 184 L141 583 L46 583 L46 184 C46 83 119 0 209 0 C233 0 256 7 276 17 L276 0 L371 0 L371 184 L371 583 L276 583 L276 184 Z M282 684 C282 733 242 773 194 773 C145 773 105 733 105 684 C105 636 145 596 194 596 C242 596 282 636 282 684 L282 684 Z M194 659 C180 659 169 671 169 684 C169 698 180 709 194 709 C208 709 219 698 219 684 C219 671 208 659 194 659 L194 659 Z " />
<glyph glyph-name="Uhungarumlaut" unicode="&#x170;" horiz-adv-x="446" d="M312 184 C312 134 273 95 225 95 L215 95 C166 95 127 134 127 184 L127 809 L33 809 L33 184 C33 83 115 0 215 0 L225 0 C324 0 407 83 407 184 L407 809 L312 809 L312 184 L312 184 Z M117 907 L181 907 L220 1039 L141 1039 L117 907 L117 907 Z M225 907 L288 907 L327 1039 L248 1039 L225 907 L225 907 Z " />
<glyph glyph-name="uhungarumlaut" unicode="&#x171;" horiz-adv-x="391" d="M276 184 C276 136 245 95 209 95 C172 95 141 136 141 184 L141 583 L46 583 L46 184 C46 83 119 0 209 0 C233 0 256 7 276 17 L276 0 L371 0 L371 184 L371 583 L276 583 L276 184 Z M90 683 L154 683 L193 815 L114 815 L90 683 L90 683 Z M198 683 L261 683 L300 815 L221 815 L198 683 L198 683 Z " />
<glyph glyph-name="Uogonek" unicode="&#x172;" horiz-adv-x="446" d="M311 809 L311 182 C311 133 272 94 223 94 L214 94 C166 94 126 133 126 182 L126 809 L31 809 L31 182 C31 94 95 20 175 4 C174 -4 168 -11 162 -19 C151 -32 134 -53 134 -84 C134 -144 190 -185 269 -185 L269 -90 C251 -90 239 -86 232 -83 C234 -82 235 -79 236 -78 C250 -62 269 -36 272 6 C349 28 406 98 406 182 L406 809 L311 809 L311 809 Z " />
<glyph glyph-name="uogonek" unicode="&#x173;" horiz-adv-x="391" d="M276 184 C276 136 245 95 209 95 C172 95 141 136 141 184 L141 583 L46 583 L46 184 C46 83 119 0 209 0 C233 0 256 7 276 17 L276 0 L371 0 L371 184 L371 583 L276 583 L276 184 Z M262 1 L356 1 C356 -50 334 -78 320 -97 C318 -98 317 -100 314 -101 C322 -104 334 -108 352 -108 L352 -202 C272 -202 217 -162 217 -102 C217 -72 234 -52 246 -37 C256 -23 262 -17 262 1 L262 1 Z " />
<glyph glyph-name="Ydieresis" unicode="&#x178;" horiz-adv-x="466" d="M235 480 L131 809 L33 809 L190 312 L190 0 L283 0 L283 313 L437 809 L336 809 L235 480 L235 480 Z M277 859 L363 859 L363 948 L277 948 L277 859 L277 859 Z M134 859 L223 859 L223 948 L134 948 L134 859 L134 859 Z " />
<glyph glyph-name="Zacute" unicode="&#x179;" horiz-adv-x="462" d="M65 809 L65 714 L289 714 L33 0 L400 0 L400 95 L167 95 L425 809 L65 809 Z M179 886 L243 886 L282 1018 L203 1018 L179 886 L179 886 Z " />
<glyph glyph-name="zacute" unicode="&#x17a;" horiz-adv-x="388" d="M62 583 L62 488 L230 488 L31 0 L347 0 L347 95 L173 95 L372 583 L62 583 Z M140 662 L204 662 L243 794 L164 794 L140 662 L140 662 Z " />
<glyph glyph-name="Zdotaccent" unicode="&#x17b;" horiz-adv-x="462" d="M65 809 L65 714 L289 714 L33 0 L400 0 L400 95 L167 95 L425 809 L65 809 Z M250 849 C279 849 303 873 303 902 C303 931 279 955 250 955 C221 955 197 931 197 902 C197 873 221 849 250 849 L250 849 Z " />
<glyph glyph-name="zdotaccent" unicode="&#x17c;" horiz-adv-x="388" d="M62 583 L62 488 L230 488 L31 0 L347 0 L347 95 L173 95 L372 583 L62 583 Z M214 703 C243 703 267 727 267 756 C267 785 243 809 214 809 C185 809 161 785 161 756 C161 727 185 703 214 703 L214 703 Z " />
<glyph glyph-name="Zcaron" unicode="&#x17d;" horiz-adv-x="462" d="M65 809 L65 714 L289 714 L33 0 L400 0 L400 95 L167 95 L425 809 L65 809 Z M241 949 L129 996 L92 908 L241 846 L392 912 L354 998 L241 949 L241 949 Z " />
<glyph glyph-name="zcaron" unicode="&#x17e;" horiz-adv-x="388" d="M62 583 L62 488 L230 488 L31 0 L347 0 L347 95 L173 95 L372 583 L62 583 Z M192 757 L80 804 L43 716 L192 654 L343 720 L305 806 L192 757 L192 757 Z " />
<glyph glyph-name="florin" unicode="&#x192;" horiz-adv-x="388" d="M90 630 L90 540 L31 540 L31 445 L90 445 L90 178 C90 121 60 89 43 89 L43 -5 C121 -5 185 77 185 178 L185 445 L274 445 L274 540 L185 540 L185 630 C185 678 217 719 253 719 C270 719 283 710 292 702 L355 774 C325 800 290 814 253 814 C163 814 90 731 90 630 L90 630 Z " />
<glyph glyph-name="Scommaaccent" unicode="&#x218;" horiz-adv-x="449" d="M274 -42 L185 -42 L185 -124 L224 -124 L224 -124 C224 -162 198 -160 198 -160 L198 -191 C276 -191 274 -124 274 -124 L274 -42 Z M249 444 C183 502 126 552 127 635 C127 679 167 714 217 714 C267 714 306 674 306 625 L401 625 C401 726 319 809 217 809 C115 809 34 732 33 635 C31 510 113 438 185 373 C251 313 309 264 306 179 C305 124 276 95 217 95 C169 95 129 134 129 185 L35 185 C35 84 117 0 217 0 C328 0 399 70 401 176 C405 305 321 378 249 444 L249 444 Z " />
<glyph glyph-name="scommaaccent" unicode="&#x219;" horiz-adv-x="368" d="M234 -42 L145 -42 L145 -124 L185 -124 L185 -124 C185 -162 158 -160 158 -160 L158 -191 C236 -191 234 -124 234 -124 L234 -42 Z M212 330 C160 374 125 403 126 446 C126 469 152 487 185 487 C206 487 227 478 236 462 L319 508 C292 554 241 583 185 583 C101 583 32 524 31 449 C30 355 100 301 155 257 C209 212 242 185 241 138 C241 126 241 95 185 95 C161 95 139 108 131 126 L44 88 C67 35 122 0 185 0 C274 0 335 53 337 134 C340 232 269 287 212 330 L212 330 Z " />
<glyph glyph-name="circumflex" unicode="&#x2c6;" horiz-adv-x="415" d="M30 691 L91 619 L205 719 L325 619 L386 692 L205 840 L30 691 Z " />
<glyph glyph-name="caron" unicode="&#x2c7;" horiz-adv-x="371" d="M180 757 L68 804 L31 716 L180 654 L331 720 L293 806 L180 757 L180 757 Z " />
<glyph glyph-name="breve" unicode="&#x2d8;" horiz-adv-x="398" d="M196 724 C158 724 126 763 126 811 L31 811 C31 712 104 629 196 629 C284 629 358 712 358 811 L262 811 C262 763 232 724 196 724 L196 724 Z " />
<glyph glyph-name="dotaccent" unicode="&#x2d9;" horiz-adv-x="169" d="M84 703 C113 703 137 727 137 756 C137 785 113 809 84 809 C55 809 31 785 31 756 C31 727 55 703 84 703 L84 703 Z " />
<glyph glyph-name="ring" unicode="&#x2da;" horiz-adv-x="247" d="M208 684 C208 733 168 773 120 773 C71 773 31 733 31 684 C31 636 71 596 120 596 C168 596 208 636 208 684 L208 684 Z M120 659 C106 659 95 671 95 684 C95 698 106 709 120 709 C134 709 145 698 145 684 C145 671 134 659 120 659 L120 659 Z " />
<glyph glyph-name="ogonek" unicode="&#x2db;" horiz-adv-x="210" d="M76 49 C76 31 70 25 60 11 C48 -4 31 -24 31 -54 C31 -114 86 -154 166 -154 L166 -60 C148 -60 136 -56 128 -53 C131 -52 132 -50 134 -49 C148 -30 170 -2 170 49 L76 49 L76 49 Z " />
<glyph glyph-name="tilde" unicode="&#x2dc;" horiz-adv-x="524" d="M330 728 C316 728 299 738 278 751 C253 767 220 787 175 787 C128 787 83 762 31 712 L100 644 C120 667 151 692 176 692 C176 692 176 692 178 692 C192 692 209 683 229 671 C254 654 287 634 330 634 C330 634 330 634 331 634 C378 635 421 658 473 707 L406 775 C384 754 354 728 330 728 L330 728 Z " />
<glyph glyph-name="hungarumlaut" unicode="&#x2dd;" horiz-adv-x="290" d="M31 683 L95 683 L134 815 L55 815 L31 683 L31 683 Z M139 683 L202 683 L241 815 L162 815 L139 683 L139 683 Z " />
<glyph glyph-name="tonos" unicode="&#x384;" horiz-adv-x="170" d="M31 662 L95 662 L134 794 L55 794 L31 662 L31 662 Z " />
<glyph glyph-name="dieresistonos" unicode="&#x385;" horiz-adv-x="304" d="M174 661 L260 661 L260 750 L174 750 L174 661 L174 661 Z M31 661 L120 661 L120 750 L31 750 L31 661 L31 661 Z " />
<glyph glyph-name="Alphatonos" unicode="&#x386;" horiz-adv-x="458" d="M269 809 L188 809 L31 0 L127 0 L169 214 L289 214 L330 0 L426 0 L269 809 L269 809 Z M188 308 L229 522 L270 308 L188 308 L188 308 Z M57 726 L121 726 L160 858 L81 858 L57 726 L57 726 Z " />
<glyph glyph-name="Epsilontonos" unicode="&#x388;" horiz-adv-x="359" d="M31 0 L319 0 L319 94 L126 94 L126 323 L242 323 L242 418 L126 418 L126 714 L319 714 L319 809 L31 809 L31 0 L31 0 Z M-88 721 L-24 721 L15 853 L-64 853 L-88 721 L-88 721 Z " />
<glyph glyph-name="Etatonos" unicode="&#x389;" horiz-adv-x="430" d="M299 418 L126 418 L126 809 L31 809 L31 -2 L126 -2 L126 323 L299 323 L299 -2 L394 -2 L394 808 L299 808 L299 418 L299 418 Z M-78 756 L-14 756 L25 888 L-54 888 L-78 756 L-78 756 Z " />
<glyph glyph-name="Iotatonos" unicode="&#x38a;" horiz-adv-x="169" d="M31 -2 L126 -2 L126 809 L31 809 L31 -2 L31 -2 Z M-75 753 L-11 753 L28 885 L-51 885 L-75 753 L-75 753 Z " />
<glyph glyph-name="Omicrontonos" unicode="&#x38c;" horiz-adv-x="438" d="M223 809 L215 809 C114 809 31 726 31 625 L31 182 C31 83 114 -1 214 -1 L223 -1 C324 -1 406 83 406 182 L406 625 C406 726 324 809 223 809 L223 809 Z M311 182 C311 133 272 95 223 95 L214 95 C166 95 126 133 126 182 L126 625 C126 674 166 714 214 714 L223 714 C272 714 311 674 311 625 L311 182 L311 182 Z M-36 711 L28 711 L67 843 L-12 843 L-36 711 L-36 711 Z " />
<glyph glyph-name="Upsilontonos" unicode="&#x38e;" horiz-adv-x="466" d="M235 480 L131 810 L31 810 L190 312 L190 -2 L283 -2 L283 313 L436 810 L336 810 L235 480 L235 480 Z M-76 748 L-12 748 L27 880 L-52 880 L-76 748 L-76 748 Z " />
<glyph glyph-name="Omegatonos" unicode="&#x38f;" horiz-adv-x="848" d="M695 462 C667 605 536 722 404 722 C272 722 143 605 118 462 C96 350 122 236 202 108 L31 108 L31 12 L384 12 L329 89 C227 227 190 337 210 445 C228 542 318 628 404 628 C491 628 582 542 600 445 C620 337 584 227 481 89 L426 12 L778 12 L778 108 L608 108 C686 236 714 350 695 462 L695 462 Z " />
<glyph glyph-name="iotadieresistonos" unicode="&#x390;" horiz-adv-x="400" d="M244 646 L331 646 L331 734 L244 734 L244 646 Z M12 646 L101 646 L101 734 L12 734 L12 646 Z M251 101 C244 94 237 92 231 92 C228 92 197 94 197 130 L197 606 L64 606 L64 516 L107 516 L107 130 C107 48 171 4 231 4 C262 4 292 14 315 36 C331 52 351 83 351 130 L261 130 C261 122 259 108 251 101 L251 101 Z M134 698 L198 698 L237 830 L158 830 L134 698 L134 698 Z " />
<glyph glyph-name="Alpha" unicode="&#x391;" horiz-adv-x="458" d="M269 809 L188 809 L31 0 L127 0 L169 214 L289 214 L330 0 L426 0 L269 809 L269 809 Z M188 308 L229 522 L270 308 L188 308 L188 308 Z " />
<glyph glyph-name="Beta" unicode="&#x392;" horiz-adv-x="406" d="M301 491 C331 524 349 569 349 619 L349 623 L348 634 C347 730 276 808 190 808 L31 808 L31 763 L31 714 L31 524 L31 428 L31 92 L31 7 L31 -1 L203 -1 C299 -1 376 78 376 175 L376 347 C376 407 347 460 301 491 L301 491 Z M126 714 L190 714 C224 714 253 674 253 628 L253 624 L256 616 C253 571 224 534 192 534 L126 534 L126 714 L126 714 Z M280 175 C280 130 245 92 203 92 L126 92 L126 428 L203 428 C245 428 280 391 280 347 L280 175 L280 175 Z " />
<glyph glyph-name="Gamma" unicode="&#x393;" horiz-adv-x="355" d="M31 -1 L126 -1 L126 714 L319 714 L319 809 L31 809 L31 -1 L31 -1 Z " />
<glyph glyph-name="&amp;#x394;" unicode="&#x394;" horiz-adv-x="506" d="M284 721 L210 721 L31 -7 L462 -7 L293 684 L284 721 L284 721 Z M152 89 L247 475 L341 89 L152 89 L152 89 Z " />
<glyph glyph-name="&amp;#x2206;" unicode="&#x2206;" horiz-adv-x="506" d="M284 721 L210 721 L31 -7 L462 -7 L293 684 L284 721 L284 721 Z M152 89 L247 475 L341 89 L152 89 L152 89 Z " />
<glyph glyph-name="Epsilon" unicode="&#x395;" horiz-adv-x="359" d="M31 0 L319 0 L319 94 L126 94 L126 323 L242 323 L242 418 L126 418 L126 714 L319 714 L319 809 L31 809 L31 0 L31 0 Z " />
<glyph glyph-name="Zeta" unicode="&#x396;" horiz-adv-x="462" d="M64 809 L64 714 L289 714 L31 -1 L400 -1 L400 94 L166 94 L425 809 L64 809 Z " />
<glyph glyph-name="Eta" unicode="&#x397;" horiz-adv-x="430" d="M299 418 L126 418 L126 809 L31 809 L31 -2 L126 -2 L126 323 L299 323 L299 -2 L394 -2 L394 808 L299 808 L299 418 L299 418 Z " />
<glyph glyph-name="Theta" unicode="&#x398;" horiz-adv-x="438" d="M223 809 L215 809 C114 809 31 726 31 625 L31 182 C31 83 114 -1 214 -1 L223 -1 C324 -1 406 83 406 182 L406 625 C406 726 324 809 223 809 L223 809 Z M214 714 L223 714 C272 714 311 674 311 625 L311 455 L126 455 L126 625 C126 674 166 714 214 714 L214 714 Z M223 95 L214 95 C166 95 126 133 126 182 L126 360 L311 360 L311 182 C311 133 272 95 223 95 L223 95 Z " />
<glyph glyph-name="Iota" unicode="&#x399;" horiz-adv-x="169" d="M31 -2 L126 -2 L126 809 L31 809 L31 -2 L31 -2 Z " />
<glyph glyph-name="Kappa" unicode="&#x39a;" horiz-adv-x="458" d="M314 809 L124 509 L124 809 L31 809 L31 -1 L124 -1 L124 336 L172 413 L323 -1 L420 -1 L234 509 L422 809 L314 809 L314 809 Z " />
<glyph glyph-name="Lambda" unicode="&#x39b;" horiz-adv-x="449" d="M229 520 L330 -1 L426 -1 L270 809 L190 809 L31 -1 L127 -1 L229 520 Z " />
<glyph glyph-name="Mu" unicode="&#x39c;" horiz-adv-x="502" d="M124 808 L124 809 L31 809 L31 808 L31 808 L31 -2 L126 -2 L126 493 L214 227 L288 227 L378 502 L378 -2 L472 -2 L473 808 L473 809 L378 809 L251 418 L124 808 Z " />
<glyph glyph-name="Nu" unicode="&#x39d;" horiz-adv-x="454" d="M331 266 L133 809 L31 809 L31 809 L31 -1 L126 -1 L126 550 L329 -1 L331 -1 L366 -1 L426 -1 L426 809 L331 809 L331 266 L331 266 Z " />
<glyph glyph-name="Xi" unicode="&#x39e;" horiz-adv-x="462" d="M91 360 L396 360 L396 455 L91 455 L91 360 Z M31 716 L426 716 L426 811 L31 811 L31 716 Z M31 1 L426 1 L426 96 L31 96 L31 1 Z " />
<glyph glyph-name="Omicron" unicode="&#x39f;" horiz-adv-x="438" d="M223 809 L215 809 C114 809 31 726 31 625 L31 182 C31 83 114 -1 214 -1 L223 -1 C324 -1 406 83 406 182 L406 625 C406 726 324 809 223 809 L223 809 Z M311 182 C311 133 272 95 223 95 L214 95 C166 95 126 133 126 182 L126 625 C126 674 166 714 214 714 L223 714 C272 714 311 674 311 625 L311 182 L311 182 Z " />
<glyph glyph-name="Pi" unicode="&#x3a0;" horiz-adv-x="571" d="M31 643 L108 643 L108 42 L203 42 L203 643 L348 643 L348 42 L443 42 L443 643 L533 643 L533 738 L31 738 L31 643 L31 643 Z " />
<glyph glyph-name="Rho" unicode="&#x3a1;" horiz-adv-x="415" d="M216 809 L31 809 L31 808 L31 714 L31 380 L31 286 L31 -1 L126 -1 L126 286 L216 286 C311 286 386 365 386 462 L386 634 C386 730 311 809 216 809 L216 809 Z M293 462 C293 416 259 380 216 380 L126 380 L126 714 L216 714 C259 714 293 678 293 634 L293 462 L293 462 Z " />
<glyph glyph-name="Sigma" unicode="&#x3a3;" horiz-adv-x="462" d="M215 352 L31 7 L426 7 L426 102 L190 102 L322 352 L190 601 L426 601 L426 696 L31 696 L215 352 Z " />
<glyph glyph-name="Tau" unicode="&#x3a4;" horiz-adv-x="406" d="M31 714 L152 714 L152 0 L247 0 L247 714 L367 714 L367 809 L31 809 L31 714 L31 714 Z " />
<glyph glyph-name="Upsilon" unicode="&#x3a5;" horiz-adv-x="466" d="M235 480 L131 810 L31 810 L190 312 L190 -2 L283 -2 L283 313 L436 810 L336 810 L235 480 L235 480 Z " />
<glyph glyph-name="Phi" unicode="&#x3a6;" horiz-adv-x="443" d="M266 803 L266 890 L169 890 L169 802 C90 782 31 710 31 625 L31 182 C31 97 90 25 169 5 L169 -86 L266 -86 L266 4 C346 24 406 97 406 182 L406 625 C406 712 347 784 266 803 L266 803 Z M126 182 L126 625 C126 658 143 685 169 702 L169 107 C143 122 126 149 126 182 L126 182 Z M311 182 C311 149 293 121 266 107 L266 702 C293 686 311 659 311 625 L311 182 L311 182 Z " />
<glyph glyph-name="Chi" unicode="&#x3a7;" horiz-adv-x="467" d="M336 809 L234 524 L133 809 L31 809 L182 383 L47 0 L148 0 L234 242 L320 0 L420 0 L284 383 L436 809 L336 809 L336 809 Z " />
<glyph glyph-name="Psi" unicode="&#x3a8;" horiz-adv-x="448" d="M311 809 L311 488 C311 456 293 426 266 412 L266 808 L172 808 L172 412 C144 426 126 456 126 488 L126 809 L31 809 L31 488 C31 403 91 330 172 311 L172 -1 L266 -1 L266 311 C346 330 406 403 406 488 L406 809 L311 809 L311 809 Z " />
<glyph glyph-name="&amp;#x3a9;" unicode="&#x3a9;" horiz-adv-x="828" d="M695 462 C667 605 536 722 404 722 C272 722 143 605 118 462 C96 350 122 236 202 108 L31 108 L31 12 L384 12 L329 89 C227 227 190 337 210 445 C228 542 318 628 404 628 C491 628 582 542 600 445 C620 337 584 227 481 89 L426 12 L778 12 L778 108 L608 108 C686 236 714 350 695 462 L695 462 Z " />
<glyph glyph-name="&amp;#x2126;" unicode="&#x2126;" horiz-adv-x="828" d="M695 462 C667 605 536 722 404 722 C272 722 143 605 118 462 C96 350 122 236 202 108 L31 108 L31 12 L384 12 L329 89 C227 227 190 337 210 445 C228 542 318 628 404 628 C491 628 582 542 600 445 C620 337 584 227 481 89 L426 12 L778 12 L778 108 L608 108 C686 236 714 350 695 462 L695 462 Z " />
<glyph glyph-name="Iotadieresis" unicode="&#x3aa;" horiz-adv-x="169" d="M31 -2 L126 -2 L126 809 L31 809 L31 -2 L31 -2 Z M112 885 L198 885 L198 974 L112 974 L112 885 L112 885 Z M-31 885 L58 885 L58 974 L-31 974 L-31 885 L-31 885 Z " />
<glyph glyph-name="Upsilondieresis" unicode="&#x3ab;" horiz-adv-x="470" d="M235 480 L131 810 L31 810 L190 312 L190 -2 L283 -2 L283 313 L436 810 L336 810 L235 480 Z M265 841 L351 841 L351 930 L265 930 L265 841 L265 841 Z M122 841 L211 841 L211 930 L122 930 L122 841 L122 841 Z " />
<glyph glyph-name="alphatonos" unicode="&#x3ac;" horiz-adv-x="700" d="M517 103 C516 103 508 110 497 131 C491 149 484 172 476 197 C482 209 488 221 494 233 C541 348 563 482 563 557 L474 557 C474 505 461 427 438 350 C430 384 418 416 402 445 C364 520 308 557 239 557 C178 557 124 520 86 452 C59 398 41 328 41 258 C41 211 48 146 83 89 C118 34 169 4 233 4 C300 4 362 36 415 98 C415 97 415 96 416 95 C439 41 474 12 517 12 C565 12 644 32 644 169 L554 169 C554 103 536 103 517 103 L517 103 Z M233 94 C137 94 132 230 132 258 C132 313 144 368 166 409 C181 436 205 467 239 467 C316 467 343 368 377 232 C378 224 379 217 380 209 C343 142 293 94 233 94 L233 94 Z M297 662 L361 662 L400 794 L321 794 L297 662 L297 662 Z " />
<glyph glyph-name="epsilontonos" unicode="&#x3ad;" horiz-adv-x="418" d="M132 428 C132 473 161 511 198 511 C232 511 260 473 260 428 L353 428 C353 524 282 602 198 602 C110 602 41 524 41 428 L41 383 L41 220 L41 173 C41 77 110 0 198 0 C282 0 353 77 353 173 L260 173 C260 128 232 90 198 90 C161 90 132 128 132 173 L132 220 L132 250 L312 250 L312 341 L132 341 L132 383 L132 428 L132 428 Z M157 662 L221 662 L260 794 L181 794 L157 662 L157 662 Z " />
<glyph glyph-name="etatonos" unicode="&#x3ae;" horiz-adv-x="396" d="M196 583 C170 583 148 577 126 565 L126 583 L31 583 L31 401 L31 41 L31 -1 L126 -1 L126 41 L126 401 C126 448 158 487 196 487 C232 487 262 448 262 401 L262 -164 L358 -164 L358 401 C358 502 284 583 196 583 L196 583 Z M145 662 L209 662 L248 794 L169 794 L145 662 L145 662 Z " />
<glyph glyph-name="iotatonos" unicode="&#x3af;" horiz-adv-x="358" d="M228 101 C221 94 214 92 208 92 C205 92 174 94 174 130 L174 606 L41 606 L41 516 L84 516 L84 130 C84 48 148 4 208 4 C239 4 269 14 292 36 C308 52 328 83 328 130 L238 130 C238 122 236 108 228 101 L228 101 Z M126 662 L190 662 L229 794 L150 794 L126 662 L126 662 Z " />
<glyph glyph-name="upsilondieresistonos" unicode="&#x3b0;" horiz-adv-x="848" d="M347 536 C402 412 397 241 337 148 C314 112 284 91 253 88 C245 107 228 160 209 306 C197 408 190 505 190 506 L184 565 L41 517 L71 431 L103 443 C107 398 114 332 122 266 C133 197 142 142 154 101 C162 67 181 -5 236 -5 C307 -5 370 31 412 98 C491 218 497 419 428 572 L347 536 L347 536 Z M371 622 L458 622 L458 710 L371 710 L371 622 Z M91 622 L180 622 L180 710 L91 710 L91 622 Z M235 662 L299 662 L338 794 L259 794 L235 662 L235 662 Z " />
<glyph glyph-name="alpha" unicode="&#x3b1;" horiz-adv-x="700" d="M517 103 C516 103 508 110 497 131 C491 149 484 172 476 197 C482 209 488 221 494 233 C541 348 563 482 563 557 L474 557 C474 505 461 427 438 350 C430 384 418 416 402 445 C364 520 308 557 239 557 C178 557 124 520 86 452 C59 398 41 328 41 258 C41 211 48 146 83 89 C118 34 169 4 233 4 C300 4 362 36 415 98 C415 97 415 96 416 95 C439 41 474 12 517 12 C565 12 644 32 644 169 L554 169 C554 103 536 103 517 103 L517 103 Z M233 94 C137 94 132 230 132 258 C132 313 144 368 166 409 C181 436 205 467 239 467 C316 467 343 368 377 232 C378 224 379 217 380 209 C343 142 293 94 233 94 L233 94 Z " />
<glyph glyph-name="beta" unicode="&#x3b2;" horiz-adv-x="468" d="M342 485 C336 490 329 496 322 500 C353 527 378 565 384 619 C397 732 346 787 313 810 C259 848 182 852 121 821 C64 791 31 738 31 673 L31 -154 L126 -154 L126 673 C126 708 148 727 166 737 C196 752 233 750 259 733 C292 709 294 665 290 631 C284 596 268 571 236 554 C209 540 182 536 181 536 C180 535 180 535 180 535 L190 442 C191 442 191 442 192 443 C199 443 245 445 281 413 C317 380 335 324 335 245 C335 176 322 128 296 103 C269 76 224 77 190 78 C184 79 179 79 173 79 L173 -16 C176 -16 181 -16 188 -16 C194 -16 202 -17 210 -17 C254 -17 316 -11 362 36 C407 79 430 148 430 245 C430 353 400 433 342 485 L342 485 Z " />
<glyph glyph-name="gamma" unicode="&#x3b3;" horiz-adv-x="596" d="M475 600 C419 533 376 450 342 355 C323 434 296 493 260 529 C229 564 190 583 145 583 C98 583 71 563 55 545 C17 504 22 446 22 439 L112 448 C112 452 112 474 121 485 C122 486 128 492 145 492 C164 492 180 485 196 468 C244 415 276 286 284 100 C286 96 286 91 286 89 C270 -67 284 -186 284 -190 L374 -188 C374 -184 383 -60 377 85 C391 218 432 406 545 541 L475 600 L475 600 Z " />
<glyph glyph-name="delta" unicode="&#x3b4;" horiz-adv-x="428" d="M305 353 C199 445 188 499 193 511 C196 517 206 522 227 522 C290 522 306 493 307 492 C306 493 306 493 306 493 L389 529 C376 560 326 612 227 612 C169 612 125 586 109 544 C97 511 97 464 140 400 C97 344 67 290 53 242 C37 188 38 139 58 98 C86 38 150 4 233 4 C304 4 364 43 386 107 C418 186 385 283 305 353 L305 353 Z M301 138 C292 109 268 95 233 95 C186 95 151 110 139 138 C119 179 142 248 199 328 C214 314 229 300 245 286 C308 230 316 172 301 138 L301 138 Z " />
<glyph glyph-name="epsilon" unicode="&#x3b5;" horiz-adv-x="418" d="M132 428 C132 473 161 511 198 511 C232 511 260 473 260 428 L353 428 C353 524 282 602 198 602 C110 602 41 524 41 428 L41 383 L41 220 L41 173 C41 77 110 0 198 0 C282 0 353 77 353 173 L260 173 C260 128 232 90 198 90 C161 90 132 128 132 173 L132 220 L132 250 L312 250 L312 341 L132 341 L132 383 L132 428 L132 428 Z " />
<glyph glyph-name="zeta" unicode="&#x3b6;" horiz-adv-x="571" d="M342 83 C331 83 322 83 312 83 C257 83 216 82 200 97 C172 130 178 271 187 406 C190 438 196 464 202 490 C240 491 286 503 337 524 C448 577 450 634 442 662 C432 704 385 730 328 722 C275 719 221 690 181 643 C170 629 160 616 150 600 C133 623 131 664 133 679 L86 683 L42 686 C41 674 35 568 109 516 C110 515 113 514 114 511 C106 481 101 446 97 412 C79 174 88 86 136 36 C178 -10 236 -10 313 -8 C323 -8 332 -8 342 -8 C414 -8 442 -32 442 -41 C440 -48 414 -67 347 -67 L347 -157 C400 -157 443 -148 476 -130 C512 -108 533 -74 533 -41 C533 19 474 83 342 83 L342 83 Z M299 623 C317 631 331 635 343 635 C335 628 319 618 299 607 C284 601 269 595 257 590 C274 608 288 618 299 623 L299 623 Z " />
<glyph glyph-name="eta" unicode="&#x3b7;" horiz-adv-x="396" d="M196 583 C170 583 148 577 126 565 L126 583 L31 583 L31 401 L31 41 L31 -1 L126 -1 L126 41 L126 401 C126 448 158 487 196 487 C232 487 262 448 262 401 L262 -164 L358 -164 L358 401 C358 502 284 583 196 583 L196 583 Z " />
<glyph glyph-name="theta" unicode="&#x3b8;" horiz-adv-x="383" d="M196 583 C104 583 31 502 31 401 L31 181 C31 82 104 -1 196 -1 C284 -1 358 82 358 181 L358 401 C358 502 284 583 196 583 L196 583 Z M196 487 C232 487 262 448 262 401 L262 336 L126 336 L126 401 C126 448 158 487 196 487 L196 487 Z M196 94 C158 94 126 133 126 181 L126 241 L262 241 L262 181 C262 133 232 94 196 94 L196 94 Z " />
<glyph glyph-name="iota" unicode="&#x3b9;" horiz-adv-x="358" d="M228 101 C221 94 214 92 208 92 C205 92 174 94 174 130 L174 606 L41 606 L41 516 L84 516 L84 130 C84 48 148 4 208 4 C239 4 269 14 292 36 C308 52 328 83 328 130 L238 130 C238 122 236 108 228 101 L228 101 Z " />
<glyph glyph-name="kappa" unicode="&#x3ba;" horiz-adv-x="466" d="M318 583 L149 371 L149 590 L56 590 L56 -1 L149 -1 L149 224 L209 304 L365 0 L462 0 L276 388 L426 583 L318 583 L318 583 Z " />
<glyph glyph-name="lambda" unicode="&#x3bb;" horiz-adv-x="658" d="M475 208 C432 286 395 386 360 478 C334 548 311 612 288 654 C230 758 161 754 134 745 C77 731 31 667 31 595 L121 595 C121 626 140 655 157 659 C170 662 191 643 209 611 C229 575 252 511 276 445 C282 428 289 410 295 392 L80 1 L180 1 L341 276 C359 236 378 198 397 163 C458 53 522 0 595 0 L595 90 C560 90 517 130 475 208 L475 208 Z " />
<glyph glyph-name="nu" unicode="&#x3bd;" horiz-adv-x="377" d="M253 580 L191 272 L127 580 L31 580 L150 0 L232 0 L349 580 L253 580 L253 580 Z " />
<glyph glyph-name="xi" unicode="&#x3be;" horiz-adv-x="576" d="M342 83 C331 83 322 83 312 83 C257 83 216 82 200 97 C181 118 178 182 180 260 L371 260 L371 350 L182 350 C184 367 186 386 187 406 C190 438 196 464 202 490 C240 491 286 503 337 524 C448 577 450 634 442 662 C432 704 385 730 328 722 C275 719 221 690 181 643 C170 629 160 616 150 600 C133 623 131 664 133 679 L86 683 L42 686 C41 674 35 568 109 516 C110 515 113 514 114 511 C106 481 101 446 97 412 C79 174 88 86 136 36 C178 -10 236 -10 313 -8 C323 -8 332 -8 342 -8 C414 -8 442 -32 442 -41 C440 -48 414 -67 347 -67 L347 -157 C400 -157 443 -148 476 -130 C512 -108 533 -74 533 -41 C533 19 474 83 342 83 L342 83 Z M299 623 C317 631 331 635 343 635 C335 628 319 618 299 607 C284 601 269 595 257 590 C274 608 288 618 299 623 L299 623 Z " />
<glyph glyph-name="omicron" unicode="&#x3bf;" horiz-adv-x="391" d="M196 583 C104 583 31 502 31 401 L31 181 C31 82 104 -1 196 -1 C284 -1 358 82 358 181 L358 401 C358 502 284 583 196 583 L196 583 Z M262 181 C262 133 232 94 196 94 C158 94 126 133 126 181 L126 401 C126 448 158 487 196 487 C232 487 262 448 262 401 L262 181 Z " />
<glyph glyph-name="pi" unicode="&#x3c0;" horiz-adv-x="670" d="M628 497 C474 582 388 552 312 526 C245 504 192 485 78 548 L31 464 C80 438 122 424 160 415 L160 42 L254 42 L254 413 C287 418 316 427 342 437 C362 444 379 449 398 454 L398 42 L494 42 L494 451 C520 445 548 432 582 414 L628 497 L628 497 Z " />
<glyph glyph-name="rho" unicode="&#x3c1;" horiz-adv-x="396" d="M198 583 C173 583 148 577 126 564 L126 583 L31 583 L31 -170 L126 -170 L126 18 C148 7 173 0 198 0 C287 0 360 83 360 182 L360 401 C360 502 287 583 198 583 L198 583 Z M265 182 C265 134 235 95 198 95 C160 95 130 134 130 182 L130 401 C130 448 160 488 198 488 C235 488 265 448 265 401 L265 182 L265 182 Z " />
<glyph glyph-name="sigma1" unicode="&#x3c2;" horiz-adv-x="556" d="M252 592 C140 581 46 464 41 332 C40 264 62 202 107 152 C158 96 233 59 331 43 C359 38 379 25 383 4 C386 -12 379 -28 366 -37 C340 -54 284 -53 205 2 L154 -72 C226 -122 284 -138 329 -138 C371 -138 401 -122 416 -113 C461 -83 482 -29 472 24 C458 82 412 122 344 132 C205 155 128 227 132 329 C134 414 196 496 260 502 C310 506 347 498 371 474 C418 427 410 341 410 340 L456 335 L499 330 C499 335 512 461 436 538 C391 581 330 600 252 592 L252 592 Z " />
<glyph glyph-name="sigma" unicode="&#x3c3;" horiz-adv-x="466" d="M41 386 L41 178 C41 83 110 4 198 4 C282 4 353 83 353 178 L353 386 C353 416 346 445 332 469 L431 469 L431 562 L198 562 C110 562 41 484 41 386 L41 386 Z M260 386 L260 178 C260 132 232 94 198 94 C161 94 132 132 132 178 L132 386 C132 432 161 469 198 469 C232 469 260 432 260 386 L260 386 Z " />
<glyph glyph-name="tau" unicode="&#x3c4;" horiz-adv-x="220" d="M-47 532 L76 532 L76 -28 L170 -28 L170 626 L-47 626 L-47 532 L-47 532 Z " />
<glyph glyph-name="upsilon" unicode="&#x3c5;" horiz-adv-x="515" d="M347 536 C402 412 397 241 337 148 C314 112 284 91 253 88 C245 107 228 160 209 306 C197 408 190 505 190 506 L184 565 L41 517 L71 431 L103 443 C107 398 114 332 122 266 C133 197 142 142 154 101 C162 67 181 -5 236 -5 C307 -5 370 31 412 98 C491 218 497 419 428 572 L347 536 Z " />
<glyph glyph-name="phi" unicode="&#x3c6;" horiz-adv-x="398" d="M196 583 C104 583 31 502 31 401 L31 181 C31 82 104 -1 196 -1 C284 -1 358 82 358 181 L358 401 C358 502 284 583 196 583 L196 583 Z M262 181 C262 133 232 94 196 94 C158 94 126 133 126 181 L126 401 C126 448 158 487 196 487 C232 487 262 448 262 401 L262 181 Z M150 -70 L245 -70 L245 638 L150 638 L150 -70 Z " />
<glyph glyph-name="chi" unicode="&#x3c7;" horiz-adv-x="474" d="M317 584 L227 390 L136 584 L31 584 L174 283 L38 0 L142 0 L227 175 L312 0 L418 0 L278 283 L421 584 L317 584 L317 584 Z " />
<glyph glyph-name="psi" unicode="&#x3c8;" horiz-adv-x="443" d="M311 583 L311 264 C311 230 293 202 266 186 L266 582 L172 582 L172 186 C144 202 126 230 126 264 L126 583 L31 583 L31 264 C31 178 91 106 172 85 L172 -227 L266 -227 L266 85 C346 106 406 178 406 264 L406 583 L311 583 L311 583 Z " />
<glyph glyph-name="omega" unicode="&#x3c9;" horiz-adv-x="754" d="M571 578 L508 514 C619 402 640 252 602 162 C592 133 562 85 503 85 C497 85 491 88 481 96 C458 122 442 176 432 241 C439 314 434 406 419 510 L329 505 C329 503 324 416 332 317 C335 288 338 263 340 239 C335 185 319 143 299 116 C278 96 256 85 222 85 C193 85 169 103 152 137 C113 217 126 367 229 502 L158 556 C101 481 62 396 48 311 C35 230 42 154 71 97 C103 32 158 -5 222 -5 C281 -5 331 17 366 59 C372 66 378 73 384 83 C395 62 404 47 418 34 C442 10 472 -5 503 -5 C584 -5 652 43 686 127 C713 191 718 270 698 348 C679 434 635 514 571 578 L571 578 Z " />
<glyph glyph-name="iotadieresis" unicode="&#x3ca;" horiz-adv-x="358" d="M228 101 C221 94 214 92 208 92 C205 92 174 94 174 130 L174 606 L41 606 L41 516 L84 516 L84 130 C84 48 148 4 208 4 C239 4 269 14 292 36 C308 52 328 83 328 130 L238 130 C238 122 236 108 228 101 L228 101 Z M146 661 L232 661 L232 750 L146 750 L146 661 L146 661 Z M3 661 L92 661 L92 750 L3 750 L3 661 L3 661 Z " />
<glyph glyph-name="upsilondieresis" unicode="&#x3cb;" horiz-adv-x="515" d="M347 536 C402 412 397 241 337 148 C314 112 284 91 253 88 C245 107 228 160 209 306 C197 408 190 505 190 506 L184 565 L41 517 L71 431 L103 443 C107 398 114 332 122 266 C133 197 142 142 154 101 C162 67 181 -5 236 -5 C307 -5 370 31 412 98 C491 218 497 419 428 572 L347 536 Z M284 661 L370 661 L370 750 L284 750 L284 661 L284 661 Z M141 661 L230 661 L230 750 L141 750 L141 661 L141 661 Z " />
<glyph glyph-name="omicrontonos" unicode="&#x3cc;" horiz-adv-x="391" d="M196 583 C104 583 31 502 31 401 L31 181 C31 82 104 -1 196 -1 C284 -1 358 82 358 181 L358 401 C358 502 284 583 196 583 L196 583 Z M262 181 C262 133 232 94 196 94 C158 94 126 133 126 181 L126 401 C126 448 158 487 196 487 C232 487 262 448 262 401 L262 181 Z M143 662 L207 662 L246 794 L167 794 L143 662 L143 662 Z " />
<glyph glyph-name="upsilontonos" unicode="&#x3cd;" horiz-adv-x="533" d="M347 536 C402 412 397 241 337 148 C314 112 284 91 253 88 C245 107 228 160 209 306 C197 408 190 505 190 506 L184 565 L41 517 L71 431 L103 443 C107 398 114 332 122 266 C133 197 142 142 154 101 C162 67 181 -5 236 -5 C307 -5 370 31 412 98 C491 218 497 419 428 572 L347 536 Z M224 632 L288 632 L327 764 L248 764 L224 632 L224 632 Z " />
<glyph glyph-name="omegatonos" unicode="&#x3ce;" horiz-adv-x="848" d="M571 578 L508 514 C619 402 640 252 602 162 C592 133 562 85 503 85 C497 85 491 88 481 96 C458 122 442 176 432 241 C439 314 434 406 419 510 L329 505 C329 503 324 416 332 317 C335 288 338 263 340 239 C335 185 319 143 299 116 C278 96 256 85 222 85 C193 85 169 103 152 137 C113 217 126 367 229 502 L158 556 C101 481 62 396 48 311 C35 230 42 154 71 97 C103 32 158 -5 222 -5 C281 -5 331 17 366 59 C372 66 378 73 384 83 C395 62 404 47 418 34 C442 10 472 -5 503 -5 C584 -5 652 43 686 127 C713 191 718 270 698 348 C679 434 635 514 571 578 L571 578 Z M318 764 L329 632 L392 632 L398 764 L318 764 Z " />
<glyph glyph-name="afii10023" unicode="&#x401;" horiz-adv-x="359" d="M31 0 L319 0 L319 94 L126 94 L126 323 L242 323 L242 418 L126 418 L126 714 L319 714 L319 809 L31 809 L31 0 L31 0 Z M206 885 L292 885 L292 974 L206 974 L206 885 L206 885 Z M63 885 L152 885 L152 974 L63 974 L63 885 L63 885 Z " />
<glyph glyph-name="afii10051" unicode="&#x402;" horiz-adv-x="431" d="M211 583 C186 583 163 577 142 565 L142 714 L283 714 L283 809 L4 809 L4 714 L48 714 L48 401 L48 184 L48 -2 L142 -2 L142 270 L142 270 L142 401 C142 448 174 487 211 487 C247 487 278 448 278 401 L278 184 C278 134 247 95 211 95 C205 95 199 96 193 98 L193 1 C199 0 205 0 211 0 C300 0 373 83 373 184 L373 401 C373 502 300 583 211 583 L211 583 Z " />
<glyph glyph-name="afii10052" unicode="&#x403;" horiz-adv-x="352" d="M31 -1 L126 -1 L126 714 L319 714 L319 809 L31 809 L31 -1 Z M140 860 L203 860 L244 992 L163 992 L140 860 Z " />
<glyph glyph-name="afii10053" unicode="&#x404;" horiz-adv-x="418" d="M212 812 C126 812 58 734 58 640 L58 535 C58 485 78 438 109 406 C78 374 58 328 58 277 L58 173 C58 77 126 -1 212 -1 L380 -1 L380 89 L212 89 C178 89 148 128 148 173 L148 277 C148 323 178 360 212 360 L322 360 L322 361 L322 450 L322 451 L212 451 C178 451 148 490 148 535 L148 640 C148 683 178 722 212 722 L380 722 L380 812 L212 812 L212 812 Z " />
<glyph glyph-name="afii10054" unicode="&#x405;" horiz-adv-x="449" d="M247 444 C181 502 126 552 126 635 C126 679 166 714 217 714 C266 714 306 674 306 625 L401 625 C401 726 318 809 217 809 C114 809 32 732 31 635 C31 510 112 438 184 373 C251 313 308 263 306 178 C305 122 276 94 217 94 C168 94 127 133 127 184 L34 184 C34 83 116 -1 217 -1 C326 -1 397 68 401 175 C403 304 320 378 247 444 L247 444 Z " />
<glyph glyph-name="afii10055" unicode="&#x406;" horiz-adv-x="169" d="M31 -2 L126 -2 L126 809 L31 809 L31 -2 L31 -2 Z " />
<glyph glyph-name="Yi" unicode="&#x407;" horiz-adv-x="178" d="M31 -2 L126 -2 L126 809 L31 809 L31 -2 Z M114 848 L202 848 L202 938 L114 938 L114 848 Z M-28 848 L61 848 L61 938 L-28 938 L-28 848 Z " />
<glyph glyph-name="afii10057" unicode="&#x408;" horiz-adv-x="470" d="M323 187 C323 136 283 92 235 92 C186 92 146 136 146 187 L146 373 L52 373 L52 187 C52 83 134 -1 235 -1 C336 -1 418 83 418 187 L418 809 L323 809 L323 187 L323 187 Z " />
<glyph glyph-name="afii10058" unicode="&#x409;" horiz-adv-x="718" d="M498 553 L434 553 L434 809 L210 811 L210 134 C210 98 180 97 176 97 C172 97 163 98 157 104 C149 112 148 125 148 134 L58 134 C58 86 78 56 95 40 C115 19 144 7 176 7 C236 7 300 52 300 134 L300 722 L344 722 L344 1 L389 1 L389 -1 L498 -1 C584 -1 655 77 655 173 L655 380 C655 476 584 553 498 553 L498 553 Z M564 173 C564 128 535 89 498 89 L434 89 L434 463 L498 463 C535 463 564 425 564 380 L564 173 L564 173 Z " />
<glyph glyph-name="afii10059" unicode="&#x40a;" horiz-adv-x="707" d="M480 553 L434 553 L434 769 L344 769 L344 553 L300 553 L300 769 L210 769 L210 134 C210 98 180 97 176 97 C172 97 163 98 157 104 C149 112 148 125 148 134 L58 134 C58 86 78 56 95 40 C115 19 144 7 176 7 C236 7 300 52 300 134 L300 463 L344 463 L344 1 L389 1 L389 -1 L498 -1 C584 -1 655 77 655 173 L655 380 C655 476 576 553 480 553 L480 553 Z M564 173 C564 128 535 89 498 89 L434 89 L434 463 L480 463 C527 463 564 426 564 380 L564 173 L564 173 Z " />
<glyph glyph-name="afii10060" unicode="&#x40b;" horiz-adv-x="472" d="M260 416 C236 416 215 410 196 401 L196 504 L312 504 L312 594 L58 594 L58 504 L104 504 L104 244 L104 38 L104 -1 L196 -1 L196 38 L196 244 C196 288 224 326 260 326 C295 326 324 288 324 244 L324 0 L415 0 L415 244 C415 338 346 416 260 416 L260 416 Z " />
<glyph glyph-name="afii10061" unicode="&#x40c;" horiz-adv-x="458" d="M314 809 L124 509 L124 809 L31 809 L31 -1 L124 -1 L124 336 L172 413 L323 -1 L420 -1 L234 509 L422 809 L314 809 L314 809 Z M177 886 L241 886 L280 1018 L201 1018 L177 886 L177 886 Z " />
<glyph glyph-name="afii10062" unicode="&#x40e;" horiz-adv-x="472" d="M235 480 L131 810 L31 810 L190 312 L190 -2 L283 -2 L283 313 L436 810 L336 810 L235 480 Z M235 922 C198 922 166 961 166 1009 L71 1009 C71 910 144 827 235 827 C324 827 397 910 397 1009 L301 1009 C301 961 271 922 235 922 L235 922 Z " />
<glyph glyph-name="afii10145" unicode="&#x40f;" horiz-adv-x="547" d="M390 248 L148 248 L148 774 L58 774 L58 160 L223 160 L223 -1 L314 -1 L314 160 L480 160 L480 780 L390 780 L390 248 L390 248 Z " />
<glyph glyph-name="afii10017" unicode="&#x410;" horiz-adv-x="458" d="M269 809 L188 809 L31 0 L127 0 L169 214 L289 214 L330 0 L426 0 L269 809 L269 809 Z M188 308 L229 522 L270 308 L188 308 L188 308 Z " />
<glyph glyph-name="afii10018" unicode="&#x411;" horiz-adv-x="437" d="M204 371 L148 371 L148 514 L306 514 L306 604 L58 604 L58 1 L102 1 L102 -1 L212 -1 C298 -1 366 77 366 173 L366 197 C366 293 294 371 204 371 L204 371 Z M276 173 C276 128 247 89 212 89 L148 89 L148 281 L204 281 C245 281 276 244 276 197 L276 173 L276 173 Z " />
<glyph glyph-name="afii10019" unicode="&#x412;" horiz-adv-x="406" d="M301 491 C331 524 349 569 349 619 L349 623 L348 634 C347 730 276 808 190 808 L31 808 L31 763 L31 714 L31 524 L31 428 L31 92 L31 7 L31 -1 L203 -1 C299 -1 376 78 376 175 L376 347 C376 407 347 460 301 491 L301 491 Z M126 714 L190 714 C224 714 253 674 253 628 L253 624 L256 616 C253 571 224 534 192 534 L126 534 L126 714 L126 714 Z M280 175 C280 130 245 92 203 92 L126 92 L126 428 L203 428 C245 428 280 391 280 347 L280 175 L280 175 Z " />
<glyph glyph-name="afii10020" unicode="&#x413;" horiz-adv-x="456" d="M395 782 L58 782 L58 -1 L148 -1 L148 692 L395 692 L395 782 L395 782 Z " />
<glyph glyph-name="afii10021" unicode="&#x414;" horiz-adv-x="769" d="M656 810 L256 810 L256 764 C256 695 248 540 220 406 C191 268 146 186 102 186 L58 186 L58 -1 L148 -1 L148 96 L616 96 L616 -1 L706 -1 L706 186 L656 186 L656 810 L656 810 Z M242 194 C269 241 292 306 308 386 C331 500 342 628 346 721 L568 721 L568 186 L238 186 C239 188 240 192 242 194 L242 194 Z " />
<glyph glyph-name="afii10022" unicode="&#x415;" horiz-adv-x="359" d="M31 0 L319 0 L319 94 L126 94 L126 323 L242 323 L242 418 L126 418 L126 714 L319 714 L319 809 L31 809 L31 0 L31 0 Z " />
<glyph glyph-name="afii10024" unicode="&#x416;" horiz-adv-x="779" d="M734 809 L626 809 L437 509 L437 809 L437 809 L344 809 L344 809 L344 509 L155 809 L46 809 L235 509 L48 -1 L145 -1 L298 413 L344 336 L344 -1 L344 -1 L437 -1 L437 -1 L437 336 L484 413 L635 -1 L734 -1 L546 509 L734 809 L734 809 Z " />
<glyph glyph-name="afii10025" unicode="&#x417;" horiz-adv-x="431" d="M217 812 L58 812 L58 722 L217 722 C252 722 281 683 281 640 L281 535 C281 490 252 451 217 451 L107 451 L107 450 L107 361 L107 360 L217 360 C252 360 281 323 281 277 L281 173 C281 128 252 89 217 89 L58 89 L58 -1 L217 -1 C301 -1 371 77 371 173 L371 277 C371 328 352 374 319 406 C352 438 371 485 371 535 L371 640 C371 734 301 812 217 812 L217 812 Z " />
<glyph glyph-name="afii10026" unicode="&#x418;" horiz-adv-x="454" d="M126 266 L126 809 L31 809 L31 -1 L92 -1 L126 -1 L130 -1 L331 550 L331 -1 L426 -1 L426 809 L426 809 L325 809 L126 266 L126 266 Z " />
<glyph glyph-name="afii10027" unicode="&#x419;" horiz-adv-x="418" d="M126 235 L271 589 L372 589 L372 589 L372 589 L372 -1 L277 -1 L277 371 L126 0 L126 -1 L126 -1 L86 -1 L31 -1 L31 589 L126 589 L126 235 Z M208 724 C170 724 138 763 138 811 L43 811 C43 712 116 629 208 629 C296 629 370 712 370 811 L274 811 C274 763 244 724 208 724 L208 724 Z " />
<glyph glyph-name="afii10028" unicode="&#x41a;" horiz-adv-x="458" d="M314 809 L124 509 L124 809 L31 809 L31 -1 L124 -1 L124 336 L172 413 L323 -1 L420 -1 L234 509 L422 809 L314 809 L314 809 Z " />
<glyph glyph-name="afii10029" unicode="&#x41b;" horiz-adv-x="601" d="M209 778 L163 778 L163 194 C163 134 131 89 102 89 L58 89 L58 -1 L102 -1 C144 -1 185 23 214 62 C239 98 253 146 253 194 L253 688 L457 688 L457 4 L546 4 L546 778 L253 778 L209 778 L209 778 Z " />
<glyph glyph-name="afii10030" unicode="&#x41c;" horiz-adv-x="502" d="M124 808 L124 809 L31 809 L31 808 L31 808 L31 -2 L126 -2 L126 493 L214 227 L288 227 L378 502 L378 -2 L472 -2 L473 808 L473 809 L378 809 L251 418 L124 808 Z " />
<glyph glyph-name="afii10031" unicode="&#x41d;" horiz-adv-x="430" d="M299 418 L126 418 L126 809 L31 809 L31 -2 L126 -2 L126 323 L299 323 L299 -2 L394 -2 L394 808 L299 808 L299 418 L299 418 Z " />
<glyph glyph-name="afii10032" unicode="&#x41e;" horiz-adv-x="438" d="M223 809 L215 809 C114 809 31 726 31 625 L31 182 C31 83 114 -1 214 -1 L223 -1 C324 -1 406 83 406 182 L406 625 C406 726 324 809 223 809 L223 809 Z M311 182 C311 133 272 95 223 95 L214 95 C166 95 126 133 126 182 L126 625 C126 674 166 714 214 714 L223 714 C272 714 311 674 311 625 L311 182 L311 182 Z " />
<glyph glyph-name="afii10033" unicode="&#x41f;" horiz-adv-x="502" d="M58 774 L58 -1 L148 -1 L148 683 L349 683 L349 8 L439 8 L439 774 L58 774 Z " />
<glyph glyph-name="afii10034" unicode="&#x420;" horiz-adv-x="415" d="M216 809 L31 809 L31 808 L31 714 L31 380 L31 286 L31 -1 L126 -1 L126 286 L216 286 C311 286 386 365 386 462 L386 634 C386 730 311 809 216 809 L216 809 Z M293 462 C293 416 259 380 216 380 L126 380 L126 714 L216 714 C259 714 293 678 293 634 L293 462 L293 462 Z " />
<glyph glyph-name="afii10035" unicode="&#x421;" horiz-adv-x="437" d="M214 714 L223 714 C246 714 269 706 284 689 C296 678 304 665 308 650 L398 677 C390 707 374 734 352 756 C317 791 271 809 223 809 L214 809 C114 809 31 727 31 626 L31 182 C31 83 114 0 214 0 L223 0 C300 0 370 49 395 121 L306 152 C293 118 260 95 223 95 L214 95 C166 95 126 134 126 182 L126 626 C126 674 166 714 214 714 L214 714 Z " />
<glyph glyph-name="afii10036" unicode="&#x422;" horiz-adv-x="406" d="M31 714 L152 714 L152 0 L247 0 L247 714 L367 714 L367 809 L31 809 L31 714 L31 714 Z " />
<glyph glyph-name="afii10037" unicode="&#x423;" horiz-adv-x="443" d="M292 181 C292 133 260 92 224 92 C187 92 157 133 157 181 L157 583 L61 583 L61 181 C61 80 134 -1 224 -1 C248 -1 271 5 292 16 L292 10 C292 -37 260 -78 224 -78 C206 -78 194 -70 186 -62 L122 -133 C151 -158 188 -173 224 -173 C314 -173 386 -91 386 10 L386 583 L292 583 L292 181 Z " />
<glyph glyph-name="afii10038" unicode="&#x424;" horiz-adv-x="438" d="M266 803 L266 890 L169 890 L169 802 C90 782 31 710 31 625 L31 182 C31 97 90 25 169 5 L169 -86 L266 -86 L266 4 C346 24 406 97 406 182 L406 625 C406 712 347 784 266 803 L266 803 Z M126 182 L126 625 C126 658 143 685 169 702 L169 107 C143 122 126 149 126 182 L126 182 Z M311 182 C311 149 293 121 266 107 L266 702 C293 686 311 659 311 625 L311 182 L311 182 Z " />
<glyph glyph-name="afii10039" unicode="&#x425;" horiz-adv-x="467" d="M336 809 L234 524 L133 809 L31 809 L182 383 L47 0 L148 0 L234 242 L320 0 L420 0 L284 383 L436 809 L336 809 L336 809 Z " />
<glyph glyph-name="afii10040" unicode="&#x426;" horiz-adv-x="635" d="M468 769 L378 769 L378 91 L371 91 L148 91 L148 769 L58 769 L58 1 L371 1 L468 1 L490 1 L490 -91 L580 -91 L580 91 L468 91 L468 769 L468 769 Z " />
<glyph glyph-name="afii10041" unicode="&#x427;" horiz-adv-x="506" d="M358 770 L358 388 C358 342 319 305 275 305 L230 305 C184 305 148 342 148 388 L148 808 L58 808 L58 388 C58 292 134 215 230 215 L275 215 C304 215 332 222 358 235 L358 -1 L448 -1 L448 388 L448 770 L448 809 L358 809 L358 770 L358 770 Z " />
<glyph glyph-name="afii10042" unicode="&#x428;" horiz-adv-x="607" d="M472 89 L355 89 L355 809 L264 809 L264 89 L148 89 L148 808 L58 808 L58 -1 L560 -1 L560 808 L472 808 L472 89 L472 89 Z " />
<glyph glyph-name="afii10043" unicode="&#x429;" horiz-adv-x="730" d="M560 809 L472 809 L472 91 L355 91 L355 811 L264 811 L264 91 L148 91 L148 809 L58 809 L58 1 L481 1 L560 1 L576 1 L576 -91 L667 -91 L667 91 L560 91 L560 809 L560 809 Z " />
<glyph glyph-name="afii10044" unicode="&#x42a;" horiz-adv-x="515" d="M302 463 L245 463 L245 773 L58 773 L58 683 L156 683 L156 1 L199 1 L199 -1 L310 -1 C395 -1 466 77 466 173 L466 289 C466 385 392 463 302 463 L302 463 Z M376 173 C376 128 346 89 310 89 L245 89 L245 373 L302 373 C342 373 376 335 376 289 L376 173 L376 173 Z " />
<glyph glyph-name="afii10045" unicode="&#x42b;" horiz-adv-x="605" d="M236 -1 C331 -1 407 78 407 175 L407 347 C407 445 331 524 236 524 L146 524 L146 809 L52 809 L52 524 L52 428 L52 94 L52 1 L52 -1 L236 -1 Z M313 175 C313 130 278 94 236 94 L146 94 L146 428 L236 428 C278 428 313 391 313 347 L313 175 Z M450 -2 L545 -2 L545 809 L450 809 L450 -2 Z " />
<glyph glyph-name="afii10046" unicode="&#x42c;" horiz-adv-x="455" d="M236 -1 C331 -1 407 78 407 175 L407 347 C407 445 331 524 236 524 L146 524 L146 809 L52 809 L52 524 L52 428 L52 94 L52 1 L52 -1 L236 -1 Z M313 347 L313 175 C313 130 278 94 236 94 L146 94 L146 428 L236 428 C278 428 313 391 313 347 L313 347 Z " />
<glyph glyph-name="afii10047" unicode="&#x42d;" horiz-adv-x="497" d="M350 556 L350 493 L350 424 L96 424 L96 334 L350 334 L350 277 L350 216 C350 148 304 89 250 89 C194 89 148 148 148 216 L58 216 C58 97 143 -1 250 -1 C355 -1 440 97 440 216 L440 277 L440 493 L440 556 C440 674 355 770 250 770 C143 770 58 674 58 556 L148 556 C148 623 194 682 250 682 C304 682 350 623 350 556 L350 556 Z " />
<glyph glyph-name="afii10048" unicode="&#x42e;" horiz-adv-x="596" d="M379 806 C294 806 224 730 224 634 L224 425 L148 425 L148 808 L58 808 L58 4 L148 4 L148 335 L224 335 L224 173 C224 77 294 -1 379 -1 C466 -1 535 77 535 173 L535 634 C535 730 466 806 379 806 L379 806 Z M444 173 C444 128 415 89 379 89 C344 89 316 128 316 173 L316 634 C316 679 344 716 379 716 C415 716 444 679 444 634 L444 173 L444 173 Z " />
<glyph glyph-name="afii10049" unicode="&#x42f;" horiz-adv-x="425" d="M90 332 C55 299 31 251 31 198 L31 0 L126 0 L126 198 C126 247 166 287 215 287 L295 287 L295 -1 L390 -1 L390 287 L390 382 L390 714 L390 809 L295 809 L205 809 C110 809 35 730 35 634 L35 462 C35 410 56 365 90 332 L90 332 Z M128 462 L128 634 C128 678 163 714 205 714 L295 714 L295 382 L205 382 C163 382 128 418 128 462 L128 462 Z " />
<glyph glyph-name="afii10065" unicode="&#x430;" horiz-adv-x="400" d="M223 583 L220 583 L220 583 C142 581 82 521 82 448 L178 448 C178 469 198 486 221 488 C245 486 265 467 265 443 L265 404 C244 415 220 422 196 422 C104 422 31 341 31 240 L31 184 C31 83 104 0 196 0 C220 0 244 7 264 18 L264 -1 L359 -1 L360 443 C360 518 300 581 223 583 L223 583 Z M262 184 C262 134 232 95 196 95 C158 95 126 134 126 184 L126 240 C126 287 158 328 196 328 C232 328 262 287 262 240 L262 184 L262 184 Z " />
<glyph glyph-name="afii10066" unicode="&#x431;" horiz-adv-x="418" d="M202 583 C108 583 31 502 31 401 L31 199 L31 196 L31 187 C31 86 108 4 202 4 C298 4 373 86 373 187 L373 187 C373 190 373 193 373 196 L373 199 C373 300 298 383 202 383 C175 383 149 374 126 362 L126 401 C126 449 160 488 202 488 C245 488 278 449 278 401 L373 401 C373 502 298 583 202 583 L202 583 Z M278 199 L278 196 C278 148 245 108 202 108 C160 108 126 148 126 196 L126 199 C126 247 160 287 202 287 C245 287 278 247 278 199 L278 199 Z " />
<glyph glyph-name="afii10067" unicode="&#x432;" horiz-adv-x="352" d="M269 322 C292 350 305 388 305 428 C305 514 244 583 168 583 L126 583 L126 583 L31 583 L31 364 L31 353 L31 268 L31 258 L31 98 L31 10 L31 4 L179 4 C259 4 325 70 325 154 L325 203 C325 250 302 294 269 322 L269 322 Z M126 487 L168 487 C191 487 210 461 210 428 C210 392 187 364 168 364 L126 364 L126 487 Z M230 154 C230 122 206 98 179 98 L126 98 L126 258 L179 258 C206 258 230 233 230 203 L230 154 Z " />
<glyph glyph-name="afii10068" unicode="&#x433;" horiz-adv-x="365" d="M305 587 L58 587 L58 -1 L148 -1 L148 497 L305 497 L305 587 L305 587 Z " />
<glyph glyph-name="afii10069" unicode="&#x434;" horiz-adv-x="667" d="M572 599 L222 599 L222 554 C222 504 216 392 193 296 C170 203 137 148 102 148 L58 148 L58 -1 L148 -1 L148 58 L522 58 L522 -1 L613 -1 L613 148 L572 148 L572 599 L572 599 Z M280 276 C299 354 308 443 312 509 L481 509 L481 148 L233 148 C252 181 269 224 280 276 L280 276 Z " />
<glyph glyph-name="afii10070" unicode="&#x435;" horiz-adv-x="391" d="M196 583 C104 583 31 502 31 400 L31 182 C31 82 104 -1 196 -1 C284 -1 358 82 358 182 L262 182 C262 134 232 94 196 94 C158 94 126 134 126 182 L126 272 L358 272 L358 400 C358 502 284 583 196 583 L196 583 Z M262 367 L126 367 L126 400 C126 448 158 487 196 487 C232 487 262 448 262 400 L262 367 L262 367 Z " />
<glyph glyph-name="afii10072" unicode="&#x436;" horiz-adv-x="704" d="M542 588 L386 344 L386 588 L385 588 L299 588 L298 588 L298 344 L140 588 L38 588 L192 346 L65 -1 L158 -1 L252 254 L298 182 L298 -1 L299 -1 L385 -1 L386 -1 L386 182 L432 254 L526 -1 L618 -1 L491 346 L647 588 L542 588 L542 588 Z " />
<glyph glyph-name="afii10073" unicode="&#x437;" horiz-adv-x="403" d="M355 426 C355 522 286 599 200 599 L52 599 L52 509 L200 509 C236 509 265 470 265 426 C265 383 236 344 200 344 L91 344 L91 343 L91 254 L91 253 L200 253 C236 253 265 216 265 170 C265 127 236 89 200 89 L52 89 L52 -1 L200 -1 C286 -1 355 76 355 170 C355 222 336 266 305 299 C336 330 355 376 355 426 L355 426 Z " />
<glyph glyph-name="afii10074" unicode="&#x438;" horiz-adv-x="407" d="M126 589 L31 589 L31 -1 L86 -1 L126 -1 L126 -1 L126 0 L277 371 L277 -1 L372 -1 L372 589 L372 589 L372 589 L271 589 L126 235 L126 589 Z " />
<glyph glyph-name="afii10075" unicode="&#x439;" horiz-adv-x="407" d="M126 235 L271 589 L372 589 L372 589 L372 589 L372 -1 L277 -1 L277 371 L126 0 L126 -1 L126 -1 L86 -1 L31 -1 L31 589 L126 589 L126 235 Z M206 724 C168 724 136 763 136 811 L41 811 C41 712 114 629 206 629 C294 629 368 712 368 811 L272 811 C272 763 242 724 206 724 L206 724 Z " />
<glyph glyph-name="afii10076" unicode="&#x43a;" horiz-adv-x="414" d="M269 584 L124 359 L124 583 L31 583 L31 -2 L124 -2 L124 187 L172 263 L268 0 L365 0 L234 360 L378 584 L269 584 Z " />
<glyph glyph-name="afii10077" unicode="&#x43b;" horiz-adv-x="610" d="M209 600 L163 600 L163 194 C163 134 131 89 102 89 L58 89 L58 -1 L102 -1 C144 -1 185 23 214 62 C239 98 253 146 253 194 L253 509 L457 509 L457 4 L546 4 L546 600 L253 600 L209 600 L209 600 Z " />
<glyph glyph-name="afii10078" unicode="&#x43c;" horiz-adv-x="848" d="M216 276 L126 580 L124 587 L124 588 L31 588 L31 587 L31 587 L31 566 L31 1 L122 1 L122 312 L187 109 L253 109 L317 319 L317 1 L412 1 L412 574 L412 587 L412 588 L317 588 L216 276 Z " />
<glyph glyph-name="afii10079" unicode="&#x43d;" horiz-adv-x="815" d="M242 317 L124 317 L124 592 L29 592 L29 1 L124 1 L124 222 L242 222 L242 1 L337 1 L337 592 L242 592 L242 317 Z " />
<glyph glyph-name="afii10080" unicode="&#x43e;" horiz-adv-x="391" d="M196 583 C104 583 31 502 31 401 L31 181 C31 82 104 -1 196 -1 C284 -1 358 82 358 181 L358 401 C358 502 284 583 196 583 L196 583 Z M262 181 C262 133 232 94 196 94 C158 94 126 133 126 181 L126 401 C126 448 158 487 196 487 C232 487 262 448 262 401 L262 181 Z " />
<glyph glyph-name="afii10081" unicode="&#x43f;" horiz-adv-x="440" d="M31 583 L31 0 L126 0 L126 487 L299 487 L299 0 L394 0 L394 583 L31 583 Z " />
<glyph glyph-name="afii10082" unicode="&#x440;" horiz-adv-x="396" d="M198 583 C173 583 148 577 126 564 L126 583 L31 583 L31 -170 L126 -170 L126 18 C148 7 173 0 198 0 C287 0 360 83 360 182 L360 401 C360 502 287 583 198 583 L198 583 Z M265 182 C265 134 235 95 198 95 C160 95 130 134 130 182 L130 401 C130 448 160 488 198 488 C235 488 265 448 265 401 L265 182 L265 182 Z " />
<glyph glyph-name="afii10083" unicode="&#x441;" horiz-adv-x="352" d="M196 487 C214 487 232 478 245 460 L322 515 C292 558 245 583 196 583 C104 583 31 502 31 401 L31 182 C31 82 104 0 196 0 C244 0 289 24 319 67 L244 122 C230 106 214 94 196 94 C158 94 126 134 126 182 L126 401 C126 448 158 487 196 487 L196 487 Z " />
<glyph glyph-name="afii10084" unicode="&#x442;" horiz-adv-x="347" d="M31 493 L128 493 L128 -1 L222 -1 L222 493 L318 493 L318 588 L31 588 L31 493 Z " />
<glyph glyph-name="afii10085" unicode="&#x443;" horiz-adv-x="398" d="M262 181 C262 133 232 92 196 92 C158 92 126 133 126 181 L126 583 L31 583 L31 181 C31 80 104 -1 196 -1 C220 -1 241 5 262 16 L262 10 C262 -37 232 -78 196 -78 C178 -78 164 -70 157 -62 L94 -133 C121 -158 158 -173 196 -173 C284 -173 358 -91 358 10 L358 583 L262 583 L262 181 Z " />
<glyph glyph-name="afii10086" unicode="&#x444;" horiz-adv-x="620" d="M424 552 C402 552 380 547 362 539 L362 785 L272 785 L272 533 C252 545 228 552 202 552 C118 552 48 474 48 379 L48 170 C48 76 118 -2 202 -2 C228 -2 252 5 272 18 L272 -156 L362 -156 L362 12 C380 4 402 -2 424 -2 C510 -2 578 76 578 170 L578 379 C578 474 510 552 424 552 L424 552 Z M266 170 C266 127 236 89 202 89 C167 89 138 127 138 170 L138 379 C138 424 167 462 202 462 C236 462 266 424 266 379 L266 170 L266 170 Z M490 170 C490 127 458 89 424 89 C396 89 371 113 362 146 L362 406 C371 438 396 462 424 462 C458 462 490 424 490 379 L490 170 L490 170 Z " />
<glyph glyph-name="afii10087" unicode="&#x445;" horiz-adv-x="466" d="M317 584 L227 390 L136 584 L31 584 L174 283 L38 0 L142 0 L227 175 L312 0 L418 0 L278 283 L421 584 L317 584 L317 584 Z " />
<glyph glyph-name="afii10088" unicode="&#x446;" horiz-adv-x="563" d="M414 584 L324 584 L324 91 L323 91 L142 91 L142 584 L52 584 L52 1 L323 1 L414 1 L418 1 L418 -91 L508 -91 L508 91 L414 91 L414 584 L414 584 Z " />
<glyph glyph-name="afii10089" unicode="&#x447;" horiz-adv-x="484" d="M322 553 L322 298 C322 251 284 214 239 214 L230 214 C184 214 148 251 148 298 L148 589 L58 589 L58 298 C58 202 134 124 230 124 L239 124 C269 124 298 131 322 146 L322 -1 L412 -1 L412 298 L412 553 L412 592 L322 592 L322 553 L322 553 Z " />
<glyph glyph-name="afii10090" unicode="&#x448;" horiz-adv-x="620" d="M472 89 L355 89 L355 584 L264 584 L264 89 L148 89 L148 583 L58 583 L58 -1 L560 -1 L560 583 L472 583 L472 89 L472 89 Z " />
<glyph glyph-name="afii10091" unicode="&#x449;" horiz-adv-x="683" d="M541 586 L451 586 L451 91 L335 91 L335 587 L245 587 L245 91 L127 91 L127 586 L38 586 L38 1 L458 1 L541 1 L552 1 L552 -91 L642 -91 L642 91 L541 91 L541 586 L541 586 Z " />
<glyph glyph-name="afii10092" unicode="&#x44a;" horiz-adv-x="520" d="M302 355 L245 355 L245 604 L58 604 L58 515 L156 515 L156 1 L199 1 L199 -1 L310 -1 C395 -1 466 77 466 173 L466 181 C466 277 392 355 302 355 L302 355 Z M376 173 C376 128 346 89 310 89 L245 89 L245 265 L302 265 C342 265 376 227 376 181 L376 173 L376 173 Z " />
<glyph glyph-name="afii10093" unicode="&#x44b;" horiz-adv-x="587" d="M236 -1 C331 -1 407 78 407 175 L407 239 C407 335 331 414 236 414 L146 414 L146 594 L52 594 L52 414 L52 319 L52 94 L52 1 L52 -1 L236 -1 Z M313 175 C313 130 278 94 236 94 L146 94 L146 319 L236 319 C278 319 313 283 313 239 L313 175 Z M450 -2 L545 -2 L545 593 L450 593 L450 -2 Z " />
<glyph glyph-name="afii10094" unicode="&#x44c;" horiz-adv-x="402" d="M204 463 L148 463 L148 809 L58 809 L58 1 L102 1 L102 -1 L212 -1 C298 -1 366 77 366 173 L366 289 C366 385 294 463 204 463 L204 463 Z M276 173 C276 128 247 89 212 89 L148 89 L148 373 L204 373 C245 373 276 335 276 289 L276 173 L276 173 Z " />
<glyph glyph-name="afii10095" unicode="&#x44d;" horiz-adv-x="428" d="M276 426 L276 382 L276 340 L97 340 L97 248 L276 248 L276 218 L276 173 C276 128 246 89 212 89 C176 89 148 128 148 173 L58 173 C58 77 126 -1 212 -1 C298 -1 366 77 366 173 L366 218 L366 382 L366 426 C366 523 298 601 212 601 C126 601 58 523 58 426 L148 426 C148 472 176 510 212 510 C246 510 276 472 276 426 L276 426 Z " />
<glyph glyph-name="afii10096" unicode="&#x44e;" horiz-adv-x="571" d="M360 612 C278 612 214 535 214 439 L214 348 L148 348 L148 604 L58 604 L58 12 L148 12 L148 258 L214 258 L214 173 C214 77 278 -1 360 -1 C442 -1 508 77 508 173 L508 439 C508 535 442 612 360 612 L360 612 Z M418 173 C418 128 391 89 360 89 C330 89 302 128 302 173 L302 439 C302 485 330 523 360 523 C391 523 418 485 418 439 L418 173 L418 173 Z " />
<glyph glyph-name="afii10097" unicode="&#x44f;" horiz-adv-x="368" d="M34 346 C34 304 52 264 79 236 C49 204 31 157 31 107 L31 -1 L126 -1 L126 107 C126 154 157 194 192 194 L245 194 L245 -1 L340 -1 L340 194 L340 289 L340 488 L340 583 L340 583 L181 583 C101 583 34 516 34 431 L34 346 Z M127 431 C127 463 151 488 181 488 L245 488 L245 289 L181 289 C151 289 127 314 127 346 L127 431 Z " />
<glyph glyph-name="afii10071" unicode="&#x451;" horiz-adv-x="391" d="M196 583 C104 583 31 502 31 400 L31 182 C31 82 104 -1 196 -1 C284 -1 358 82 358 182 L262 182 C262 134 232 94 196 94 C158 94 126 134 126 182 L126 272 L358 272 L358 400 C358 502 284 583 196 583 L196 583 Z M262 367 L126 367 L126 400 C126 448 158 487 196 487 C232 487 262 448 262 400 L262 367 Z M222 622 L311 622 L311 710 L222 710 L222 622 Z M80 622 L169 622 L169 710 L80 710 L80 622 Z " />
<glyph glyph-name="afii10099" unicode="&#x452;" horiz-adv-x="472" d="M260 558 C236 558 215 553 196 542 L196 613 L312 613 L312 703 L196 703 L196 773 L104 773 L104 703 L58 703 L58 613 L104 613 L104 385 L104 42 L104 4 L196 4 L196 42 L196 385 C196 430 224 468 260 468 C295 468 324 430 324 385 L324 41 C324 -5 292 -43 250 -43 L250 -132 C340 -132 415 -54 415 41 L415 385 C415 481 346 558 260 558 L260 558 Z " />
<glyph glyph-name="afii10100" unicode="&#x453;" horiz-adv-x="319" d="M31 2 L126 2 L126 490 L280 490 L280 583 L31 583 L31 2 Z M131 635 L193 635 L234 768 L154 768 L131 635 Z " />
<glyph glyph-name="afii10101" unicode="&#x454;" horiz-adv-x="386" d="M31 426 C31 376 52 330 82 299 C52 266 31 222 31 170 C31 76 101 -1 186 -1 L336 -1 L336 89 L186 89 C151 89 121 127 121 170 C121 216 151 253 186 253 L296 253 L296 254 L296 343 L296 344 L186 344 C151 344 121 383 121 426 C121 470 151 509 186 509 L336 509 L336 599 L186 599 C101 599 31 522 31 426 L31 426 Z " />
<glyph glyph-name="afii10102" unicode="&#x455;" horiz-adv-x="368" d="M214 330 C160 374 126 403 126 446 C126 469 152 487 185 487 C206 487 227 478 236 462 L318 508 C292 554 240 583 185 583 C101 583 32 524 31 449 C31 355 100 301 155 257 C209 212 242 184 241 137 C241 125 240 94 185 94 C160 94 139 107 131 125 L44 86 C67 34 122 -1 185 -1 C275 -1 335 52 337 133 C340 230 269 287 214 330 L214 330 Z " />
<glyph glyph-name="afii10103" unicode="&#x456;" horiz-adv-x="163" d="M31 -2 L126 -2 L126 583 L31 583 L31 -2 L31 -2 Z M31 626 L126 626 L126 724 L31 724 L31 626 L31 626 Z " />
<glyph glyph-name="afii10104" unicode="&#x457;" horiz-adv-x="220" d="M65 0 L160 0 L160 583 L65 583 L65 0 Z M138 661 L224 661 L224 750 L138 750 L138 661 L138 661 Z M-5 661 L84 661 L84 750 L-5 750 L-5 661 L-5 661 Z " />
<glyph glyph-name="afii10105" unicode="&#x458;" horiz-adv-x="227" d="M71 626 L166 626 L166 724 L71 724 L71 626 L71 626 Z M71 10 C71 -37 40 -78 1 -78 C-16 -78 -28 -70 -36 -62 L-98 -133 C-71 -158 -35 -173 1 -173 C92 -173 166 -91 166 10 L166 583 L71 583 L71 10 L71 10 Z " />
<glyph glyph-name="afii10106" unicode="&#x459;" horiz-adv-x="718" d="M498 463 L434 463 L434 593 L210 594 L210 134 C210 98 180 97 176 97 C172 97 163 98 157 104 C149 112 148 125 148 134 L58 134 C58 86 78 56 95 40 C115 19 144 7 176 7 C236 7 300 52 300 134 L300 504 L344 504 L344 1 L389 1 L389 -1 L498 -1 C584 -1 655 77 655 173 L655 289 C655 385 584 463 498 463 L498 463 Z M564 173 C564 128 535 89 498 89 L434 89 L434 373 L498 373 C535 373 564 335 564 289 L564 173 L564 173 Z " />
<glyph glyph-name="afii10107" unicode="&#x45a;" horiz-adv-x="704" d="M480 463 L434 463 L434 589 L344 589 L344 463 L300 463 L300 590 L210 590 L210 134 C210 98 180 97 176 97 C172 97 163 98 157 104 C149 112 148 125 148 134 L58 134 C58 86 78 56 95 40 C115 19 144 7 176 7 C236 7 300 52 300 134 L300 373 L344 373 L344 1 L389 1 L389 -1 L498 -1 C584 -1 655 77 655 173 L655 289 C655 385 576 463 480 463 L480 463 Z M564 173 C564 128 535 89 498 89 L434 89 L434 373 L480 373 C527 373 564 335 564 289 L564 173 Z " />
<glyph glyph-name="afii10108" unicode="&#x45b;" horiz-adv-x="470" d="M260 556 C236 556 215 548 196 540 L196 622 L312 622 L312 712 L196 712 L196 769 L104 769 L104 712 L58 712 L58 622 L104 622 L104 383 L104 38 L104 -1 L196 -1 L196 38 L196 383 C196 426 224 464 260 464 C295 464 324 426 324 383 L324 0 L415 0 L415 383 C415 478 346 556 260 556 L260 556 Z " />
<glyph glyph-name="afii10109" unicode="&#x45c;" horiz-adv-x="414" d="M269 584 L124 359 L124 583 L31 583 L31 -2 L124 -2 L124 187 L172 263 L268 0 L365 0 L234 360 L378 584 L269 584 Z M155 662 L219 662 L258 794 L179 794 L155 662 L155 662 Z " />
<glyph glyph-name="afii10110" unicode="&#x45e;" horiz-adv-x="398" d="M262 181 C262 133 232 92 196 92 C158 92 126 133 126 181 L126 583 L31 583 L31 181 C31 80 104 -1 196 -1 C220 -1 241 5 262 16 L262 10 C262 -37 232 -78 196 -78 C178 -78 164 -70 157 -62 L94 -133 C121 -158 158 -173 196 -173 C284 -173 358 -91 358 10 L358 583 L262 583 L262 181 Z M200 724 C162 724 130 763 130 811 L35 811 C35 712 108 629 200 629 C288 629 362 712 362 811 L266 811 C266 763 236 724 200 724 L200 724 Z " />
<glyph glyph-name="afii10193" unicode="&#x45f;" horiz-adv-x="547" d="M390 248 L148 248 L148 594 L58 594 L58 160 L223 160 L223 -1 L314 -1 L314 160 L480 160 L480 600 L390 600 L390 248 L390 248 Z " />
<glyph glyph-name="afii10050" unicode="&#x490;" horiz-adv-x="488" d="M349 720 L58 720 L58 -1 L148 -1 L148 629 L439 629 L439 778 L349 778 L349 720 L349 720 Z " />
<glyph glyph-name="afii10098" unicode="&#x491;" horiz-adv-x="481" d="M349 594 L58 594 L58 -1 L148 -1 L148 504 L439 504 L439 652 L349 652 L349 594 L349 594 Z " />
<glyph glyph-name="endash" unicode="&#x2013;" horiz-adv-x="454" d="M31 360 L418 360 L418 455 L31 455 L31 360 L31 360 Z " />
<glyph glyph-name="emdash" unicode="&#x2014;" horiz-adv-x="643" d="M31 360 L616 360 L616 455 L31 455 L31 360 L31 360 Z " />
<glyph glyph-name="afii00208" unicode="&#x2015;" horiz-adv-x="643" d="M31 360 L616 360 L616 455 L31 455 L31 360 L31 360 Z " />
<glyph glyph-name="quoteleft" unicode="&#x2018;" horiz-adv-x="154" d="M31 738 L31 654 L120 654 L120 738 L80 738 L80 738 C80 776 107 772 107 772 L107 803 C30 803 31 738 31 738 L31 738 Z " />
<glyph glyph-name="quoteright" unicode="&#x2019;" horiz-adv-x="148" d="M44 691 L44 660 C121 660 120 726 120 726 L120 809 L31 809 L31 726 L71 726 L71 726 C71 688 44 691 44 691 L44 691 Z " />
<glyph glyph-name="quotesinglbase" unicode="&#x201a;" horiz-adv-x="152" d="M120 83 L31 83 L31 1 L71 1 L71 1 C71 -37 44 -35 44 -35 L44 -67 C121 -67 120 1 120 1 L120 83 Z " />
<glyph glyph-name="quotedblleft" unicode="&#x201c;" horiz-adv-x="265" d="M223 778 L223 809 C146 809 149 743 149 743 L149 660 L236 660 L236 743 L198 743 L198 743 C198 781 223 778 223 778 L223 778 Z M107 778 L107 809 C30 809 31 743 31 743 L31 660 L120 660 L120 743 L80 743 L80 743 C80 781 107 778 107 778 L107 778 Z " />
<glyph glyph-name="quotedblright" unicode="&#x201d;" horiz-adv-x="278" d="M120 726 L120 809 L31 809 L31 726 L71 726 L71 726 C71 688 44 691 44 691 L44 660 C121 660 120 726 120 726 L120 726 Z M236 809 L149 809 L149 726 L188 726 L188 726 C188 688 161 691 161 691 L161 660 C239 660 236 726 236 726 L236 809 L236 809 Z " />
<glyph glyph-name="quotedblbase" unicode="&#x201e;" horiz-adv-x="283" d="M240 83 L151 83 L151 1 L191 1 L191 1 C191 -37 166 -35 166 -35 L166 -67 C241 -67 240 1 240 1 L240 83 L240 83 Z M120 83 L31 83 L31 1 L71 1 L71 1 C71 -37 44 -35 44 -35 L44 -67 C121 -67 120 1 120 1 L120 83 L120 83 Z " />
<glyph glyph-name="dagger" unicode="&#x2020;" horiz-adv-x="391" d="M247 804 L152 804 L152 632 L31 632 L31 538 L152 538 L152 -2 L247 -2 L247 538 L356 538 L356 632 L247 632 L247 804 L247 804 Z " />
<glyph glyph-name="daggerdbl" unicode="&#x2021;" horiz-adv-x="398" d="M247 804 L152 804 L152 632 L31 632 L31 538 L152 538 L152 424 L31 424 L31 328 L152 328 L152 -2 L247 -2 L247 328 L356 328 L356 424 L247 424 L247 538 L356 538 L356 632 L247 632 L247 804 L247 804 Z " />
<glyph glyph-name="bullet" unicode="&#x2022;" horiz-adv-x="169" d="M84 476 C55 476 31 452 31 422 C31 394 55 370 84 370 C113 370 137 394 137 422 C137 452 113 476 84 476 L84 476 Z " />
<glyph glyph-name="onedotenleader" unicode="&#x2024;" horiz-adv-x="160" d="M31 1 L120 1 L120 90 L31 90 L31 1 L31 1 Z " />
<glyph glyph-name="twodotenleader" unicode="&#x2025;" horiz-adv-x="319" d="M31 1 L120 1 L120 90 L31 90 L31 1 L31 1 Z M191 1 L280 1 L280 90 L191 90 L191 1 L191 1 Z " />
<glyph glyph-name="ellipsis" unicode="&#x2026;" horiz-adv-x="446" d="M31 -4 L120 -4 L120 85 L31 85 L31 -4 L31 -4 Z M178 -4 L265 -4 L265 85 L178 85 L178 -4 L178 -4 Z M322 -4 L410 -4 L410 85 L322 85 L322 -4 L322 -4 Z " />
<glyph glyph-name="perthousand" unicode="&#x2030;" horiz-adv-x="1171" d="M358 533 L358 629 C358 730 284 811 196 811 C104 811 31 730 31 629 L31 533 C31 432 104 352 196 352 C284 352 358 432 358 533 L358 533 Z M262 533 C262 485 232 445 196 445 C158 445 126 485 126 533 L126 629 C126 677 158 716 196 716 C232 716 262 677 262 629 L262 533 L262 533 Z M635 463 C545 463 472 383 472 281 L472 186 C472 85 545 4 635 4 C725 4 797 85 797 186 L797 281 C797 383 725 463 635 463 L635 463 Z M702 186 C702 138 671 98 635 98 C596 98 566 138 566 186 L566 281 C566 328 596 368 635 368 C671 368 702 328 702 281 L702 186 L702 186 Z M977 463 C887 463 812 383 812 281 L812 186 C812 85 887 4 977 4 C1067 4 1139 85 1139 186 L1139 281 C1139 383 1067 463 977 463 L977 463 Z M1045 186 C1045 138 1013 98 977 98 C940 98 908 138 908 186 L908 281 C908 328 940 368 977 368 C1013 368 1045 328 1045 281 L1045 186 L1045 186 Z M527 811 L242 4 L337 4 L622 811 L527 811 L527 811 Z " />
<glyph glyph-name="guilsinglleft" unicode="&#x2039;" horiz-adv-x="283" d="M250 564 L169 613 L31 394 L168 169 L250 218 L142 392 L250 564 L250 564 Z " />
<glyph glyph-name="guilsinglright" unicode="&#x203a;" horiz-adv-x="290" d="M31 564 L139 392 L31 218 L113 169 L250 394 L112 613 L31 564 L31 564 Z " />
<glyph glyph-name="fraction" unicode="&#x2044;" horiz-adv-x="560" d="M31 4 L126 4 L410 811 L316 811 L31 4 Z " />
<glyph glyph-name="zerosuperior" unicode="&#x2070;" horiz-adv-x="344" d="M187 917 L151 917 C98 917 56 880 56 822 L56 574 C56 521 98 479 151 479 L187 479 C240 479 282 521 282 574 L282 822 C282 875 240 917 187 917 L187 917 Z M220 574 C220 556 205 542 187 542 L151 542 C133 542 119 556 119 574 L119 822 C119 840 133 853 151 853 L187 853 C205 853 220 840 220 822 L220 574 L220 574 Z " />
<glyph glyph-name="foursuperior" unicode="&#x2074;" horiz-adv-x="336" d="M256 917 L190 917 L56 619 L192 619 L192 479 L256 479 L256 619 L292 619 L292 683 L256 683 L256 917 L256 917 Z M192 683 L154 683 L192 768 L192 683 L192 683 Z " />
<glyph glyph-name="fivesuperior" unicode="&#x2075;" horiz-adv-x="300" d="M206 787 C185 803 160 809 130 805 L130 853 L232 853 L232 917 L67 917 L67 722 L108 737 C136 745 156 745 169 736 C187 724 198 689 198 640 C198 604 192 541 157 541 C146 541 134 550 127 564 C122 574 119 586 119 598 L56 598 C56 575 61 553 72 534 C90 499 122 479 157 479 C190 479 216 494 234 521 C252 548 260 587 260 640 C260 712 242 761 206 787 L206 787 Z " />
<glyph glyph-name="sixsuperior" unicode="&#x2076;" horiz-adv-x="407" d="M150 854 C166 854 180 834 180 812 L242 812 C242 869 200 917 150 917 C98 917 56 869 56 812 L56 684 L56 581 L56 578 C56 565 59 552 64 541 C78 504 112 479 150 479 C187 479 221 504 235 541 C240 552 242 565 242 578 L242 684 C242 737 200 779 150 779 C139 779 128 776 119 774 L119 812 C119 834 133 854 150 854 L150 854 Z M150 715 C166 715 180 702 180 684 L180 581 C180 575 179 570 176 564 C172 554 161 547 150 547 C138 547 127 554 122 564 C120 570 119 575 119 581 L119 684 C119 702 133 715 150 715 L150 715 Z " />
<glyph glyph-name="sevensuperior" unicode="&#x2077;" horiz-adv-x="330" d="M56 917 L56 854 L175 854 C140 786 84 649 84 479 L148 479 C148 703 256 866 256 868 L289 917 L56 917 L56 917 Z " />
<glyph glyph-name="eightsuperior" unicode="&#x2078;" horiz-adv-x="325" d="M228 760 C241 775 250 797 250 820 C250 872 209 917 157 917 C107 917 65 872 65 820 C65 797 73 775 86 760 C68 742 56 716 56 690 L56 574 C56 521 98 479 151 479 L164 479 C216 479 259 521 259 574 L259 690 C259 716 247 742 228 760 L228 760 Z M157 853 C174 853 187 840 187 822 C187 805 174 788 157 788 C142 788 128 803 128 820 C128 838 142 853 157 853 L157 853 Z M196 574 C196 556 181 542 164 542 L151 542 C133 542 119 556 119 574 L119 690 C119 707 133 721 151 721 L164 721 C181 721 196 707 196 690 L196 574 L196 574 Z " />
<glyph glyph-name="ninesuperior" unicode="&#x2079;" horiz-adv-x="293" d="M150 917 C150 917 150 917 150 917 L150 917 L150 917 C98 917 56 872 56 821 L56 716 C56 664 98 622 150 622 C160 622 170 624 180 626 L180 581 C180 560 166 542 150 542 C133 542 119 560 119 581 L56 581 C56 524 98 479 150 479 C200 479 242 524 242 581 L242 716 L242 812 L242 821 C242 872 200 917 150 917 L150 917 Z M150 685 C133 685 119 698 119 716 L119 812 C119 834 133 854 150 854 C150 854 150 854 150 854 C166 853 180 834 180 812 L180 716 C180 698 166 685 150 685 L150 685 Z " />
<glyph glyph-name="parenleftsuperior" unicode="&#x207d;" horiz-adv-x="205" d="M156 868 C138 868 121 868 103 868 C31 709 31 519 103 360 C121 360 138 360 156 360 C84 519 84 709 156 868 L156 868 Z " />
<glyph glyph-name="parenrightsuperior" unicode="&#x207e;" horiz-adv-x="186" d="M31 868 C104 709 104 519 31 360 C50 360 67 360 84 360 C156 519 156 709 84 868 C67 868 50 868 31 868 L31 868 Z " />
<glyph glyph-name="nsuperior" unicode="&#x207f;" horiz-adv-x="344" d="M182 809 C163 809 136 799 124 779 L124 809 L52 809 L52 669 L52 392 L52 360 L124 360 L124 392 L124 669 C124 705 149 735 177 735 C206 735 229 705 229 669 L229 360 L302 360 L302 669 C302 746 250 809 182 809 L182 809 Z " />
<glyph glyph-name="zeroinferior" unicode="&#x2080;" horiz-adv-x="360" d="M211 300 L175 300 C122 300 80 263 80 205 L80 -43 C80 -95 122 -138 175 -138 L211 -138 C264 -138 306 -95 306 -43 L306 205 C306 258 264 300 211 300 L211 300 Z M244 -43 C244 -60 229 -74 211 -74 L175 -74 C157 -74 143 -60 143 -43 L143 205 C143 223 157 238 175 238 L211 238 C229 238 244 223 244 205 L244 -43 L244 -43 Z " />
<glyph glyph-name="oneinferior" unicode="&#x2081;" horiz-adv-x="281" d="M128 296 L80 246 L126 203 L152 230 L152 -142 L215 -142 L215 296 L128 296 L128 296 Z " />
<glyph glyph-name="twoinferior" unicode="&#x2082;" horiz-adv-x="360" d="M284 185 C283 248 239 299 181 299 C126 299 80 244 80 179 L144 179 C144 209 161 236 181 236 C203 236 221 212 221 185 C222 131 192 98 160 61 C121 19 79 -28 80 -108 L82 -139 L268 -139 L268 -76 L146 -76 C155 -38 179 -11 206 19 C242 60 284 107 284 185 L284 185 Z " />
<glyph glyph-name="threeinferior" unicode="&#x2083;" horiz-adv-x="319" d="M73 296 L73 234 L148 234 L59 118 L122 118 C172 118 197 83 197 16 C197 -49 173 -78 157 -78 C137 -78 119 -53 119 -23 L56 -23 C56 -88 102 -142 157 -142 C188 -142 216 -124 234 -92 C251 -65 259 -28 259 16 C259 94 230 148 179 169 L276 296 L73 296 L73 296 Z " />
<glyph glyph-name="fourinferior" unicode="&#x2084;" horiz-adv-x="358" d="M260 296 L194 296 L61 0 L197 0 L197 -142 L260 -142 L260 0 L296 0 L296 62 L260 62 L260 296 L260 296 Z M197 62 L158 62 L197 148 L197 62 L197 62 Z " />
<glyph glyph-name="fiveinferior" unicode="&#x2085;" horiz-adv-x="360" d="M230 167 C209 182 184 188 154 185 L154 234 L256 234 L256 296 L91 296 L91 102 L132 116 C160 126 180 125 193 116 C211 103 222 68 222 20 C222 -17 216 -78 181 -78 C170 -78 158 -70 151 -56 C146 -47 143 -35 143 -23 L80 -23 C80 -46 85 -67 96 -86 C114 -121 146 -142 181 -142 C214 -142 240 -126 258 -100 C276 -72 284 -32 284 20 C284 91 266 142 230 167 L230 167 Z " />
<glyph glyph-name="sixinferior" unicode="&#x2086;" horiz-adv-x="334" d="M173 234 C190 234 204 214 204 192 L266 192 C266 248 224 296 173 296 C122 296 80 248 80 192 L80 64 L80 -38 L80 -42 C80 -55 83 -68 88 -79 C102 -115 136 -142 173 -142 C211 -142 245 -115 259 -79 C264 -68 266 -55 266 -42 L266 64 C266 116 224 158 173 158 C163 158 152 157 143 154 L143 192 C143 214 157 234 173 234 L173 234 Z M173 96 C190 96 204 82 204 64 L204 -38 C204 -44 203 -50 200 -55 C196 -66 185 -73 173 -73 C162 -73 151 -66 146 -55 C144 -50 143 -44 143 -38 L143 64 C143 82 157 96 173 96 L173 96 Z " />
<glyph glyph-name="seveninferior" unicode="&#x2087;" horiz-adv-x="422" d="M80 296 L80 234 L199 234 C164 166 108 29 108 -142 L170 -142 C170 83 280 246 280 247 L313 296 L80 296 L80 296 Z " />
<glyph glyph-name="eightinferior" unicode="&#x2088;" horiz-adv-x="358" d="M252 139 C265 155 274 176 274 200 C274 252 233 296 181 296 C131 296 89 252 89 200 C89 176 97 155 110 139 C92 121 80 97 80 70 L80 -47 C80 -98 122 -142 175 -142 L188 -142 C240 -142 283 -98 283 -47 L283 70 C283 97 271 121 252 139 L252 139 Z M181 234 C198 234 211 220 211 202 C211 185 198 168 181 168 C166 168 152 182 152 200 C152 217 166 234 181 234 L181 234 Z M220 -47 C220 -64 205 -78 188 -78 L175 -78 C157 -78 143 -64 143 -47 L143 70 C143 86 157 101 175 101 L188 101 C205 101 220 86 220 70 L220 -47 L220 -47 Z " />
<glyph glyph-name="nineinferior" unicode="&#x2089;" horiz-adv-x="344" d="M174 296 C174 296 173 296 173 296 L173 296 L173 296 C122 296 80 252 80 200 L80 96 C80 44 122 1 173 1 C184 1 194 4 204 7 L204 -40 C204 -60 190 -78 173 -78 C157 -78 143 -60 143 -40 L80 -40 C80 -95 122 -142 173 -142 C224 -142 266 -95 266 -40 L266 96 L266 192 L266 200 C266 252 224 296 174 296 L174 296 Z M173 65 C157 65 143 79 143 96 L143 192 C143 214 157 234 173 234 C173 234 173 234 173 234 C190 234 204 214 204 192 L204 96 C204 79 190 65 173 65 L173 65 Z " />
<glyph glyph-name="parenleftinferior" unicode="&#x208d;" horiz-adv-x="172" d="M131 360 C116 360 102 360 88 360 C31 231 31 77 88 -52 C102 -52 116 -52 131 -52 C73 77 73 231 131 360 L131 360 Z " />
<glyph glyph-name="parenrightinferior" unicode="&#x208e;" horiz-adv-x="150" d="M31 360 C88 231 88 77 31 -52 C45 -52 59 -52 73 -52 C131 77 131 231 73 360 C59 360 45 360 31 360 L31 360 Z " />
<glyph glyph-name="colonmonetary" unicode="&#x20a1;" horiz-adv-x="494" d="M419 677 C419 678 419 678 418 679 L466 847 L407 847 L379 748 C377 751 373 754 371 756 C359 768 347 778 332 786 L350 847 L292 847 L280 805 C268 808 256 809 244 809 L234 809 C134 809 52 727 52 626 L52 182 C52 149 61 116 78 89 L43 -32 L102 -32 L122 38 C137 28 154 18 170 12 L158 -32 L217 -32 L227 0 C229 0 232 0 234 0 L244 0 C319 0 389 49 415 121 L325 152 C314 121 286 98 253 95 L418 677 L419 677 L419 677 Z M146 626 C146 674 185 714 234 714 L244 714 C247 714 251 714 253 713 L146 334 L146 626 L146 626 Z M197 103 C176 113 161 128 154 149 L305 688 C316 677 324 665 328 650 L353 658 L197 103 L197 103 Z " />
<glyph glyph-name="Euro" unicode="&#x20ac;" horiz-adv-x="484" d="M244 719 L253 719 C301 719 340 679 340 630 L436 630 C436 731 354 814 253 814 L244 814 C143 814 61 731 61 630 L61 540 L31 540 L31 445 L61 445 L61 374 L31 374 L31 280 L61 280 L61 187 C61 88 143 5 244 5 L253 5 C354 5 436 88 436 187 L340 187 C340 138 301 98 253 98 L244 98 C196 98 157 138 157 187 L157 280 L368 280 L368 374 L157 374 L157 445 L368 445 L368 540 L157 540 L157 630 C157 679 196 719 244 719 L244 719 Z " />
<glyph glyph-name="afii61352" unicode="&#x2116;" horiz-adv-x="821" d="M331 266 L133 809 L31 809 L31 809 L31 -1 L126 -1 L126 550 L329 -1 L331 -1 L366 -1 L426 -1 L426 809 L331 809 L331 266 L331 266 Z M624 800 C535 800 461 719 461 619 L461 398 C461 299 535 217 624 217 C714 217 787 299 787 398 L787 619 C787 719 714 800 624 800 L624 800 Z M692 398 C692 352 661 312 624 312 C587 312 556 352 556 398 L556 619 C556 666 587 706 624 706 C661 706 692 666 692 619 L692 398 Z M476 83 L781 83 L781 178 L476 178 L476 83 Z " />
<glyph glyph-name="trademark" unicode="&#x2122;" horiz-adv-x="402" d="M220 808 L174 808 L174 808 L174 480 L218 480 L218 671 L250 572 L282 572 L313 674 L313 480 L360 480 L360 808 L313 808 L264 654 L220 808 Z M18 761 L66 761 L66 480 L112 480 L112 761 L158 761 L158 808 L18 808 L18 761 L18 761 Z " />
<glyph glyph-name="onethird" unicode="&#x2153;" horiz-adv-x="612" d="M80 812 L32 762 L78 719 L104 746 L104 374 L167 374 L167 812 L80 812 Z M371 437 L371 374 L445 374 L356 258 L420 258 C469 258 494 223 494 156 C494 91 470 62 455 62 C434 62 416 88 416 118 L354 118 C354 53 400 -1 455 -1 C486 -1 514 17 532 48 C548 76 557 113 557 156 C557 234 528 288 476 310 L574 437 L371 437 Z M84 4 L179 4 L463 811 L369 811 L84 4 Z " />
<glyph glyph-name="twothirds" unicode="&#x2154;" horiz-adv-x="710" d="M259 695 C259 757 214 809 157 809 C101 809 56 754 56 689 L119 689 C119 719 137 746 157 746 C179 746 197 722 197 694 C197 641 168 608 134 571 C97 529 55 482 56 402 L56 371 L244 371 L244 434 L122 434 C130 472 155 499 181 529 C218 570 260 617 259 695 L259 695 Z M455 437 L455 374 L529 374 L440 258 L504 258 C553 258 578 223 578 156 C578 91 554 62 539 62 C518 62 500 88 500 118 L438 118 C438 53 484 -1 539 -1 C570 -1 598 17 616 48 C632 76 641 113 641 156 C641 234 612 288 560 310 L658 437 L455 437 Z M159 -1 L254 -1 L538 806 L444 806 L159 -1 Z " />
<glyph glyph-name="oneeighth" unicode="&#x215b;" horiz-adv-x="560" d="M484 281 C497 296 505 318 505 341 C505 394 464 438 413 438 C362 438 320 394 320 341 C320 318 329 296 342 281 C324 263 312 238 312 211 L312 95 C312 42 354 0 407 0 L420 0 C472 0 515 42 515 95 L515 211 C515 238 503 263 484 281 L484 281 Z M413 374 C430 374 443 361 443 343 C443 326 430 310 413 310 C397 310 384 324 384 341 C384 359 397 374 413 374 L413 374 Z M451 95 C451 77 437 64 420 64 L407 64 C389 64 374 77 374 95 L374 211 C374 228 389 242 407 242 L420 242 C437 242 451 228 451 211 L451 95 L451 95 Z M80 812 L32 762 L78 719 L104 746 L104 374 L167 374 L167 812 L80 812 Z M67 4 L162 4 L446 811 L352 811 L67 4 Z " />
<glyph glyph-name="threeeighths" unicode="&#x215c;" horiz-adv-x="672" d="M580 281 C593 296 601 318 601 341 C601 394 560 438 509 438 C458 438 416 394 416 341 C416 318 425 296 438 281 C420 263 408 238 408 211 L408 95 C408 42 450 0 503 0 L516 0 C568 0 611 42 611 95 L611 211 C611 238 599 263 580 281 L580 281 Z M509 374 C526 374 539 361 539 343 C539 326 526 310 509 310 C493 310 480 324 480 341 C480 359 493 374 509 374 L509 374 Z M547 95 C547 77 533 64 516 64 L503 64 C485 64 470 77 470 95 L470 211 C470 228 485 242 503 242 L516 242 C533 242 547 228 547 211 L547 95 L547 95 Z M73 809 L73 746 L148 746 L59 629 L122 629 C172 629 197 595 197 528 C197 463 173 433 157 433 C137 433 119 460 119 490 L56 490 C56 424 102 371 157 371 C188 371 216 389 234 419 C251 448 259 485 259 528 C259 606 230 660 179 682 L276 809 L73 809 L73 809 Z M140 4 L235 4 L519 811 L425 811 L140 4 Z " />
<glyph glyph-name="fiveeighths" unicode="&#x215d;" horiz-adv-x="664" d="M580 281 C593 296 601 318 601 341 C601 394 560 438 509 438 C458 438 416 394 416 341 C416 318 425 296 438 281 C420 263 408 238 408 211 L408 95 C408 42 450 0 503 0 L516 0 C568 0 611 42 611 95 L611 211 C611 238 599 263 580 281 L580 281 Z M509 374 C526 374 539 361 539 343 C539 326 526 310 509 310 C493 310 480 324 480 341 C480 359 493 374 509 374 L509 374 Z M547 95 C547 77 533 64 516 64 L503 64 C485 64 470 77 470 95 L470 211 C470 228 485 242 503 242 L516 242 C533 242 547 228 547 211 L547 95 L547 95 Z M206 679 C185 695 160 701 130 697 L130 745 L232 745 L232 809 L67 809 L67 614 L108 629 C136 637 156 637 169 628 C187 616 198 581 198 532 C198 496 192 433 157 433 C146 433 134 442 127 456 C122 466 119 478 119 490 L56 490 C56 467 61 445 72 426 C90 391 122 371 157 371 C190 371 216 386 234 413 C252 440 260 479 260 532 C260 604 242 653 206 679 L206 679 Z M141 4 L236 4 L520 811 L426 811 L141 4 Z " />
<glyph glyph-name="seveneighths" unicode="&#x215e;" horiz-adv-x="557" d="M472 281 C485 296 493 318 493 341 C493 394 452 438 401 438 C350 438 308 394 308 341 C308 318 317 296 330 281 C312 263 300 238 300 211 L300 95 C300 42 342 0 395 0 L408 0 C460 0 503 42 503 95 L503 211 C503 238 491 263 472 281 L472 281 Z M401 374 C418 374 431 361 431 343 C431 326 418 310 401 310 C385 310 372 324 372 341 C372 359 385 374 401 374 L401 374 Z M439 95 C439 77 425 64 408 64 L395 64 C377 64 362 77 362 95 L362 211 C362 228 377 242 395 242 L408 242 C425 242 439 228 439 211 L439 95 L439 95 Z M56 809 L56 746 L175 746 C140 678 84 541 84 371 L148 371 C148 595 256 758 256 760 L289 809 L56 809 L56 809 Z M55 4 L150 4 L434 811 L340 811 L55 4 Z " />
<glyph glyph-name="partialdiff" unicode="&#x2202;" horiz-adv-x="502" d="M324 815 C229 815 138 732 120 631 L215 631 C223 680 264 720 307 720 C348 720 377 680 367 631 L350 533 C330 546 304 553 277 553 C181 553 92 470 74 370 L44 196 C43 193 42 190 42 187 L42 187 C24 86 85 4 180 4 C275 4 365 86 383 187 L385 196 L416 370 L461 631 C479 732 418 815 324 815 L324 815 Z M169 370 C178 419 218 458 260 458 C301 458 330 419 322 370 L292 196 C282 148 240 108 199 108 C157 108 130 148 139 196 L169 370 L169 370 Z " />
<glyph glyph-name="product" unicode="&#x220f;" horiz-adv-x="490" d="M31 808 L31 -1 L126 -1 L126 713 L348 713 L348 -1 L442 -1 L442 806 L31 808 Z " />
<glyph glyph-name="summation" unicode="&#x2211;" horiz-adv-x="463" d="M215 352 L31 7 L426 7 L426 102 L190 102 L322 352 L190 601 L426 601 L426 696 L31 696 L215 352 L215 352 Z " />
<glyph glyph-name="minus" unicode="&#x2212;" horiz-adv-x="563" d="M31 360 L506 360 L506 455 L31 455 L31 360 L31 360 Z " />
<glyph glyph-name="radical" unicode="&#x221a;" horiz-adv-x="686" d="M338 150 L217 437 L31 336 L78 253 L170 304 L350 -116 L655 810 L565 840 L338 150 L338 150 Z " />
<glyph glyph-name="infinity" unicode="&#x221e;" horiz-adv-x="707" d="M547 527 C524 527 500 523 476 512 L348 457 C307 475 269 492 239 504 L221 511 C198 523 174 527 151 527 C80 527 31 478 31 407 C31 371 43 341 66 319 C88 296 119 286 151 286 C174 286 198 289 221 301 L348 354 C386 337 422 323 450 311 L476 300 C500 289 523 286 546 286 C546 286 546 286 546 286 C580 286 611 296 632 318 C655 341 667 371 667 407 C667 478 617 527 547 527 L547 527 Z M185 388 C174 383 161 380 151 380 C146 380 138 380 133 385 C127 390 126 400 126 407 C126 425 134 432 151 432 C161 432 173 430 184 425 L202 418 C210 414 220 409 228 406 L185 388 L185 388 Z M566 385 C560 380 552 379 546 379 C546 379 546 379 546 379 C536 379 526 383 514 386 L488 398 C481 401 476 403 469 406 L514 425 C526 430 536 432 547 432 C565 432 572 425 572 407 C572 400 571 390 566 385 L566 385 Z " />
<glyph glyph-name="integral" unicode="&#x222b;" horiz-adv-x="377" d="M79 630 L79 178 C79 121 48 89 31 89 L31 -5 C110 -5 174 77 174 178 L174 630 C174 678 205 719 241 719 C259 719 272 710 280 702 L343 774 C316 800 278 814 241 814 C152 814 79 731 79 630 L79 630 Z " />
<glyph glyph-name="approxequal" unicode="&#x2248;" horiz-adv-x="510" d="M328 527 C284 527 252 506 226 490 C205 478 190 468 174 468 C174 468 174 468 174 468 C150 468 120 493 100 515 L31 446 C82 397 127 373 174 373 C174 373 174 373 174 373 C217 373 250 394 276 409 C295 422 312 432 328 432 C353 432 383 407 406 385 L473 451 C420 503 376 527 329 527 C328 527 328 527 328 527 L328 527 Z M328 359 C284 359 252 340 226 323 C205 311 190 300 174 300 C174 300 174 300 174 300 C150 300 120 326 100 347 L31 280 C82 229 127 206 174 206 C174 206 174 206 174 206 C217 206 250 226 276 242 C295 254 312 265 328 265 C353 264 383 239 406 217 L473 284 C420 335 376 359 329 359 C328 359 328 359 328 359 L328 359 Z " />
<glyph glyph-name="notequal" unicode="&#x2260;" horiz-adv-x="380" d="M313 572 L227 612 L185 522 L31 522 L31 426 L142 426 L116 370 L31 370 L31 275 L72 275 L56 240 L142 200 L178 275 L337 275 L337 370 L221 370 L246 426 L337 426 L337 522 L290 522 L313 572 L313 572 Z " />
<glyph glyph-name="lessequal" unicode="&#x2264;" horiz-adv-x="390" d="M215 230 L296 280 L190 454 L295 624 L215 674 L78 455 L215 230 Z M356 107 L356 202 L31 202 L31 107 L356 107 Z " />
<glyph glyph-name="greaterequal" unicode="&#x2265;" horiz-adv-x="391" d="M174 230 L311 455 L174 674 L94 624 L199 454 L92 280 L174 230 L174 230 Z M31 107 L356 107 L356 202 L31 202 L31 107 L31 107 Z " />
<glyph glyph-name="lozenge" unicode="&#x25ca;" horiz-adv-x="414" d="M236 721 L176 721 L31 425 L176 124 L236 124 L380 420 L248 694 L236 721 L236 721 Z M206 280 L137 425 L205 564 L276 420 L206 280 L206 280 Z " />
<glyph glyph-name="ff" unicode="&#xfb00;" horiz-adv-x="650" d="M110 625 L110 583 L48 583 L48 487 L110 487 L110 0 L203 0 L203 487 L269 487 L269 583 L203 583 L203 625 C203 673 236 714 272 714 C288 714 302 706 310 698 L374 769 C345 794 309 809 272 809 C182 809 110 726 110 625 L110 625 Z M329 625 L329 583 L267 583 L267 487 L329 487 L329 0 L422 0 L422 487 L488 487 L488 583 L422 583 L422 625 C422 673 455 714 491 714 C507 714 521 706 529 698 L593 769 C564 794 528 809 491 809 C401 809 329 726 329 625 L329 625 Z " />
<glyph glyph-name="fi" unicode="&#xfb01;" horiz-adv-x="600" d="M343 -2 L438 -2 L438 583 L343 583 L343 -2 L343 -2 Z M377 769 C348 794 301 809 265 809 C175 809 94 726 94 625 L94 583 L31 583 L31 487 L94 487 L94 -1 L187 -1 L187 487 L253 487 L253 583 L187 583 L187 625 C187 674 223 712 265 714 C284 715 305 706 313 698 C332 683 343 654 343 625 L438 625 C438 683 415 733 377 769 L377 769 Z " />
<glyph glyph-name="fl" unicode="&#xfb02;" horiz-adv-x="565" d="M372 769 C343 794 292 809 256 809 C166 809 94 726 94 625 L94 583 L31 583 L31 487 L94 487 L94 -1 L187 -1 L187 487 L253 487 L253 583 L187 583 L187 625 C187 674 220 712 256 714 C277 715 300 706 308 698 C328 683 338 654 338 625 L338 -1 L433 -1 L433 625 C433 683 410 733 372 769 L372 769 Z " />
<glyph glyph-name="ffi" unicode="&#xfb03;" horiz-adv-x="822" d="M110 625 L110 583 L48 583 L48 487 L110 487 L110 0 L203 0 L203 487 L269 487 L269 583 L203 583 L203 625 C203 673 236 714 272 714 C288 714 302 706 310 698 L374 769 C345 794 309 809 272 809 C182 809 110 726 110 625 L110 625 Z M576 -2 L671 -2 L671 583 L576 583 L576 -2 L576 -2 Z M610 769 C581 794 534 809 498 809 C408 809 327 726 327 625 L327 583 L264 583 L264 487 L327 487 L327 -1 L420 -1 L420 487 L486 487 L486 583 L420 583 L420 625 C420 674 456 712 498 714 C517 715 538 706 546 698 C565 683 576 654 576 625 L671 625 C671 683 648 733 610 769 L610 769 Z " />
<glyph glyph-name="ffl" unicode="&#xfb04;" horiz-adv-x="732" d="M110 625 L110 583 L48 583 L48 487 L110 487 L110 0 L203 0 L203 487 L269 487 L269 583 L203 583 L203 625 C203 673 236 714 272 714 C288 714 302 706 310 698 L374 769 C345 794 309 809 272 809 C182 809 110 726 110 625 L110 625 Z M606 769 C577 794 526 809 490 809 C400 809 328 726 328 625 L328 583 L265 583 L265 487 L328 487 L328 -1 L421 -1 L421 487 L487 487 L487 583 L421 583 L421 625 C421 674 454 712 490 714 C511 715 534 706 542 698 C562 683 572 654 572 625 L572 -1 L667 -1 L667 625 C667 683 644 733 606 769 L606 769 Z " />
</font>
</svg>
